Subcategories

The Jeff Healey Band - The Full Circle: The Live Anthology (2011) {3CD+DVD Box Set} Repost / New Rip

Posted By: popsakov
The Jeff Healey Band - The Full Circle: The Live Anthology (2011) {3CD+DVD Box Set} Repost / New Rip

The Jeff Healey Band - The Full Circle: The Live Anthology (2011) {3CD+DVD Box Set}
EAC Rip | FLAC (Img) + Cue + Log ~ 1,14 Gb | MP3 CBR320 ~ 458 Mb
DVD-5 | ISO | MPEG-2, NTSC 720x480 (4:3), 29.970 fps, VBR ~ 7927 kb/s
Audio #1: DD 5.1, 16 bits/48.0 kHz, 448 kb/s | Audio #2: DD 2.0, 16 bits/48.0 kHz, 192 kb/s
64 min (Video) | ~ 3,95 Gb | Scans Included (JPG, 300 dpi) | RAR 5% Recovery
Blues Rock, Modern Electric Blues | Eagle Records #EAGBX472 / GAS 0000472 EAGBX

Jeff Healey was an astounding and varied talent as a singer, guitarist, and, later in his career, as a trumpet player, and it's difficult to imagine an artist quite like him. Blind from eye cancer since the age of one, he drew attention as a maverick guitar player (he played his Stratocaster on his lap, which allowed him to attack and bend the strings in a totally unique style; at his best, he roared and soared as well as anybody ever has on the instrument). This four-disc set (three CDs and a DVD) features Healey and his crackerjack band live in three separate concerts, and it makes clear what a powerful and empowering performer he was on-stage. The first disc catches the Jeff Healey Band blazing through an 11-song set at the 1989 Montreal Jazz Festival, with the second disc capturing a set from the St. Gallen Open Air Festival in Switzerland from 1991 (the performance was filmed and makes up the DVD included here), and the third disc presents a 1995 stage set from the Hard Rock in Toronto. These live shows reveal the obvious: the Jeff Healey Band was an explosive and exciting blues rock bar band (much like the role they played in the movie Roadhouse) with a maverick virtuoso guitarist at the center of things. It worked in the movie. It worked pretty much everywhere.
~ Steve Leggett, All Music
The Jeff Healey Band - The Full Circle: The Live Anthology (2011) {3CD+DVD Box Set} Repost / New Rip


***************

The Jeff Healey Band - The Full Circle: The Live Anthology (2011) {3CD+DVD Box Set} Repost / New Rip

Track List CD1 Live At The Montreal Jazz Fest - 1989:

01. The Better It Gets [4:04]
02. I'm Tore Down [4:58]
03. My Little Girl [4:00]
04. Blue Jean Blues [11:39]
05. Confidence Man [4:09]
06. I Need To Be Loved [5:37]
07. When The Night Comes Falling From The Sky [7:55]
08. Angel Eyes [6:14]
09. Roadhouse Blues [12:44]
10. Hide Away [7:14]
11. That's What They Say [5:33]

Exact Audio Copy V1.0 beta 3 from 29. August 2011

EAC extraction logfile from 23. July 2012, 21:37

The Jeff Healey Band / Live At The Montreal Jazz Fest (1989)

Used drive : PLEXTOR DVDR PX-860A Adapter: 4 ID: 0

Read mode : Secure
Utilize accurate stream : Yes
Defeat audio cache : Yes
Make use of C2 pointers : No

Read offset correction : 96
Overread into Lead-In and Lead-Out : No
Fill up missing offset samples with silence : Yes
Delete leading and trailing silent blocks : No
Null samples used in CRC calculations : Yes
Used interface : Installed external ASPI interface

Used output format : User Defined Encoder
Selected bitrate : 1024 kBit/s
Quality : High
Add ID3 tag : No
Command line compressor : C:\Program Files\Exact Audio Copy\FLAC.EXE
Additional command line options : -V -8 -T "Date=%year%" -T "Genre=%genre%" %source%


TOC of the extracted CD

Track | Start | Length | Start sector | End sector
––––––––––––––––––––––––––––-
1 | 0:00.00 | 4:04.18 | 0 | 18317
2 | 4:04.18 | 4:58.34 | 18318 | 40701
3 | 9:02.52 | 4:00.30 | 40702 | 58731
4 | 13:03.07 | 11:39.19 | 58732 | 111175
5 | 24:42.26 | 4:08.54 | 111176 | 129829
6 | 28:51.05 | 5:37.11 | 129830 | 155115
7 | 34:28.16 | 7:54.51 | 155116 | 190716
8 | 42:22.67 | 6:13.65 | 190717 | 218756
9 | 48:36.57 | 12:43.55 | 218757 | 276036
10 | 61:20.37 | 7:13.44 | 276037 | 308555
11 | 68:34.06 | 5:33.36 | 308556 | 333566


Range status and errors

Selected range

Filename J:\MUSIC\The Jeff Healey Band - Live At The Montreal Jazz Fest (1989).wav

Peak level 100.0 %
Extraction speed 8.3 X
Range quality 100.0 %
Test CRC F9FB738E
Copy CRC F9FB738E
Copy OK

No errors occurred


AccurateRip summary

Track 1 accurately ripped (confidence 3) [DAFC9101] (AR v1)
Track 2 accurately ripped (confidence 3) [3872BFCC] (AR v1)
Track 3 accurately ripped (confidence 3) [04C897A5] (AR v1)
Track 4 accurately ripped (confidence 3) [0DDABBE3] (AR v1)
Track 5 accurately ripped (confidence 3) [3267BC0C] (AR v1)
Track 6 accurately ripped (confidence 3) [E514D68E] (AR v1)
Track 7 accurately ripped (confidence 3) [B5535C73] (AR v1)
Track 8 accurately ripped (confidence 3) [0C84AA0F] (AR v1)
Track 9 accurately ripped (confidence 3) [74A0E3C4] (AR v1)
Track 10 accurately ripped (confidence 3) [3AFFE5A5] (AR v1)
Track 11 accurately ripped (confidence 3) [2587F450] (AR v1)

All tracks accurately ripped

End of status report

==== Log checksum 3D9F7CC564CFAB3A84C2EED823F8973A13EE3F8A56E48B65C249290EB569B56D ====

foobar2000 1.3.16 / Dynamic Range Meter 1.1.1
log date: 2018-02-01 13:15:26

––––––––––––––––––––––––––––––––––––––––
Analyzed: The Jeff Healey Band / Live At The Montreal Jazz Fest (1989)
––––––––––––––––––––––––––––––––––––––––

DR Peak RMS Duration Track
––––––––––––––––––––––––––––––––––––––––
DR11 0.00 dB -11.68 dB 4:04 01-The Better It Gets
DR10 0.00 dB -10.69 dB 4:58 02-I'm Tore Down
DR9 0.00 dB -10.01 dB 4:00 03-My Little Girl
DR9 0.00 dB -9.74 dB 11:39 04-Blue Jean Blues
DR8 0.00 dB -8.73 dB 4:09 05-Confidence Man
DR8 0.00 dB -8.81 dB 5:37 06-I Need To Be Loved
DR8 0.00 dB -8.22 dB 7:55 07-When The Night Comes Falling From The Sky
DR8 0.00 dB -8.12 dB 6:14 08-Angel Eyes
DR7 0.00 dB -7.81 dB 12:44 09-Roadhouse Blues
DR7 0.00 dB -7.32 dB 7:14 10-Hide Away
DR7 0.00 dB -7.25 dB 5:33 11-That's What They Say
––––––––––––––––––––––––––––––––––––––––

Number of tracks: 11
Official DR value: DR8

Samplerate: 44100 Hz
Channels: 2
Bits per sample: 16
Bitrate: 868 kbps
Codec: FLAC
================================================================================

[CUETools log; Date: 01.02.2018 13:15:27; Version: 2.1.5]
[CTDB TOCID: WEghhx0TeWOFqAQZ6LHNyCNwb3k-] found.
Track | CTDB Status
1 | (24/24) Accurately ripped
2 | (24/24) Accurately ripped
3 | (24/24) Accurately ripped
4 | (24/24) Accurately ripped
5 | (24/24) Accurately ripped
6 | (23/24) Accurately ripped
7 | (24/24) Accurately ripped
8 | (24/24) Accurately ripped
9 | (23/24) Accurately ripped
10 | (24/24) Accurately ripped
11 | (24/24) Accurately ripped
[AccurateRip ID: 001c1964-00fb4106-99115f0b] found.
Track [ CRC | V2 ] Status
01 [dafc9101|17930a86] (03+12/20) Accurately ripped
02 [3872bfcc|a8c0c66b] (03+12/20) Accurately ripped
03 [04c897a5|bc47c786] (03+12/20) Accurately ripped
04 [0ddabbe3|49c8e5df] (03+12/20) Accurately ripped
05 [3267bc0c|709c41ea] (03+12/20) Accurately ripped
06 [e514d68e|9b6873ad] (03+12/20) Accurately ripped
07 [b5535c73|80c175ea] (03+12/20) Accurately ripped
08 [0c84aa0f|3a23669f] (03+12/20) Accurately ripped
09 [74a0e3c4|e071bc14] (03+12/20) Accurately ripped
10 [3affe5a5|c0788ff4] (03+12/20) Accurately ripped
11 [2587f450|2dd26dd9] (03+12/20) Accurately ripped
Offsetted by 36:
01 [1a39bfd0] (00/20) No match (V2 was not tested)
02 [ee0eeea9] (00/20) No match (V2 was not tested)
03 [05f00704] (00/20) No match (V2 was not tested)
04 [b50d5c9b] (00/20) No match (V2 was not tested)
05 [b03312e9] (00/20) No match (V2 was not tested)
06 [95f7a53a] (00/20) No match (V2 was not tested)
07 [3efec257] (00/20) No match (V2 was not tested)
08 [1e3a21bc] (00/20) No match (V2 was not tested)
09 [779b30ab] (00/20) No match (V2 was not tested)
10 [e3744ed8] (00/20) No match (V2 was not tested)
11 [5f9d9533] (00/20) No match (V2 was not tested)

Track Peak [ CRC32 ] [W/O NULL] [ LOG ]
– 100,0 [F9FB738E] [1E905A8D] CRC32
01 100,0 [E03B01B8] [D570D502]
02 100,0 [613E11C1] [18299DD6]
03 100,0 [E9E59FFA] [769CAC98]
04 100,0 [BA33BB3F] [A8FC6723]
05 100,0 [51431A81] [71E9A362]
06 100,0 [AEF0F82D] [9597F20A]
07 100,0 [5CEEB887] [0D48CD65]
08 100,0 [A2452101] [45D88CD2]
09 100,0 [95B1BCCA] [B7BEC00E]
10 100,0 [3C916563] [9BF64FC8]
11 100,0 [AE8ABDDF] [8013DD77]

Track List CD2 Live At The St. Gallen Open Air Festival - 1991:

01. My Little Girl [3:40]
02. Blue Jean Blues [10:26]
03. I Think I Love You Too Much [5:33]
04. How Long Can A Man Be Strong [5:32]
05. I Can't Get My Hands On You [5:33]
06. Full Circle [5:42]
07. Angel Eyes [6:07]
08. Guitar Solo [2:20]
09. See The Light [11:39]
10. While My Guitar Gently Weeps [6:01]

Exact Audio Copy V1.0 beta 3 from 29. August 2011

EAC extraction logfile from 23. July 2012, 22:06

The Jeff Healey Band / Live At The St. Gallen Open Air Festival (1991)

Used drive : PLEXTOR DVDR PX-860A Adapter: 4 ID: 0

Read mode : Secure
Utilize accurate stream : Yes
Defeat audio cache : Yes
Make use of C2 pointers : No

Read offset correction : 96
Overread into Lead-In and Lead-Out : No
Fill up missing offset samples with silence : Yes
Delete leading and trailing silent blocks : No
Null samples used in CRC calculations : Yes
Used interface : Installed external ASPI interface

Used output format : User Defined Encoder
Selected bitrate : 1024 kBit/s
Quality : High
Add ID3 tag : No
Command line compressor : C:\Program Files\Exact Audio Copy\FLAC.EXE
Additional command line options : -V -8 -T "Date=%year%" -T "Genre=%genre%" %source%


TOC of the extracted CD

Track | Start | Length | Start sector | End sector
––––––––––––––––––––––––––––-
1 | 0:00.00 | 3:39.65 | 0 | 16489
2 | 3:39.65 | 10:26.06 | 16490 | 63445
3 | 14:05.71 | 5:32.43 | 63446 | 88388
4 | 19:38.39 | 5:31.40 | 88389 | 113253
5 | 25:10.04 | 5:33.16 | 113254 | 138244
6 | 30:43.20 | 5:42.15 | 138245 | 163909
7 | 36:25.35 | 6:06.52 | 163910 | 191411
8 | 42:32.12 | 2:19.39 | 191412 | 201875
9 | 44:51.51 | 11:39.26 | 201876 | 254326
10 | 56:31.02 | 6:01.04 | 254327 | 281405


Range status and errors

Selected range

Filename J:\MUSIC\The Jeff Healey Band - Live At The St. Gallen Open Air Festival (1991).wav

Peak level 99.7 %
Extraction speed 7.7 X
Range quality 100.0 %
Test CRC CB131689
Copy CRC CB131689
Copy OK

No errors occurred


AccurateRip summary

Track 1 accurately ripped (confidence 3) [DE1E89C1] (AR v1)
Track 2 accurately ripped (confidence 3) [7DAA2177] (AR v1)
Track 3 accurately ripped (confidence 3) [2360225D] (AR v1)
Track 4 accurately ripped (confidence 3) [0AFB209A] (AR v1)
Track 5 accurately ripped (confidence 3) [80A53ED0] (AR v1)
Track 6 accurately ripped (confidence 3) [316C6C3B] (AR v1)
Track 7 accurately ripped (confidence 3) [F91A138F] (AR v1)
Track 8 accurately ripped (confidence 3) [666CE7F9] (AR v1)
Track 9 accurately ripped (confidence 3) [55C1FF04] (AR v1)
Track 10 accurately ripped (confidence 3) [D836E3BB] (AR v1)

All tracks accurately ripped

End of status report

==== Log checksum 3FEA2B50725A7F17945B53037F7D4487B1FA1F79D4B53CE6FE287E98E4802D97 ====

foobar2000 1.3.16 / Dynamic Range Meter 1.1.1
log date: 2018-02-01 13:16:54

––––––––––––––––––––––––––––––––––––––––
Analyzed: The Jeff Healey Band / Live At The St. Gallen Open Air Festival (1991)
––––––––––––––––––––––––––––––––––––––––

DR Peak RMS Duration Track
––––––––––––––––––––––––––––––––––––––––
DR13 -1.67 dB -17.52 dB 3:40 01-My Little Girl
DR13 -0.03 dB -19.66 dB 10:26 02-Blue Jean Blues
DR12 -2.94 dB -17.90 dB 5:33 03-I Think I Love You Too Much
DR12 -3.75 dB -18.61 dB 5:32 04-How Long Can A Man Be Strong
DR12 -3.96 dB -18.43 dB 5:33 05-I Can't Get My Hands On You
DR13 -2.97 dB -18.06 dB 5:42 06-Full Circle
DR12 -4.06 dB -18.09 dB 6:07 07-Angel Eyes
DR14 -4.13 dB -23.86 dB 2:20 08-Guitar Solo
DR12 -3.39 dB -18.73 dB 11:39 09-See The Light
DR12 -3.31 dB -17.66 dB 6:01 10-While My Guitar Gently Weeps
––––––––––––––––––––––––––––––––––––––––

Number of tracks: 10
Official DR value: DR12

Samplerate: 44100 Hz
Channels: 2
Bits per sample: 16
Bitrate: 817 kbps
Codec: FLAC
================================================================================

[CUETools log; Date: 01.02.2018 13:16:30; Version: 2.1.5]
[CTDB TOCID: lrfJMqQWhkEqcNf3gTMrjIawL0Y-] found.
Track | CTDB Status
1 | (21/21) Accurately ripped
2 | (21/21) Accurately ripped
3 | (21/21) Accurately ripped
4 | (21/21) Accurately ripped
5 | (19/21) Accurately ripped
6 | (21/21) Accurately ripped
7 | (21/21) Accurately ripped
8 | (21/21) Accurately ripped
9 | (21/21) Accurately ripped
10 | (21/21) Accurately ripped
[AccurateRip ID: 00171533-00b8bc95-870ea80a] found.
Track [ CRC | V2 ] Status
01 [de1e89c1|9d566a0d] (03+12/20) Accurately ripped
02 [7daa2177|89ab6513] (03+12/20) Accurately ripped
03 [2360225d|d3d089b3] (03+12/20) Accurately ripped
04 [0afb209a|dc784497] (03+12/20) Accurately ripped
05 [80a53ed0|6d2daf7e] (03+12/20) Accurately ripped
06 [316c6c3b|816d439d] (03+12/20) Accurately ripped
07 [f91a138f|f7e50edc] (03+12/20) Accurately ripped
08 [666ce7f9|21897823] (03+12/20) Accurately ripped
09 [55c1ff04|e1004e95] (03+12/20) Accurately ripped
10 [d836e3bb|087d04f3] (03+12/20) Accurately ripped
Offsetted by -6:
01 [d5a7e40b] (00/20) No match (V2 was not tested)
02 [80046b73] (00/20) No match (V2 was not tested)
03 [540327fe] (00/20) No match (V2 was not tested)
04 [5b0877bc] (00/20) No match (V2 was not tested)
05 [45baf2a9] (00/20) No match (V2 was not tested)
06 [99cfb9be] (00/20) No match (V2 was not tested)
07 [f7108b82] (00/20) No match (V2 was not tested)
08 [2d96d362] (00/20) No match (V2 was not tested)
09 [222a56bb] (00/20) No match (V2 was not tested)
10 [6dd8f9b8] (00/20) No match (V2 was not tested)

Track Peak [ CRC32 ] [W/O NULL] [ LOG ]
– 99,7 [CB131689] [BC9A1D25] CRC32
01 82,4 [D4CAA5E2] [159B62FB]
02 99,7 [E37E4EF5] [D163DDBF]
03 71,2 [11297368] [9F571A28]
04 64,9 [8B1CA110] [D452880A]
05 63,3 [9DBA58A9] [7274A7CB]
06 71,0 [03803776] [DC432D4E]
07 62,6 [3ACFDF08] [37CFA8BD]
08 62,1 [2CA3004A] [403C2B2D]
09 67,6 [6D86EA80] [FE773279]
10 68,3 [BCB29396] [80DD5B55]

Track List CD3 Live At The Hard Rock Toronto - 1995:

01. I Got A Line On You [3:46]
02. Stop Breakin' Down Blues [6:15]
03. As The Years Go Passing By [5:20]
04. Year Blues [4:35]
05. Stuck In The Middle With You [3:56]
06. Evil (Is Going On) [5:48]
07. Angel [5:42]
08. See The Light [8:31]

Exact Audio Copy V1.0 beta 3 from 29. August 2011

EAC extraction logfile from 23. July 2012, 22:45

The Jeff Healey Band / Live At The Hard Rock Toronto (1995)

Used drive : PLEXTOR DVDR PX-860A Adapter: 4 ID: 0

Read mode : Secure
Utilize accurate stream : Yes
Defeat audio cache : Yes
Make use of C2 pointers : No

Read offset correction : 96
Overread into Lead-In and Lead-Out : No
Fill up missing offset samples with silence : Yes
Delete leading and trailing silent blocks : No
Null samples used in CRC calculations : Yes
Used interface : Installed external ASPI interface

Used output format : User Defined Encoder
Selected bitrate : 1024 kBit/s
Quality : High
Add ID3 tag : No
Command line compressor : C:\Program Files\Exact Audio Copy\FLAC.EXE
Additional command line options : -V -8 -T "Date=%year%" -T "Genre=%genre%" %source%


TOC of the extracted CD

Track | Start | Length | Start sector | End sector
––––––––––––––––––––––––––––-
1 | 0:00.00 | 3:45.57 | 0 | 16931
2 | 3:45.57 | 6:15.36 | 16932 | 45092
3 | 10:01.18 | 5:19.56 | 45093 | 69073
4 | 15:20.74 | 4:34.56 | 69074 | 89679
5 | 19:55.55 | 3:56.02 | 89680 | 107381
6 | 23:51.57 | 5:47.68 | 107382 | 133474
7 | 29:39.50 | 5:41.50 | 133475 | 159099
8 | 35:21.25 | 8:31.37 | 159100 | 197461


Range status and errors

Selected range

Filename J:\MUSIC\The Jeff Healey Band - Live At The Hard Rock Toronto (1995).wav

Peak level 83.8 %
Extraction speed 7.1 X
Range quality 100.0 %
Test CRC B84C8A2C
Copy CRC B84C8A2C
Copy OK

No errors occurred


AccurateRip summary

Track 1 accurately ripped (confidence 3) [0D3E4379] (AR v1)
Track 2 accurately ripped (confidence 3) [7BE90E37] (AR v1)
Track 3 accurately ripped (confidence 3) [A6971956] (AR v1)
Track 4 accurately ripped (confidence 3) [D9584FBC] (AR v1)
Track 5 accurately ripped (confidence 3) [53D902E3] (AR v1)
Track 6 accurately ripped (confidence 3) [311D3B53] (AR v1)
Track 7 accurately ripped (confidence 3) [F3CFD9AB] (AR v1)
Track 8 accurately ripped (confidence 3) [76FCEB82] (AR v1)

All tracks accurately ripped

End of status report

==== Log checksum 35C21B7C3D85065D345B4186C6AECCA8C5C25A90880875CF64B71BDD88B32F38 ====

foobar2000 1.3.16 / Dynamic Range Meter 1.1.1
log date: 2018-02-01 13:17:54

––––––––––––––––––––––––––––––––––––––––
Analyzed: The Jeff Healey Band / Live At The Hard Rock Toronto (1995)
––––––––––––––––––––––––––––––––––––––––

DR Peak RMS Duration Track
––––––––––––––––––––––––––––––––––––––––
DR9 -1.80 dB -12.75 dB 3:46 01-I Got A Line On You
DR12 -1.76 dB -16.55 dB 6:15 02-Stop Breakin' Down Blues
DR11 -1.94 dB -16.96 dB 5:20 03-As The Years Go Passing By
DR9 -1.69 dB -12.78 dB 4:35 04-Year Blues
DR10 -1.53 dB -12.92 dB 3:56 05-Stuck In The Middle With You
DR11 -1.58 dB -15.91 dB 5:48 06-Evil (Is Going On)
DR12 -1.91 dB -17.17 dB 5:42 07-Angel
DR12 -1.86 dB -16.52 dB 8:31 08-See The Light
––––––––––––––––––––––––––––––––––––––––

Number of tracks: 8
Official DR value: DR11

Samplerate: 44100 Hz
Channels: 2
Bits per sample: 16
Bitrate: 860 kbps
Codec: FLAC
================================================================================

[CUETools log; Date: 01.02.2018 13:17:38; Version: 2.1.5]
[CTDB TOCID: 2xNtALgARxzErBQ.wjQAuOsNG_k-] found.
Track | CTDB Status
1 | (21/21) Accurately ripped
2 | (21/21) Accurately ripped
3 | (21/21) Accurately ripped
4 | (21/21) Accurately ripped
5 | (21/21) Accurately ripped
6 | (21/21) Accurately ripped
7 | (21/21) Accurately ripped
8 | (21/21) Accurately ripped
[AccurateRip ID: 000c7c16-005443ef-590a4808] found.
Track [ CRC | V2 ] Status
01 [0d3e4379|8627fd64] (03+11/19) Accurately ripped
02 [7be90e37|db98623b] (03+12/20) Accurately ripped
03 [a6971956|e2423af9] (03+12/20) Accurately ripped
04 [d9584fbc|6334e254] (03+12/20) Accurately ripped
05 [53d902e3|fcfb861f] (03+12/20) Accurately ripped
06 [311d3b53|f5c7b28b] (03+12/20) Accurately ripped
07 [f3cfd9ab|b1b55e64] (03+12/20) Accurately ripped
08 [76fceb82|4f1ebf4a] (03+12/20) Accurately ripped
Offsetted by 36:
01 [1c4afaf0] (00/19) No match (V2 was not tested)
02 [ccbbdbb3] (00/20) No match (V2 was not tested)
03 [b103a31a] (00/20) No match (V2 was not tested)
04 [01f6ae4b] (00/20) No match (V2 was not tested)
05 [5e790ec7] (00/20) No match (V2 was not tested)
06 [3dd3efb3] (00/20) No match (V2 was not tested)
07 [8106fa17] (00/20) No match (V2 was not tested)
08 [d2dacf69] (00/20) No match (V2 was not tested)

Track Peak [ CRC32 ] [W/O NULL] [ LOG ]
– 83,8 [B84C8A2C] [35BE0508] CRC32
01 81,2 [98B0ADD1] [CDF97328]
02 81,6 [1022CA29] [C25549BD]
03 79,9 [E89DA2B7] [C1A28C24]
04 82,3 [494DF7F4] [DEF9DD1A]
05 83,8 [50DC0A51] [027786F8]
06 83,3 [615BAA5D] [CE675A75]
07 80,2 [0545B550] [3C88210F]
08 80,7 [3EABC246] [638391B3]

Track List DVD Live At The St. Gallen Open Air Festival - 1991:

01. My Little Girl [03:45]
02. Blue Jean Blues [09:18]
03. I Think I Love You Too Much [04:49]
04. How Long Can A Man Be Strong [04:48]
05. I Can’t Get My Hands On You [05:09]
06. Full Circle [05:03]
07. Angel Eyes [06:00]
08. Guitar Solo [02:47]
09. See The Light [08:47]
10. While My Guitar Gently Weeps [05:06]

General
Complete name : I:\VIDEO_TS\VTS_01_1.VOB
Format : MPEG-PS
File size : 1 024 MiB
Duration : 17 min 47 s
Overall bit rate mode : Variable
Overall bit rate : 8 043 kb/s

Video
ID : 224 (0xE0)
Format : MPEG Video
Format version : Version 2
Format profile : Main@Main
Format settings : CustomMatrix / BVOP
Format settings, BVOP : Yes
Format settings, Matrix : Custom
Format settings, GOP : Variable
Duration : 17 min 47 s
Bit rate mode : Variable
Bit rate : 7 243 kb/s
Maximum bit rate : 9 800 kb/s
Width : 720 pixels
Height : 480 pixels
Display aspect ratio : 4:3
Frame rate : 29.970 (30000/1001) FPS
Standard : NTSC
Color space : YUV
Chroma subsampling : 4:2:0
Bit depth : 8 bits
Scan type : Progressive
Scan order : Top Field First
Compression mode : Lossy
Bits/(Pixel*Frame) : 0.699
Time code of first frame : 00:59:58:02
Time code source : Group of pictures header
GOP, Open/Closed : Open
GOP, Open/Closed of first frame : Closed
Stream size : 922 MiB (90%)

Audio #1
ID : 189 (0xBD)-128 (0x80)
Format : AC-3
Format/Info : Audio Coding 3
Muxing mode : DVD-Video
Duration : 17 min 47 s
Bit rate mode : Constant
Bit rate : 448 kb/s
Channel(s) : 6 channels
Channel positions : Front: L C R, Side: L R, LFE
Sampling rate : 48.0 kHz
Frame rate : 31.250 FPS (1536 SPF)
Bit depth : 16 bits
Compression mode : Lossy
Stream size : 57.0 MiB (6%)
Service kind : Complete Main

Audio #2
ID : 189 (0xBD)-129 (0x81)
Format : AC-3
Format/Info : Audio Coding 3
Muxing mode : DVD-Video
Duration : 17 min 47 s
Bit rate mode : Constant
Bit rate : 192 kb/s
Channel(s) : 2 channels
Channel positions : Front: L R
Sampling rate : 48.0 kHz
Frame rate : 31.250 FPS (1536 SPF)
Bit depth : 16 bits
Compression mode : Lossy
Stream size : 24.4 MiB (2%)
Service kind : Complete Main

Menu

General
Complete name : I:\VIDEO_TS\VTS_01_2.VOB
Format : MPEG-PS
File size : 1 024 MiB
Duration : 17 min 50 s
Overall bit rate mode : Variable
Overall bit rate : 8 026 kb/s

Video
ID : 224 (0xE0)
Format : MPEG Video
Format version : Version 2
Format profile : Main@Main
Format settings : CustomMatrix / BVOP
Format settings, BVOP : Yes
Format settings, Matrix : Custom
Format settings, GOP : M=3, N=12
Duration : 17 min 49 s
Bit rate mode : Variable
Bit rate : 7 227 kb/s
Maximum bit rate : 9 800 kb/s
Width : 720 pixels
Height : 480 pixels
Display aspect ratio : 4:3
Frame rate : 29.970 (30000/1001) FPS
Standard : NTSC
Color space : YUV
Chroma subsampling : 4:2:0
Bit depth : 8 bits
Scan type : Progressive
Scan order : Top Field First
Compression mode : Lossy
Bits/(Pixel*Frame) : 0.698
Time code of first frame : 01:17:44:28
Time code source : Group of pictures header
GOP, Open/Closed : Open
Stream size : 922 MiB (90%)

Audio #1
ID : 189 (0xBD)-128 (0x80)
Format : AC-3
Format/Info : Audio Coding 3
Muxing mode : DVD-Video
Duration : 17 min 50 s
Bit rate mode : Constant
Bit rate : 448 kb/s
Channel(s) : 6 channels
Channel positions : Front: L C R, Side: L R, LFE
Sampling rate : 48.0 kHz
Frame rate : 31.250 FPS (1536 SPF)
Bit depth : 16 bits
Compression mode : Lossy
Delay relative to video : -449 ms
Stream size : 57.1 MiB (6%)
Service kind : Complete Main

Audio #2
ID : 189 (0xBD)-129 (0x81)
Format : AC-3
Format/Info : Audio Coding 3
Muxing mode : DVD-Video
Duration : 17 min 49 s
Bit rate mode : Constant
Bit rate : 192 kb/s
Channel(s) : 2 channels
Channel positions : Front: L R
Sampling rate : 48.0 kHz
Frame rate : 31.250 FPS (1536 SPF)
Bit depth : 16 bits
Compression mode : Lossy
Delay relative to video : -353 ms
Stream size : 24.5 MiB (2%)
Service kind : Complete Main

Menu

General
Complete name : I:\VIDEO_TS\VTS_01_3.VOB
Format : MPEG-PS
File size : 1 024 MiB
Duration : 18 min 3 s
Overall bit rate mode : Variable
Overall bit rate : 7 927 kb/s

Video
ID : 224 (0xE0)
Format : MPEG Video
Format version : Version 2
Format profile : Main@Main
Format settings : CustomMatrix / BVOP
Format settings, BVOP : Yes
Format settings, Matrix : Custom
Format settings, GOP : M=3, N=12
Duration : 18 min 3 s
Bit rate mode : Variable
Bit rate : 7 129 kb/s
Maximum bit rate : 9 800 kb/s
Width : 720 pixels
Height : 480 pixels
Display aspect ratio : 4:3
Frame rate : 29.970 (30000/1001) FPS
Standard : NTSC
Color space : YUV
Chroma subsampling : 4:2:0
Bit depth : 8 bits
Scan type : Progressive
Scan order : Top Field First
Compression mode : Lossy
Bits/(Pixel*Frame) : 0.688
Time code of first frame : 01:35:33:24
Time code source : Group of pictures header
GOP, Open/Closed : Open
Stream size : 921 MiB (90%)

Audio #1
ID : 189 (0xBD)-128 (0x80)
Format : AC-3
Format/Info : Audio Coding 3
Muxing mode : DVD-Video
Duration : 18 min 3 s
Bit rate mode : Constant
Bit rate : 448 kb/s
Channel(s) : 6 channels
Channel positions : Front: L C R, Side: L R, LFE
Sampling rate : 48.0 kHz
Frame rate : 31.250 FPS (1536 SPF)
Bit depth : 16 bits
Compression mode : Lossy
Delay relative to video : -304 ms
Stream size : 57.9 MiB (6%)
Service kind : Complete Main

Audio #2
ID : 189 (0xBD)-129 (0x81)
Format : AC-3
Format/Info : Audio Coding 3
Muxing mode : DVD-Video
Duration : 18 min 3 s
Bit rate mode : Constant
Bit rate : 192 kb/s
Channel(s) : 2 channels
Channel positions : Front: L R
Sampling rate : 48.0 kHz
Frame rate : 31.250 FPS (1536 SPF)
Bit depth : 16 bits
Compression mode : Lossy
Delay relative to video : -304 ms
Stream size : 24.8 MiB (2%)
Service kind : Complete Main

Menu

General
Complete name : I:\VIDEO_TS\VTS_01_4.VOB
Format : MPEG-PS
File size : 581 MiB
Duration : 10 min 5 s
Overall bit rate mode : Variable
Overall bit rate : 8 052 kb/s

Video
ID : 224 (0xE0)
Format : MPEG Video
Format version : Version 2
Format profile : Main@Main
Format settings : CustomMatrix / BVOP
Format settings, BVOP : Yes
Format settings, Matrix : Custom
Format settings, GOP : M=3, N=12
Duration : 10 min 5 s
Bit rate mode : Variable
Bit rate : 7 252 kb/s
Maximum bit rate : 9 800 kb/s
Width : 720 pixels
Height : 480 pixels
Display aspect ratio : 4:3
Frame rate : 29.970 (30000/1001) FPS
Standard : NTSC
Color space : YUV
Chroma subsampling : 4:2:0
Bit depth : 8 bits
Scan type : Progressive
Scan order : Top Field First
Compression mode : Lossy
Bits/(Pixel*Frame) : 0.700
Time code of first frame : 01:53:36:10
Time code source : Group of pictures header
Stream size : 523 MiB (90%)

Audio #1
ID : 189 (0xBD)-128 (0x80)
Format : AC-3
Format/Info : Audio Coding 3
Muxing mode : DVD-Video
Duration : 10 min 5 s
Bit rate mode : Constant
Bit rate : 448 kb/s
Channel(s) : 6 channels
Channel positions : Front: L C R, Side: L R, LFE
Sampling rate : 48.0 kHz
Frame rate : 31.250 FPS (1536 SPF)
Bit depth : 16 bits
Compression mode : Lossy
Delay relative to video : -464 ms
Stream size : 32.3 MiB (6%)
Service kind : Complete Main

Audio #2
ID : 189 (0xBD)-129 (0x81)
Format : AC-3
Format/Info : Audio Coding 3
Muxing mode : DVD-Video
Duration : 10 min 5 s
Bit rate mode : Constant
Bit rate : 192 kb/s
Channel(s) : 2 channels
Channel positions : Front: L R
Sampling rate : 48.0 kHz
Frame rate : 31.250 FPS (1536 SPF)
Bit depth : 16 bits
Compression mode : Lossy
Delay relative to video : -400 ms
Stream size : 13.9 MiB (2%)
Service kind : Complete Main

The Jeff Healey Band - The Full Circle: The Live Anthology (2011) {3CD+DVD Box Set} Repost / New Rip

The Jeff Healey Band - The Full Circle: The Live Anthology (2011) {3CD+DVD Box Set} Repost / New Rip

The Jeff Healey Band - The Full Circle: The Live Anthology (2011) {3CD+DVD Box Set} Repost / New Rip

The Jeff Healey Band - The Full Circle: The Live Anthology (2011) {3CD+DVD Box Set} Repost / New Rip

The Jeff Healey Band - The Full Circle: The Live Anthology (2011) {3CD+DVD Box Set} Repost / New Rip

The Jeff Healey Band - The Full Circle: The Live Anthology (2011) {3CD+DVD Box Set} Repost / New Rip

All thanks go to RD

>>> Jeff Healey in my Blog <<<

Download from icerbox.com: