Subcategories

The Lark Quartet, Gary Graffman - Alfred Schnittke: String Quartets 2 & 3, Piano Quintet (1998)

Posted By: tirexiss
The Lark Quartet, Gary Graffman - Alfred Schnittke: String Quartets 2 & 3, Piano Quintet (1998)

The Lark Quartet, Gary Graffman - Alfred Schnittke: String Quartets 2 & 3, Piano Quintet (1998)
EAC | FLAC (image+.cue, log) | Covers Included | 69:00 | 333 MB
Genre: Classical | Label: Arabesque Recordings | Catalog: Z6707

The young, American, all-female Lark Quartet have been gathering prizes and critical encomia over the past ten years or so, and these sensitively prepared performances of three of Schnittke’s most memorable chamber pieces show just why. I’m pretty sure I’ve not heard a better focused or more full-blooded account of the Second Quartet, nor one which held my attention more consistently. In the Third Quartet, where Schnittke distils his existential Angst into a more cogent and moving structure, the Lark have nothing to fear from comparison with the Borodin Quartet, at least so far as clarity, accuracy and blend are concerned. Spot-checks confirm that it is the Russians who penetrate deeper to the pain of the first movement and risk a wilder abandon in the second.
Since the injury to his right hand in 1979, Gary Graffman has been heard mainly in the left-hand-only repertoire. But the (two-handed) Schnittke Quintet makes few demands on agility and power, and it is wonderful to hear it played with the tonal refinement of a top-class player. In fact this performance could easily be a primary recommendation were it not that Ludmilla Berlinsky’s shadings are even more subtle than Graffman’s and that the Borodin’s phrasing is even truer to the emotional desperation of the piece than that of the scrupulous and wholly admirable Lark. As the Virgin Classics disc is currently only available through the Special Import Service, this clearly recorded and naturally balanced Arabesque issue is well worth considering.'

The Lark Quartet, Gary Graffman - Alfred Schnittke: String Quartets 2 & 3, Piano Quintet (1998)

Track List:

Alfred Schnittke (1934-1998)

String Quartet no.3
1. Andante 6:25
2. Agitato 7:59
3. Pesante 8:04

String Quartet no.2
4. Moderato 3:13
5. Agitato 6:57
6. Mesto 5:39
7. Moderato 7:17

Piano Quintet
8. Moderato 5:23
9. Tempo di Valse 4:34
10. Andante 5:50
11. Lento 4:08
12. Moderato pastorale 3:05

Performers:
The Lark Quartet:
Diane Pascal, violin
Jennifer Orchard, violin
Anna Kruger, viola
Astrid Schween, cello

Gary Graffman, piano

Exact Audio Copy V1.0 beta 3 from 29. August 2011

Отчёт EAC об извлечении, выполненном 18. августа 2013, 15:51

The Lark Quartet, Gary Graffman / Alfred Schnittke: String Quartets Nos. 2 & 3 / Piano Quintet

Дисковод: HL-DT-STDVDRAM GT33N Adapter: 1 ID: 0

Режим чтения : Достоверность
Использование точного потока : Да
Отключение кэша аудио : Да
Использование указателей C2 : Нет

Коррекция смещения при чтении : 103
Способность читать области Lead-in и Lead-out : Нет
Заполнение пропущенных сэмплов тишиной : Да
Удаление блоков с тишиной в начале и конце : Нет
При вычислениях CRC использовались нулевые сэмплы : Да
Интерфейс : Встроенный Win32-интерфейс для Win NT/2000

Выходной формат : Пользовательский кодировщик
Выбранный битрейт : 1024 kBit/s
Качество : Высокий
Добавление ID3-тега : Да
Утилита сжатия : C:\Program Files (x86)\Exact Audio Copy\Flac\flac.exe
Дополнительные параметры : -8 -V -T "ALBUMARTIST=%albumartist%" -T "ALBUM=%albumtitle%" -T "DATE=%year%" -T "TRACKTOTAL=%numtracks%" -T "GENRE=%genre%" -T "COMMENT=%comment%" -T "PERFORMER=%albuminterpret%" -T "COMPOSER=%composer%" %source% -o %dest%


TOC извлечённого CD

Трек | Старт | Длительность | Начальный сектор | Конечный сектор
––––––––––––––––––––––––––––––––––-
1 | 0:00.00 | 6:26.60 | 0 | 29009
2 | 6:26.60 | 7:59.57 | 29010 | 64991
3 | 14:26.42 | 8:09.58 | 64992 | 101724
4 | 22:36.25 | 3:13.45 | 101725 | 116244
5 | 25:49.70 | 7:00.67 | 116245 | 147811
6 | 32:50.62 | 5:39.13 | 147812 | 173249
7 | 38:30.00 | 7:25.02 | 173250 | 206626
8 | 45:55.02 | 5:22.68 | 206627 | 230844
9 | 51:17.70 | 4:34.45 | 230845 | 251439
10 | 55:52.40 | 5:53.65 | 251440 | 277979
11 | 61:46.30 | 4:08.52 | 277980 | 296631
12 | 65:55.07 | 3:05.53 | 296632 | 310559


Характеристики диапазона извлечения и сообщения об ошибках

Выбранный диапазон

Имя файла O:\!Rips\Alfred Schnittke - String Quartets Nos. 2 & 3, Piano Quintet.wav

Пиковый уровень 98.3 %
Скорость извлечения 2.2 X
Качество диапазона 100.0 %
CRC теста 09E01EAD
CRC копии 09E01EAD
Копирование… OK

Ошибок не произошло


AccurateRip: сводка

Трек 1 отсутствует в базе данных
Трек 2 отсутствует в базе данных
Трек 3 отсутствует в базе данных
Трек 4 отсутствует в базе данных
Трек 5 отсутствует в базе данных
Трек 6 отсутствует в базе данных
Трек 7 отсутствует в базе данных
Трек 8 отсутствует в базе данных
Трек 9 отсутствует в базе данных
Трек 10 отсутствует в базе данных
Трек 11 отсутствует в базе данных
Трек 12 отсутствует в базе данных

Ни одного трека нет в базе AccurateRip

Конец отчёта

==== Контрольная сумма отчёта A93E4C05879152041F876390CB861B6B8D9953EB1931CA59F7561897BD843471 ====

[CUETools log; Date: 06.11.2017 11:37:54; Version: 2.1.5]
[CTDB TOCID: YvEBlNdrcsqW_G3AFoptjw7amlk-] found.
Track | CTDB Status
1 | (1/1) Accurately ripped
2 | (1/1) Accurately ripped
3 | (1/1) Accurately ripped
4 | (1/1) Accurately ripped
5 | (1/1) Accurately ripped
6 | (1/1) Accurately ripped
7 | (1/1) Accurately ripped
8 | (1/1) Accurately ripped
9 | (1/1) Accurately ripped
10 | (1/1) Accurately ripped
11 | (1/1) Accurately ripped
12 | (1/1) Accurately ripped
[AccurateRip ID: 0021ad8e-0134d819-c4102c0c] found.
Track [ CRC | V2 ] Status
01 [92e05dc0|7563414f] (0+2/2) Accurately ripped
02 [83c45b21|1f7ec466] (0+2/2) Accurately ripped
03 [440c3c31|f01b1dee] (0+2/2) Accurately ripped
04 [68aa5624|282a25b6] (0+2/2) Accurately ripped
05 [40860883|e8ecddec] (0+2/2) Accurately ripped
06 [ae938c0f|7c3e50ea] (0+2/2) Accurately ripped
07 [f35ee82f|c09d56e8] (0+2/2) Accurately ripped
08 [8ead9b44|24e04e31] (0+2/2) Accurately ripped
09 [10a040c1|df8137ee] (0+2/2) Accurately ripped
10 [b8260e81|589205ad] (0+2/2) Accurately ripped
11 [fc0dab23|b28a6b72] (0+2/2) Accurately ripped
12 [3aafbe46|4212afb1] (0+2/2) Accurately ripped

Track Peak [ CRC32 ] [W/O NULL] [ LOG ]
– 98,3 [09E01EAD] [67C6B9DF] CRC32
01 78,7 [772E973A] [B0842621]
02 94,5 [C747DE55] [13B5A889]
03 98,3 [8BEDBCBC] [AFBF2255]
04 96,6 [20D0C8EF] [E8C57EDD]
05 96,7 [007FE7A0] [66C447DA]
06 97,7 [32948FFA] [1AB3924A]
07 96,5 [7D0679AE] [554849A1]
08 48,9 [FECEDC6F] [F1565F86]
09 75,5 [4D275293] [440A7EFD]
10 96,6 [1B13E94C] [190AD5AF]
11 94,0 [E6C424AB] [9FD706B3]
12 17,9 [D8C35A8A] [FB32020B]

Thanks to the Original ripper jebiawio!

Download: