Subcategories
Tags
Language
Tags

The Lumineers - Cleopatra (2016)

Posted By: popsakov
The Lumineers - Cleopatra (2016)

The Lumineers - Cleopatra (2016)
EAC Rip | FLAC (Img) + Cue + Log ~ 199 Mb | MP3 CBR320 ~ 88 Mb
Covers Included | 00:33:57 | RAR 5% Recovery
Indie Folk / Pop Rock / Folk Rock / Alternative Country / Alternative Rock
Decca Records #602547693259

Cleopatra is the second studio album by American rock band The Lumineers. The album was released in the United States on April 8, 2016, and contains the singles "Ophelia" and "Angela". The album received positive reviews and commercial success, debuting at number 1 on the UK Albums Chart and the Billboard 200.

Maybe the Lumineers got tired of hearing other bands replicate the big-footed stomp of "Ho Hey," an aesthetic that was impossible to avoid in the wake of their eponymous 2012 debut. So many bands adopted this thunderous folk that it no longer seemed to belong to the Lumineers; it appeared communal, perhaps existing to the earlier generations the Lumineers so clearly loved yet never quite replicated. Given this omnipresence, maybe it's not a surprise that the trio avoid any semblance of infectious rhythms on Cleopatra, their long-awaited second album, yet the sobriety of this 2016 affair is striking. Melancholy and sullen, Cleopatra feels like a conscious reaction to the idea that the band was merely a boisterous retro-throwback, a band that existed primarily on the surface. Apart from the lead single "Ophelia" and "Cleopatra," this sophomore set avoids tempos that could be called sprightly, and melody comes second to mood as well. Sometimes, the Lumineers are quite effective at being evocative: there's a certain dusky shimmer to the album, an atmosphere that tends to hang as heavy as fog as the record rolls along. This sequencing, where the relatively hookier tunes are pushed toward the front, is typical in the 21st century – albums are front-loaded to pull in casual listeners, making the bet that the serious fans will stick around for the serious stuff that arrives at the end of the record – but this also robs Cleopatra of velocity, with whatever energy there was dissipating by the album's conclusion, when the record winds down with its quietest moments. Nevertheless, there's something admirable about the album's solemnity: the Lumineers are on a quest to be taken seriously, and even if they overplay their hand, the earnestness is ingratiating.

~ Stephen Thomas Erlewine, All Music
The Lumineers - Cleopatra (2016)


***************

The Lumineers - Cleopatra (2016)

Track List:

01. Sleep On The Floor [03:33]
02. Ophelia [02:40]
03. Cleopatra [03:22]
04. Gun Song [03:37]
05. Angela [03:22]
06. In The Light [03:52]
07. Gale Song [03:14]
08. Long Way From Home [02:33]
09. Sick In The Head [02:32]
10. My Eyes [03:37]
11. Patience [01:39]

Exact Audio Copy V1.1 from 23. June 2015

EAC extraction logfile from 7. April 2016, 20:36

The Lumineers / Cleopatra

Used drive : HL-DT-STDVDRAM GH24NSD1 Adapter: 0 ID: 0

Read mode : Secure
Utilize accurate stream : Yes
Defeat audio cache : Yes
Make use of C2 pointers : No

Read offset correction : 6
Overread into Lead-In and Lead-Out : No
Fill up missing offset samples with silence : Yes
Delete leading and trailing silent blocks : No
Null samples used in CRC calculations : Yes
Used interface : Installed external ASPI interface

Used output format : Internal WAV Routines
Sample format : 44.100 Hz; 16 Bit; Stereo


TOC of the extracted CD

Track | Start | Length | Start sector | End sector
––––––––––––––––––––––––––––-
1 | 0:00.00 | 3:32.60 | 0 | 15959
2 | 3:32.60 | 2:39.73 | 15960 | 27957
3 | 6:12.58 | 3:21.31 | 27958 | 43063
4 | 9:34.14 | 3:36.41 | 43064 | 59304
5 | 13:10.55 | 3:21.59 | 59305 | 74438
6 | 16:32.39 | 3:51.65 | 74439 | 91828
7 | 20:24.29 | 3:13.54 | 91829 | 106357
8 | 23:38.08 | 2:32.34 | 106358 | 117791
9 | 26:10.42 | 2:31.22 | 117792 | 129138
10 | 28:41.64 | 3:36.55 | 129139 | 145393
11 | 32:18.44 | 1:38.02 | 145394 | 152745


Range status and errors

Selected range

Filename E:\The Lumineers - Cleopatra (EAC)\The Lumineers - Cleopatra.wav

Peak level 100.0 %
Extraction speed 6.4 X
Range quality 100.0 %
Test CRC BB2F2343
Copy CRC BB2F2343
Copy OK

No errors occurred


AccurateRip summary

Track 1 not present in database
Track 2 not present in database
Track 3 not present in database
Track 4 not present in database
Track 5 not present in database
Track 6 not present in database
Track 7 not present in database
Track 8 not present in database
Track 9 not present in database
Track 10 not present in database
Track 11 not present in database

None of the tracks are present in the AccurateRip database

End of status report

[CUETools log; Date: 16.12.2019 12:03:57; Version: 2.1.6]
[CTDB TOCID: ks8Ynb46oEP6UW7bH6i26bqrOWY-] found.
Track | CTDB Status
1 | (388/1090) Accurately ripped
2 | (389/1090) Accurately ripped
3 | (389/1090) Accurately ripped
4 | (389/1090) Accurately ripped
5 | (389/1090) Accurately ripped
6 | (390/1090) Accurately ripped
7 | (389/1090) Accurately ripped
8 | (389/1090) Accurately ripped
9 | (390/1090) Accurately ripped
10 | (389/1090) Accurately ripped
11 | (388/1090) Accurately ripped
[AccurateRip ID: 000eb590-007ec7c9-8d07f40b] found.
Track [ CRC | V2 ] Status
01 [60d8b13b|228ef4be] (003+081/225) Accurately ripped
02 [3f6599cf|aedf4cf0] (003+081/221) Accurately ripped
03 [0b2acf32|1337f4a7] (003+081/224) Accurately ripped
04 [b9b62c31|b617f659] (003+081/225) Accurately ripped
05 [ae796b23|5f1c5ac7] (003+081/226) Accurately ripped
06 [48f930c9|f073d88c] (003+081/223) Accurately ripped
07 [64a99a30|a6544875] (003+081/224) Accurately ripped
08 [9a4a104b|6076704f] (003+081/226) Accurately ripped
09 [70244b84|826c8fc6] (003+081/224) Accurately ripped
10 [e2b4942f|92f72484] (003+081/227) Accurately ripped
11 [32672fcb|efca09d2] (003+081/226) Accurately ripped
Offsetted by -12:
01 [41ce2623] (000/225) No match (V2 was not tested)
02 [13cb709e] (000/221) No match (V2 was not tested)
03 [92408f93] (000/224) No match (V2 was not tested)
04 [593f2251] (000/225) No match (V2 was not tested)
05 [b2ab7728] (000/226) No match (V2 was not tested)
06 [f6470703] (000/223) No match (V2 was not tested)
07 [03e00d20] (000/224) No match (V2 was not tested)
08 [66a212e9] (000/226) No match (V2 was not tested)
09 [1ed362ef] (000/224) No match (V2 was not tested)
10 [192c5ff6] (000/227) No match (V2 was not tested)
11 [be1757cf] (000/226) No match (V2 was not tested)

Track Peak [ CRC32 ] [W/O NULL] [ LOG ]
– 100,0 [BB2F2343] [97AE3E05] CRC32
01 100,0 [238166A8] [B09DE9FA]
02 100,0 [EC09B304] [E3A4C0F8]
03 99,8 [E7F46132] [AB8831A0]
04 100,0 [5D1E48BB] [A5434846]
05 100,0 [32F4FD41] [FA9D6296]
06 99,3 [D4713F94] [515C193B]
07 99,5 [A5E9FAC6] [432D0862]
08 99,0 [9D373C1C] [69912AD1]
09 98,8 [78B9C5EF] [CA9A973F]
10 99,4 [BFA82679] [0724DFC0]
11 98,8 [509E0C35] [EAD9B155]

The Lumineers - Cleopatra (2016)


All thanks go to the original ripper(s) …

>>> My Blog <<<

DOWNLOAD: