Subcategories

The Manhattan Transfer - The Symphony Sessions (2006) {Japanese Edition}

Posted By: popsakov
The Manhattan Transfer - The Symphony Sessions (2006) {Japanese Edition}

The Manhattan Transfer - The Symphony Sessions (2006) {Japanese Edition}
EAC Rip | FLAC (Img) + Cue + Log ~ 363 Mb | MP3 CBR320 ~ 151 Mb
Scans Included | 00:56:48 | RAR 5% Recovery
Vocal Jazz / Fusion / Easy Listening / Classical Crossover
Paddle Wheel / King Records #KICJ 505

This collection features rerecorded versions of some of the Manhattan Transfer's best-known songs, including classics like "Embraceable You," "A Nightingale Sang in Berkeley Square" as well as their inspired reworking of Weather Report's "Birdland."

~ All Music

***************

The Manhattan Transfer - The Symphony Sessions (2006) {Japanese Edition}

The Manhattan Transfer - The Symphony Sessions (2006) {Japanese Edition}

Track List:

01. Route 66 [03:32]
02. Candy [03:21]
03. Embraceable You [04:15]
04. Thatґs The Way It Goes [02:42]
05. A Nightgale Sang In Berkeley Square [05:26]
06. Because You Are All Heart [05:02]
07. To You [03:45]
08. Vibrate [04:31]
09. Clouds [06:48]
10. The Quietude [06:56]
11. The Offbeat Of Avenues [04:25]
12. Birdland [06:12]

Exact Audio Copy V0.99 prebeta 4 from 23. January 2008

Отчёт EAC об извлечении, выполненном 16. июня 2009, 22:49

Manhattan Transfer, The / The Symphony Sessions

Дисковод: PLEXTOR DVDR PX-800A Adapter: 0 ID: 0

Режим чтения : Достоверность
Использование точного потока : Да
Отключение кэша аудио : Да
Использование указателей C2 : Нет

Коррекция смещения при чтении : 48
Способность читать области Lead-in и Lead-out : Нет
Заполнение пропущенных сэмплов тишиной : Да
Удаление блоков с тишиной в начале и конце : Нет
При вычислениях CRC использовались нулевые сэмплы : Да
Интерфейс : Установленный внешний ASPI-интерфейс

Выходной формат : Внутренние WAV-операции
Формат сэмплов : 44.100 Гц; 16 бит; стерео


TOC извлечённого CD

Трек | Старт | Длительность | Начальный сектор | Конечный сектор
––––––––––––––––––––––––––––––––––-
1 | 0:00.00 | 3:31.13 | 0 | 15837
2 | 3:31.13 | 3:20.04 | 15838 | 30841
3 | 6:51.17 | 4:14.51 | 30842 | 49942
4 | 11:05.68 | 2:41.37 | 49943 | 62054
5 | 13:47.30 | 5:25.56 | 62055 | 86485
6 | 19:13.11 | 5:01.24 | 86486 | 109084
7 | 24:14.35 | 3:44.17 | 109085 | 125901
8 | 27:58.52 | 4:30.32 | 125902 | 146183
9 | 32:29.09 | 6:47.36 | 146184 | 176744
10 | 39:16.45 | 6:55.11 | 176745 | 207880
11 | 46:11.56 | 4:24.60 | 207881 | 227740
12 | 50:36.41 | 6:11.27 | 227741 | 255592


Характеристики диапазона извлечения и сообщения об ошибках

Выбранный диапазон

Имя файла D:\Lossless\The Manhattan Transfer - The Symphony Sessions - 2006\Manhattan Transfer, The - The Symphony Sessions.wav

Пиковый уровень 99.3 %
Качество диапазона 99.9 %
CRC копии F4DE2F1F
Копирование… OK

Ошибок не произошло

Конец отчёта

[CUETools log; Date: 10.08.2016 19:43:49; Version: 2.1.5]
[CTDB TOCID: MFFeh.4WxQDna492TSRWdVr9CyI-] found.
Track | CTDB Status
1 | (16/16) Accurately ripped
2 | (16/16) Accurately ripped
3 | (16/16) Accurately ripped
4 | (16/16) Accurately ripped
5 | (16/16) Accurately ripped
6 | (16/16) Accurately ripped
7 | (16/16) Accurately ripped
8 | (16/16) Accurately ripped
9 | (16/16) Accurately ripped
10 | (16/16) Accurately ripped
11 | (16/16) Accurately ripped
12 | (16/16) Accurately ripped
[AccurateRip ID: 0016cd17-00daf43f-a40d4f0c] found.
Track [ CRC | V2 ] Status
01 [6be9da82|7cd568de] (06+05/27) Accurately ripped
02 [99df540d|39e8f5f2] (06+05/27) Accurately ripped
03 [7edddfdd|bebd3c04] (06+05/27) Accurately ripped
04 [8ca906be|627c7686] (06+05/27) Accurately ripped
05 [e619a5c5|49ef3916] (06+05/27) Accurately ripped
06 [3a5abf53|5b05a38a] (06+05/27) Accurately ripped
07 [49b87316|6630237e] (06+05/27) Accurately ripped
08 [dcc82578|a970a528] (06+05/27) Accurately ripped
09 [7694f13f|aee6c6b8] (06+05/27) Accurately ripped
10 [810741c4|c0a472dd] (06+05/27) Accurately ripped
11 [550b4db2|6f28d9ba] (06+05/27) Accurately ripped
12 [b8b17dae|9be10460] (06+05/27) Accurately ripped
Offsetted by -24:
01 [03ba0702] (05/27) Accurately ripped
02 [88bc8b9d] (05/27) Accurately ripped
03 [3a86a96d] (05/27) Accurately ripped
04 [902d67d6] (05/27) Accurately ripped
05 [5edd3165] (05/27) Accurately ripped
06 [7d4dbc8b] (05/27) Accurately ripped
07 [deeca906] (05/27) Accurately ripped
08 [88736cf0] (05/27) Accurately ripped
09 [b3aee99f] (05/27) Accurately ripped
10 [5f0d41dc] (05/27) Accurately ripped
11 [e4cb11e2] (05/27) Accurately ripped
12 [122061be] (05/27) Accurately ripped
Offsetted by -18:
01 [5dc5fbe2] (02/27) Accurately ripped
02 [4d053db9] (02/27) Accurately ripped
03 [cb9c7709] (02/27) Accurately ripped
04 [8f4c4f90] (02/27) Accurately ripped
05 [80ac4e7d] (02/27) Accurately ripped
06 [ac90fd3d] (02/27) Accurately ripped
07 [399f9b8a] (02/27) Accurately ripped
08 [5d889b12] (02/27) Accurately ripped
09 [64686b87] (02/27) Accurately ripped
10 [278bc1d6] (02/27) Accurately ripped
11 [00db20d6] (02/27) Accurately ripped
12 [fbc4a8ba] (02/27) Accurately ripped
Offsetted by -676:
01 [1ffc1542] (00/27) No match (V2 was not tested)
02 [37364665] (00/27) No match (V2 was not tested)
03 [f9f00d35] (00/27) No match (V2 was not tested)
04 [450f0ae2] (00/27) No match (V2 was not tested)
05 [5a482d35] (00/27) No match (V2 was not tested)
06 [c2c19ba7] (00/27) No match (V2 was not tested)
07 [5ef70cfe] (00/27) No match (V2 was not tested)
08 [6acb2d2c] (00/27) No match (V2 was not tested)
09 [04f06fcf] (00/27) No match (V2 was not tested)
10 [eeb04468] (00/27) No match (V2 was not tested)
11 [50a4b8fa] (00/27) No match (V2 was not tested)
12 [3a64eac6] (00/27) No match (V2 was not tested)

Track Peak [ CRC32 ] [W/O NULL] [ LOG ]
– 99,3 [F4DE2F1F] [0106B5FE] CRC32
01 97,5 [CB044A97] [DA0AF99F]
02 83,8 [4D5F8658] [AD65D1E3]
03 90,0 [8F177611] [D4242602]
04 86,7 [0DADCD17] [25FF56AA]
05 85,5 [3F1E6705] [EC6DC63F]
06 97,9 [BC774499] [4B0403CC]
07 90,4 [901D2B44] [EA4046B4]
08 88,1 [297EC65D] [53B70E52]
09 86,9 [7A638377] [E02BBB25]
10 97,7 [7DFE4C61] [72C7094C]
11 97,9 [5AFA73E0] [21297F97]
12 99,3 [831EC185] [0546B9D4]

The Manhattan Transfer - The Symphony Sessions (2006) {Japanese Edition}


All thanks go to SerBlues

>>> My Blog <<<

DOWNLOAD: