Subcategories

The Offspring - Smash (1994)

Posted By: Designol
The Offspring - Smash (1994)

The Offspring - Smash (1994)
EAC | FLAC | Tracks (Cue&Log) ~ 294 Mb | Mp3 (CBR320) ~ 107 Mb | Scans ~ 49 Mb
Punk-Rock, Pop-Punk, Alternative Rock | Label: Epitaph | # 86432-2 | Time: 00:46:45

The Offspring's second album for Epitaph did the impossible: it landed in the Top Five, unheard of for independent records. The Offspring crossed over due to the raucous, Eastern-tinged single "Come Out and Play," which stopped and started just like Nirvana, only without the Seattle trio's recklessness. The record stayed in the charts because the Offspring sounded relentlessly heavy, no matter how much the band claimed to be punk. Their tempos are slower than traditional hardcore, and their attack is as heavy as Metallica. But they acted like they were punk, with odes to no "Self Esteem" and singing about fighting in school. Nothing on the album matches the incessant catchiness of the singles, but Smash is a solid record, filled with enough heavy riffs to keep most teenagers happy.

Review by Stephen Thomas Erlewine, Allmusic.com

The Offspring - Smash (1994)



Tracklist:

01. Time Τo Relax (0:26)
02. Nitro (Youth Energy) (2:27)
03. Bad Habit (3:44)
04. Gotta Get Away (3:53)
05. Genocide (3:32)
06. Something Τo Believe In (3:18)
07. Come Out And Play (3:18)
08. Self Esteem (4:18)
09. It'll Be Α Long Time (2:43)
10. Killboy Powerhead (2:03)
11. What Happened Τo You (2:12)
12. So Alone (1:17)
13. Not Τhe One (2:54)
14. Smash (10:40)


Exact Audio Copy V1.3 from 2. September 2016

EAC extraction logfile from 22. June 2019, 23:03

The Offspring / Smash

Used drive : TSSTcorpCDDVDW SH-224DB Adapter: 1 ID: 0

Read mode : Secure
Utilize accurate stream : Yes
Defeat audio cache : Yes
Make use of C2 pointers : No

Read offset correction : 6
Overread into Lead-In and Lead-Out : No
Fill up missing offset samples with silence : Yes
Delete leading and trailing silent blocks : No
Null samples used in CRC calculations : Yes
Used interface : Native Win32 interface for Win NT & 2000
Gap handling : Appended to previous track

Used output format : User Defined Encoder
Selected bitrate : 896 kBit/s
Quality : High
Add ID3 tag : No
Command line compressor : C:\Program Files\Exact Audio Copy\Flac\flac.exe
Additional command line options : -6 -V -T "ARTIST=%artist%" -T "TITLE=%title%" -T "ALBUM=%albumtitle%" -T "DATE=%year%" -T "TRACKNUMBER=%tracknr%" -T "GENRE=%genre%" -T "COMMENT=%comment%" %source% -o %dest%


TOC of the extracted CD

Track | Start | Length | Start sector | End sector
––––––––––––––––––––––––––––-
1 | 0:00.00 | 0:25.50 | 0 | 1924
2 | 0:25.50 | 2:26.73 | 1925 | 12947
3 | 2:52.48 | 3:43.67 | 12948 | 29739
4 | 6:36.40 | 3:52.63 | 29740 | 47202
5 | 10:29.28 | 3:32.32 | 47203 | 63134
6 | 14:01.60 | 3:17.45 | 63135 | 77954
7 | 17:19.30 | 3:17.60 | 77955 | 92789
8 | 20:37.15 | 4:17.63 | 92790 | 112127
9 | 24:55.03 | 2:43.20 | 112128 | 124372
10 | 27:38.23 | 2:02.52 | 124373 | 133574
11 | 29:41.00 | 2:12.10 | 133575 | 143484
12 | 31:53.10 | 1:17.20 | 143485 | 149279
13 | 33:10.30 | 2:54.28 | 149280 | 162357
14 | 36:04.58 | 10:40.15 | 162358 | 210372


Track 1

Filename C:\New Folder\01 - Time Τo Relax.wav

Pre-gap length 0:00:02.00

Peak level 69.6 %
Extraction speed 0.7 X
Track quality 100.0 %
Test CRC 1BF4D8D0
Copy CRC 1BF4D8D0
Accurately ripped (confidence 200) [0D7EF40C] (AR v2)
Copy OK

Track 2

Filename C:\New Folder\02 - Nitro (Youth Energy).wav

Peak level 94.6 %
Extraction speed 1.5 X
Track quality 100.0 %
Test CRC 4E6F1B67
Copy CRC 4E6F1B67
Accurately ripped (confidence 200) [6FCC9C54] (AR v2)
Copy OK

Track 3

Filename C:\New Folder\03 - Bad Habit.wav

Peak level 94.6 %
Extraction speed 1.8 X
Track quality 100.0 %
Test CRC 96F3B275
Copy CRC 96F3B275
Accurately ripped (confidence 200) [F3EF32CE] (AR v2)
Copy OK

Track 4

Filename C:\New Folder\04 - Gotta Get Away.wav

Peak level 94.6 %
Extraction speed 2.0 X
Track quality 100.0 %
Test CRC 10C7AE6A
Copy CRC 10C7AE6A
Accurately ripped (confidence 200) [DDF0AB78] (AR v2)
Copy OK

Track 5

Filename C:\New Folder\05 - Genocide.wav

Peak level 94.6 %
Extraction speed 2.1 X
Track quality 100.0 %
Test CRC D8BA9E09
Copy CRC D8BA9E09
Accurately ripped (confidence 200) [3BC6C459] (AR v2)
Copy OK

Track 6

Filename C:\New Folder\06 - Something Τo Believe In.wav

Peak level 94.6 %
Extraction speed 2.2 X
Track quality 100.0 %
Test CRC C9381771
Copy CRC C9381771
Accurately ripped (confidence 200) [AF58B6C7] (AR v2)
Copy OK

Track 7

Filename C:\New Folder\07 - Come Out And Play.wav

Peak level 94.6 %
Extraction speed 2.3 X
Track quality 100.0 %
Test CRC E3E01346
Copy CRC E3E01346
Accurately ripped (confidence 200) [ED462CD1] (AR v2)
Copy OK

Track 8

Filename C:\New Folder\08 - Self Esteem.wav

Peak level 94.6 %
Extraction speed 2.6 X
Track quality 100.0 %
Test CRC D143B31E
Copy CRC D143B31E
Accurately ripped (confidence 200) [6CD5AE9B] (AR v2)
Copy OK

Track 9

Filename C:\New Folder\09 - It'll Be Α Long Time.wav

Peak level 94.6 %
Extraction speed 2.5 X
Track quality 100.0 %
Test CRC 35F008C7
Copy CRC 35F008C7
Accurately ripped (confidence 200) [63595C54] (AR v2)
Copy OK

Track 10

Filename C:\New Folder\10 - Killboy Powerhead.wav

Peak level 94.6 %
Extraction speed 2.4 X
Track quality 100.0 %
Test CRC 78A6F819
Copy CRC 78A6F819
Accurately ripped (confidence 200) [3C2A8026] (AR v2)
Copy OK

Track 11

Filename C:\New Folder\11 - What Happened Τo You.wav

Peak level 94.5 %
Extraction speed 2.0 X
Track quality 99.9 %
Test CRC 94BDEB26
Copy CRC 94BDEB26
Accurately ripped (confidence 200) [9099A882] (AR v2)
Copy OK

Track 12

Filename C:\New Folder\12 - So Alone.wav

Peak level 94.6 %
Extraction speed 2.2 X
Track quality 100.0 %
Test CRC A3E6F547
Copy CRC A3E6F547
Accurately ripped (confidence 200) [CD070619] (AR v2)
Copy OK

Track 13

Filename C:\New Folder\13 - Not Τhe One.wav

Peak level 94.6 %
Extraction speed 2.7 X
Track quality 100.0 %
Test CRC E80A16DC
Copy CRC E80A16DC
Accurately ripped (confidence 200) [C5CB21CA] (AR v2)
Copy OK

Track 14

Filename C:\New Folder\14 - Smash.wav

Peak level 94.6 %
Extraction speed 3.4 X
Track quality 100.0 %
Test CRC D8770095
Copy CRC D8770095
Accurately ripped (confidence 200) [D308B6EC] (AR v2)
Copy OK


All tracks accurately ripped

No errors occurred

End of status report

==== Log checksum 83C0E7A148E994A847BA91D6427F885615FCBBED50A490CDBA08BEF6A2AC6B33 ====

[CUETools log; Date: 12.07.2019 23:11:58; Version: 2.1.4]
[CTDB TOCID: GMdjrdtJRhdUJc6O8Gh3S294jLo-] found.
Track | CTDB Status
1 | (1675/1684) Accurately ripped
2 | (1675/1684) Accurately ripped
3 | (1673/1684) Accurately ripped
4 | (1678/1684) Accurately ripped
5 | (1674/1684) Accurately ripped
6 | (1673/1684) Accurately ripped
7 | (1653/1684) Accurately ripped, or (17/1684) differs in 2 samples @02:37:35
8 | (1669/1684) Accurately ripped
9 | (1675/1684) Accurately ripped
10 | (1673/1684) Accurately ripped
11 | (1669/1684) Accurately ripped
12 | (1668/1684) Accurately ripped
13 | (1663/1684) Accurately ripped
14 | (1647/1684) Accurately ripped
[AccurateRip ID: 0014c574-00e3043f-c20af40e] found.
Track [ CRC | V2 ] Status
01 [adc48fff|0d7ef40c] (200+200/920) Accurately ripped
02 [d9277ed7|6fcc9c54] (200+200/919) Accurately ripped
03 [593f6e49|f3ef32ce] (200+200/919) Accurately ripped
04 [3a5ac654|ddf0ab78] (200+200/922) Accurately ripped
05 [8f8023d3|3bc6c459] (200+200/916) Accurately ripped
06 [9f0da93d|af58b6c7] (200+200/917) Accurately ripped
07 [d9e27478|ed462cd1] (200+200/921) Accurately ripped
08 [95a397f7|6cd5ae9b] (200+200/919) Accurately ripped
09 [e6b5da7f|63595c54] (200+200/914) Accurately ripped
10 [0ad6f8cd|3c2a8026] (200+200/912) Accurately ripped
11 [6c8ae3eb|9099a882] (200+200/917) Accurately ripped
12 [ecbefe21|cd070619] (200+200/915) Accurately ripped
13 [e5528b3d|c5cb21ca] (200+200/908) Accurately ripped
14 [b9ac34af|d308b6ec] (200+200/901) Accurately ripped
Offsetted by -2680:
01 [ed9c810e] (005/920) Accurately ripped
02 [b7b647a1] (005/919) Accurately ripped
03 [3c2f22dd] (005/919) Accurately ripped
04 [f1187db7] (005/922) Accurately ripped
05 [0208ff26] (005/916) Accurately ripped
06 [bb990dbc] (005/917) Accurately ripped
07 [72c35b05] (005/921) Accurately ripped
08 [772295b7] (005/919) Accurately ripped
09 [8d091a91] (005/914) Accurately ripped
10 [6abb38b5] (005/912) Accurately ripped
11 [6f77477b] (005/917) Accurately ripped
12 [eb12861e] (005/915) Accurately ripped
13 [21e448d2] (005/908) Accurately ripped
14 [fc83ca08] (005/901) Accurately ripped
Offsetted by -2021:
01 [334820a9] (032/920) Accurately ripped
02 [c881faba] (029/919) Accurately ripped
03 [04c4b058] (032/919) Accurately ripped
04 [d380eff8] (031/922) Accurately ripped
05 [67acd8d5] (032/916) Accurately ripped
06 [5e9deb49] (031/917) Accurately ripped
07 [7e101751] (031/921) Accurately ripped
08 [78a1b5ad] (032/919) Accurately ripped
09 [9a4c0d21] (032/914) Accurately ripped
10 [78f6ce0b] (031/912) Accurately ripped
11 [f2dc8477] (031/917) Accurately ripped
12 [c8d87095] (032/915) Accurately ripped
13 [cb9430ea] (030/908) Accurately ripped
14 [c6c227c7] (032/901) Accurately ripped
Offsetted by -1705:
01 [4086057f] (003/920) Accurately ripped
02 [366f9cb3] (003/919) Accurately ripped
03 [495011e7] (002/919) Accurately ripped
04 [abd0c37a] (002/922) Accurately ripped
05 [0fc13e86] (002/916) Accurately ripped
06 [cb9d720e] (002/917) Accurately ripped
07 [93471442] (002/921) Accurately ripped
08 [cee69fbc] (002/919) Accurately ripped
09 [dff4960c] (002/914) Accurately ripped
10 [94db4da5] (002/912) Accurately ripped
11 [99754a51] (002/917) Accurately ripped
12 [f2103d20] (002/915) Accurately ripped
13 [d4d4cc1f] (002/908) Accurately ripped
14 [679273ce] (002/901) Accurately ripped
Offsetted by -1123:
01 [b78bcc88] (028/920) Accurately ripped
02 [8314ca1b] (029/919) Accurately ripped
03 [ed4447dc] (029/919) Accurately ripped
04 [3ca47148] (028/922) Accurately ripped
05 [4483c72b] (028/916) Accurately ripped
06 [528ba510] (029/917) Accurately ripped
07 [f1d7a17d] (028/921) Accurately ripped
08 [add7a448] (027/919) Accurately ripped
09 [17e06518] (027/914) Accurately ripped
10 [6b2c4cb9] (027/912) Accurately ripped
11 [feac4e3d] (027/917) Accurately ripped
12 [cf5e4587] (027/915) Accurately ripped
13 [e9eee3b8] (027/908) Accurately ripped
14 [253319d8] (026/901) Accurately ripped
Offsetted by -1122:
01 [a0ba5691] (006/920) Accurately ripped
02 [b6e609eb] (006/919) Accurately ripped
03 [c60d793e] (006/919) Accurately ripped
04 [da62bdc9] (006/922) Accurately ripped
05 [fe84d61d] (006/916) Accurately ripped
06 [dd713116] (006/917) Accurately ripped
07 [e8fbbdc4] (007/921) Accurately ripped
08 [15044b03] (006/919) Accurately ripped
09 [eb15fc15] (006/914) Accurately ripped
10 [80d0fce2] (006/912) Accurately ripped
11 [561ca6a0] (006/917) Accurately ripped
12 [7106f033] (006/915) Accurately ripped
13 [5c592718] (006/908) Accurately ripped
14 [b3762883] (006/901) Accurately ripped
Offsetted by -900:
01 [f2fdc540] (096/920) Accurately ripped
02 [4330a813] (096/919) Accurately ripped
03 [355cd586] (096/919) Accurately ripped
04 [a889eee6] (097/922) Accurately ripped
05 [faad2225] (095/916) Accurately ripped
06 [e83667f3] (096/917) Accurately ripped
07 [cb721a3a] (096/921) Accurately ripped
08 [fdbf76d7] (095/919) Accurately ripped
09 [20b40bf6] (094/914) Accurately ripped
10 [f0895841] (095/912) Accurately ripped
11 [160c0e40] (092/917) Accurately ripped
12 [13f6ce08] (094/915) Accurately ripped
13 [ff02a889] (093/908) Accurately ripped
14 [cec2f486] (091/901) Accurately ripped
Offsetted by -265:
01 [75ad84ae] (020/920) Accurately ripped
02 [c6864020] (020/919) Accurately ripped
03 [a4dc0d31] (020/919) Accurately ripped
04 [eb3a0338] (020/922) Accurately ripped
05 [b0fe4446] (020/916) Accurately ripped
06 [1191486c] (020/917) Accurately ripped
07 [dae6d0f7] (020/921) Accurately ripped
08 [0f59bb32] (020/919) Accurately ripped
09 [89324911] (020/914) Accurately ripped
10 [4cc21ea1] (020/912) Accurately ripped
11 [dc9fe06d] (020/917) Accurately ripped
12 [e715860b] (020/915) Accurately ripped
13 [556d7014] (020/908) Accurately ripped
14 [efcaafa4] (020/901) Accurately ripped
Offsetted by -222:
01 [73621601] (004/920) Accurately ripped
02 [737c8b8b] (004/919) Accurately ripped
03 [d674aacd] (004/919) Accurately ripped
04 [ddcceade] (004/922) Accurately ripped
05 [5e76ac78] (004/916) Accurately ripped
06 [12b51014] (004/917) Accurately ripped
07 [aabc53a5] (004/921) Accurately ripped
08 [23e7aab8] (004/919) Accurately ripped
09 [5fb1a70d] (004/914) Accurately ripped
10 [9bad6aa8] (004/912) Accurately ripped
11 [2d1bfbf4] (004/917) Accurately ripped
12 [556c9acc] (004/915) Accurately ripped
13 [f78bc2ce] (004/908) Accurately ripped
14 [89d4145f] (004/901) Accurately ripped
Offsetted by -131:
01 [6b954f2b] (002/920) Accurately ripped
02 [84f6cda3] (002/919) Accurately ripped
03 [e6b6d5ae] (002/919) Accurately ripped
04 [3f6f955b] (003/922) Accurately ripped
05 [616da54e] (002/916) Accurately ripped
06 [94c179e8] (002/917) Accurately ripped
07 [d00a995f] (003/921) Accurately ripped
08 [3a6dbdae] (003/919) Accurately ripped
09 [6c69fb3c] (002/914) Accurately ripped
10 [d3586e48] (002/912) Accurately ripped
11 [47ecc75d] (003/917) Accurately ripped
12 [8439435f] (002/915) Accurately ripped
13 [05b3712a] (002/908) Accurately ripped
14 [9ac9a858] (002/901) Accurately ripped
Offsetted by -20:
01 [d343e028] (004/920) Accurately ripped
02 [9268396e] (004/919) Accurately ripped
03 [c1bfdf6f] (004/919) Accurately ripped
04 [107725fa] (004/922) Accurately ripped
05 [d257add1] (004/916) Accurately ripped
06 [bc8b2db7] (004/917) Accurately ripped
07 [a5d72bea] (004/921) Accurately ripped
08 [0da6cef6] (004/919) Accurately ripped
09 [2cd117ab] (004/914) Accurately ripped
10 [decd7d91] (004/912) Accurately ripped
11 [dc52d543] (004/917) Accurately ripped
12 [bbb9bb5a] (004/915) Accurately ripped
13 [e117d3b1] (004/908) Accurately ripped
14 [3d07f5e9] (004/901) Accurately ripped
Offsetted by 421:
01 [e58a5f1c] (003/920) Accurately ripped
02 [79116618] (003/919) Accurately ripped
03 [59d50bad] (003/919) Accurately ripped
04 [c8f677c6] (003/922) Accurately ripped
05 [31bed83d] (003/916) Accurately ripped
06 [b56a8059] (003/917) Accurately ripped
07 [2aa40f13] (003/921) Accurately ripped
08 [8b3a4834] (003/919) Accurately ripped
09 [2bef716f] (003/914) Accurately ripped
10 [79ae9bd7] (002/912) Accurately ripped
11 [284d34b2] (003/917) Accurately ripped
12 [511a3321] (003/915) Accurately ripped
13 [be8e438d] (003/908) Accurately ripped
14 [0ebac0da] (002/901) Accurately ripped
Offsetted by 474:
01 [0e5cd309] (003/920) Accurately ripped
02 [42a6d061] (003/919) Accurately ripped
03 [5a2ac7ec] (003/919) Accurately ripped
04 [493bafc1] (003/922) Accurately ripped
05 [4ff6010a] (003/916) Accurately ripped
06 [ae5d7232] (002/917) Accurately ripped
07 [914ce331] (002/921) Accurately ripped
08 [a1593a54] (002/919) Accurately ripped
09 [8138c947] (002/914) Accurately ripped
10 [0ce61906] (002/912) Accurately ripped
11 [54fa06d7] (002/917) Accurately ripped
12 [4ecad61b] (002/915) Accurately ripped
13 [b506c79c] (002/908) Accurately ripped
14 [2702993b] (002/901) Accurately ripped
Offsetted by 550:
01 [3e5dad37] (008/920) Accurately ripped
02 [7e52f895] (008/919) Accurately ripped
03 [b474ab83] (008/919) Accurately ripped
04 [47edeff8] (008/922) Accurately ripped
05 [931c510e] (008/916) Accurately ripped
06 [f6b307c6] (008/917) Accurately ripped
07 [66cd6394] (008/921) Accurately ripped
08 [bded0db8] (008/919) Accurately ripped
09 [b03e4ef2] (008/914) Accurately ripped
10 [96b6d9b1] (008/912) Accurately ripped
11 [c1facb4a] (008/917) Accurately ripped
12 [d703676a] (008/915) Accurately ripped
13 [1e8fcfde] (007/908) Accurately ripped
14 [d170642e] (007/901) Accurately ripped
Offsetted by 857:
01 [4ee2b4af] (031/920) Accurately ripped
02 [9c5e265c] (032/919) Accurately ripped
03 [0dcbb761] (032/919) Accurately ripped
04 [62139cc7] (032/922) Accurately ripped
05 [524458fa] (032/916) Accurately ripped
06 [00bccd94] (032/917) Accurately ripped
07 [c8e26926] (032/921) Accurately ripped
08 [54ed4aee] (031/919) Accurately ripped
09 [4a67c13f] (033/914) Accurately ripped
10 [e985c326] (033/912) Accurately ripped
11 [49437794] (032/917) Accurately ripped
12 [2dd89c13] (033/915) Accurately ripped
13 [96bbd042] (032/908) Accurately ripped
14 [929d9fa9] (031/901) Accurately ripped
Offsetted by -133:
01 [45232a8e] (003/920) Accurately ripped
02 [8bd5d6ae] (003/919) Accurately ripped
03 [882ccbbc] (003/919) Accurately ripped
04 [f06aed8f] (003/922) Accurately ripped
05 [5d642c96] (003/916) Accurately ripped
06 [1bcd3f64] (004/917) Accurately ripped
07 [994fe378] (003/921) Accurately ripped
08 [d3becf2c] (004/919) Accurately ripped
09 [6de1c543] (003/914) Accurately ripped
10 [bb9be24a] (003/912) Accurately ripped
11 [87ef370e] (003/917) Accurately ripped
12 [3977f8b5] (003/915) Accurately ripped
13 [d783f2c7] (003/908) Accurately ripped
14 [4e465e94] (000/901) No match (V2 was not tested)
Offsetted by 6:
01 [79c22991] (000/920) No match
02 [24f6439a] (000/919) No match
03 [c3409606] (000/919) No match
04 [2e0fc3c6] (000/922) No match
05 [3730a7e1] (000/916) No match
06 [17896973] (000/917) No match
07 [a713bf8b] (000/921) No match
08 [4887606c] (000/919) No match
09 [28ee9dc5] (000/914) No match
10 [45a34d6f] (000/912) No match
11 [89df3cab] (000/917) No match
12 [bc81cf6c] (000/915) No match
13 [67de80ec] (000/908) No match
14 [c7f333b1] (002/901) Accurately ripped
Offsetted by 595:
01 [071d9117] (011/920) Accurately ripped
02 [b6fcdc11] (011/919) Accurately ripped
03 [ea2b1848] (011/919) Accurately ripped
04 [88718f63] (012/922) Accurately ripped
05 [b2fe3155] (011/916) Accurately ripped
06 [6d794fa5] (011/917) Accurately ripped
07 [13c8b224] (000/921) No match (V2 was not tested)
08 [415fe95f] (012/919) Accurately ripped
09 [a7777592] (011/914) Accurately ripped
10 [97a85836] (011/912) Accurately ripped
11 [e1e12885] (011/917) Accurately ripped
12 [9fa70a35] (011/915) Accurately ripped
13 [4ce9dcc4] (011/908) Accurately ripped
14 [46fdadfa] (010/901) Accurately ripped
Offsetted by 998:
01 [40b842ff] (002/920) Accurately ripped
02 [9eb5d68a] (002/919) Accurately ripped
03 [18f5e6fb] (002/919) Accurately ripped
04 [2ad1eceb] (002/922) Accurately ripped
05 [d5a8077e] (002/916) Accurately ripped
06 [25411276] (000/917) No match (V2 was not tested)
07 [e3c01783] (002/921) Accurately ripped
08 [b5544171] (002/919) Accurately ripped
09 [7fdca456] (002/914) Accurately ripped
10 [f996a00f] (002/912) Accurately ripped
11 [f5b78a66] (002/917) Accurately ripped
12 [b47e861c] (002/915) Accurately ripped
13 [a962b12b] (002/908) Accurately ripped
14 [373ff8e5] (002/901) Accurately ripped

Track Peak [ CRC32 ] [W/O NULL] [ LOG ]
– 94,6 [976C1A5B] [F47429FD]
01 69,6 [1BF4D8D0] [6422CC53] CRC32
02 94,6 [4E6F1B67] [A3ABB708] CRC32
03 94,6 [96F3B275] [21D3C19E] CRC32
04 94,6 [10C7AE6A] [58143C3D] CRC32
05 94,6 [D8BA9E09] [F21547DF] CRC32
06 94,6 [C9381771] [CD37C6B1] CRC32
07 94,6 [E3E01346] [415C049A] CRC32
08 94,6 [D143B31E] [372FE556] CRC32
09 94,6 [35F008C7] [690887A6] CRC32
10 94,6 [78A6F819] [5312F769] CRC32
11 94,5 [94BDEB26] [7DBA0605] CRC32
12 94,6 [A3E6F547] [7C13076C] CRC32
13 94,6 [E80A16DC] [BC39688D] CRC32
14 94,6 [D8770095] [2111120E] CRC32

foobar2000 1.2 / Dynamic Range Meter 1.1.1
log date: 2019-07-13 15:39:48

––––––––––––––––––––––––––––––––––––––––
Analyzed: The Offspring / Smash
––––––––––––––––––––––––––––––––––––––––

DR Peak RMS Duration Track
––––––––––––––––––––––––––––––––––––––––
DR15 -3.14 dB -22.22 dB 0:26 01-Time Τo Relax
DR8 -0.48 dB -10.20 dB 2:27 02-Nitro (Youth Energy)
DR8 -0.48 dB -10.85 dB 3:44 03-Bad Habit
DR10 -0.48 dB -11.06 dB 3:53 04-Gotta Get Away
DR9 -0.48 dB -11.25 dB 3:32 05-Genocide
DR9 -0.48 dB -10.74 dB 3:18 06-Something Τo Believe In
DR11 -0.48 dB -12.70 dB 3:18 07-Come Out And Play
DR10 -0.48 dB -11.55 dB 4:18 08-Self Esteem
DR9 -0.48 dB -10.43 dB 2:43 09-It'll Be Α Long Time
DR9 -0.48 dB -10.23 dB 2:03 10-Killboy Powerhead
DR10 -0.49 dB -11.23 dB 2:12 11-What Happened Τo You
DR9 -0.48 dB -10.80 dB 1:17 12-So Alone
DR9 -0.48 dB -10.62 dB 2:54 13-Not Τhe One
DR9 -0.48 dB -15.39 dB 10:40 14-Smash
––––––––––––––––––––––––––––––––––––––––

Number of tracks: 14
Official DR value: DR10

Samplerate: 44100 Hz
Channels: 2
Bits per sample: 16
Bitrate: 470 kbps
Codec: FLAC
================================================================================

The Offspring - Smash (1994)

The Offspring - Smash (1994)

All thanks to original releaser - alekow

More interesting music in My Blog