Subcategories

The Oscar Peterson Trio with Milt Jackson - Very Tall (1961)

Posted By: v3122
The Oscar Peterson Trio with Milt Jackson - Very Tall (1961)

The Oscar Peterson Trio with Milt Jackson - Very Tall (1961)
EAC | Flac(Image) + Cue + Log & MP3 CBR 320Kbps
1995 | Mobile Fidelity Sound Lab, UDCD 655 | ~ 240 or 97 Mb | Scans(jpg) -> 9 Mb
Jazz, Swing

This first matchup on records between pianist Oscar Peterson and vibraphonist Milt Jackson was so logical that it is surprising it did not occur five years earlier. Originally recorded for Verve and three decades later reissued on this audiophile CD by Mobile Fidelity, the quartet set (which also includes bassist Ray Brown and drummer Ed Thigpen) swings as hard as one might expect. Highlights include "On Green Dolphin Street," "The Work Song," "John Brown's Body" (a jam on "Battle Hymn of the Republic") and "Reunion Blues." Fortunately O.P. and Bags would meet up on records many times in the future (particularly during their Pablo years) but this first effort is a particularly strong set.

by Scott Yanow, allmusic
The Oscar Peterson Trio with Milt Jackson - Very Tall (1961):

The Oscar Peterson Trio with Milt Jackson - Very Tall (1961)

Tracklist:

01. On Green Dolphin Street [07:31]
02. Heartstrings [05:44]
03. The Work Song [07:31]
04. John Brown's Body [07:48]
05. A Wonderful Guy [04:57]
06. Reunion Blues [07:24]

Musicians:

Bass – Ray Brown
Drums – Ed Thigpen
Engineer – Val Valentin
Liner Notes – Nat Hentoff
Photography By – Roy DeCarava
Piano – Oscar Peterson
Vibraphone – Milt Jackson


Exact Audio Copy V0.99 prebeta 5 from 4. May 2009

EAC extraction logfile from 16. June 2012, 13:35

The Oscar Peterson Trio with Milt Jackson / Very Tall (MFSL UDCD 655)

Used drive : ASUS DRW-24B3ST Adapter: 0 ID: 1

Read mode : Secure
Utilize accurate stream : Yes
Defeat audio cache : Yes
Make use of C2 pointers : No

Read offset correction : 6
Overread into Lead-In and Lead-Out : No
Fill up missing offset samples with silence : Yes
Delete leading and trailing silent blocks : No
Null samples used in CRC calculations : Yes
Used interface : Native Win32 interface for Win NT & 2000

Used output format : User Defined Encoder
Selected bitrate : 1024 kBit/s
Quality : High
Add ID3 tag : No
Command line compressor : C:\Program Files (x86)\EAC\WV\wavpack.exe
Additional command line options : -h -hh -m %s %d


TOC of the extracted CD

Track | Start | Length | Start sector | End sector
––––––––––––––––––––––––––––-
1 | 0:00.00 | 7:31.70 | 0 | 33894
2 | 7:31.70 | 5:44.02 | 33895 | 59696
3 | 13:15.72 | 7:31.15 | 59697 | 93536
4 | 20:47.12 | 7:48.40 | 93537 | 128676
5 | 28:35.52 | 4:57.23 | 128677 | 150974
6 | 33:33.00 | 7:24.05 | 150975 | 184279


Range status and errors

Selected range

Filename G:\@ MFSL\The Oscar Peterson Trio with Milt Jackson © 1961 - Very Tall (MFSL UDCD-655)\Oscar Peterson - Very Tall (MFSL UDCD 655).wav

Peak level 100.0 %
Range quality 100.0 %
Test CRC 87E90351
Copy CRC 87E90351
Copy OK

No errors occurred


AccurateRip summary

Track 1 accurately ripped (confidence 9) [BC913051]
Track 2 accurately ripped (confidence 9) [A68B8DB4]
Track 3 accurately ripped (confidence 9) [A0F28E4B]
Track 4 accurately ripped (confidence 9) [E676C2BE]
Track 5 accurately ripped (confidence 9) [F0DED27D]
Track 6 accurately ripped (confidence 9) [7C4CB97B]

All tracks accurately ripped

End of status report

foobar2000 1.2.9 / Dynamic Range Meter 1.1.1
log date: 2017-04-08 21:13:56

––––––––––––––––––––––––––––––––––––––––
Analyzed: The Oscar Peterson Trio with Milt Jackson / Very Tall (MFSL UDCD 655)
––––––––––––––––––––––––––––––––––––––––

DR Peak RMS Duration Track
––––––––––––––––––––––––––––––––––––––––
DR13 -2.84 dB -20.49 dB 7:32 01-On Green Dolphin Street
DR13 -3.88 dB -22.02 dB 5:44 02-Heartstrings
DR12 0.00 dB -16.56 dB 7:31 03-The Work Song
DR13 -0.22 dB -18.40 dB 7:49 04-John Brown's Body
DR12 -5.05 dB -19.69 dB 4:57 05-A Wonderful Guy
DR13 0.00 dB -18.29 dB 7:24 06-Reunion Blues
––––––––––––––––––––––––––––––––––––––––

Number of tracks: 6
Official DR value: DR13

Samplerate: 44100 Hz
Channels: 2
Bits per sample: 16
Bitrate: 794 kbps
Codec: FLAC

[CUETools log; Date: 08.04.2017 21:13:47; Version: 2.1.4]
[CTDB TOCID: BOqdNdavHDOmO0sqwT2F82IvySU-] found.
Track | CTDB Status
1 | (8/8) Accurately ripped
2 | (8/8) Accurately ripped
3 | (8/8) Accurately ripped
4 | (8/8) Accurately ripped
5 | (8/8) Accurately ripped
6 | (8/8) Accurately ripped
[AccurateRip ID: 0009ef35-0034cc81-4d099906] found.
Track [ CRC | V2 ] Status
01 [bc913051|a92af94d] (10+09/19) Accurately ripped
02 [a68b8db4|b4e56d93] (10+09/19) Accurately ripped
03 [a0f28e4b|390cb911] (10+09/19) Accurately ripped
04 [e676c2be|741af8d3] (10+09/19) Accurately ripped
05 [f0ded27d|f9b7a5da] (10+09/19) Accurately ripped
06 [7c4cb97b|1869ad86] (10+09/19) Accurately ripped

Track Peak [ CRC32 ] [W/O NULL] [ LOG ]
– 100,0 [87E90351] [7E096FE8] CRC32
01 72,1 [1F51D493] [5850EFA4]
02 63,9 [883D5F7B] [4BCEA02A]
03 100,0 [23DAFE3B] [3CFC9340]
04 97,5 [D9727385] [FA77DDD2]
05 55,9 [8888D914] [68ADC794]
06 100,0 [53C8A85F] [ECC91A09]

The Oscar Peterson Trio with Milt Jackson - Very Tall (1961)

All thanks go to the original releaser

Oscar Peterson in my Blog

Download The Oscar Peterson Trio with Milt Jackson - Very Tall (1961):