Subcategories
Please register here if you want to download anything!

If domain in your address bar is different from the list below
PLEASE LEAVE THAT SITE IMMEDIATELY
❗IT'S A DANGEROUS FAKE❗



Spicy Magazines for Men! ;-)

The Presidents Of The United States Of America - Freaked Out And Small (2000)

Posted By: Designol
The Presidents Of The United States Of America - Freaked Out And Small (2000)

The Presidents Of The United States Of America - Freaked Out And Small (2000)
EAC | FLAC | Tracks (Cue&Log) ~ 254 Mb | Mp3 (CBR320) ~ 90 Mb | Scans included
Alternative Pop/Rock, Pop-Punk | Label: Roadrunner | # RR 8492-2 | Time: 00:36:21

Freaked Out and Small is the third album by The Presidents of the United States of America. It was released in 2000 by MusicBlitz Records, which was a web based label. An interesting note about this album is that all of the songs were played with normal guitars and bass guitars. This is different from all of the other albums by the band, as they usually played with guitbasses and basitars, which were guitars with fewer strings that were tuned differently than usual.

As the Presidents of the United States of America were turning out novelty hits in the mid-'90s, it was easy to take them for granted, ignore them, or even hate them, depending on your disposition. First of all, they were stuck in the midst of a flood of post-grunge guitar bands that turned on the fuzz boxes, bashed out a few chords, and occasionally hit a hook or two. POTUSA weren't all that musically dissimilar from those punk-popsters and sludge rockers, except for their knack for ingratiatingly catchy hooks and a relentlessly irreverent sense of humor. That humor could come off as silly or smug, especially when placed in the context of the age of uber-irony. Once that age died in the late '90s, so did the Presidents and the band disappeared, only to surface again with Freaked Out and Small on a small indie label in the fall of 2000. Apart from the times, not much has changed with the Presidents, who still make catchy, punky pop tunes, but dammit if they don't sound better than they ever did. Maybe it's because the album stands in direct contrast with the teen pop and rap-rock that dominate the mainstream rock audience, or maybe it's because their jokes are now clever and silly, the production is varied, the songs are breezy, melodic, and catchy. Or maybe it's just because in this stripped-back production, the band never sounds self-conscious. They just sound like they're having fun, and that fun is contagious – something that wasn't always true with their first two albums. Maybe the Presidents are just blessed with fortunate timing, releasing this album in a year nearly devoid of fun, hooks, and silliness, or maybe they really have gotten better. Either way, Freaked Out and Small feels like the best record they've ever done. Chances are, it's the one that the least amount of people will hear, but anyone that seeks it out will be surprised by how much fun it is.

Review by Stephen Thomas Erlewine, Allmusic.com

The Presidents Of The United States Of America - Freaked Out And Small (2000)



Tracklist:

01. Tiny Explosions (02:50)
02. Nuthin' But Luv (02:41)
03. Tiger Bomb (03:18)
04. Last Girl On Earth (02:20)
05. Jazz Guy (02:13)
06. Meanwhile Back In The City (03:22)
07. Jupiter (02:38)
08. Superstar (03:08)
09. Death Star (03:22)
10. Blank Baby (03:48)
11. I'm Mad (02:15)
12. Headin' Out (04:17)


Exact Audio Copy V0.99 prebeta 5 from 4. May 2009

Отчёт EAC об извлечении, выполненном 31. октября 2011, 14:29

The Presidents Of The United States Of America / Freaked Out And Small

Дисковод: Optiarc DVD RW AD-5240S Adapter: 3 ID: 1

Режим чтения : Достоверность
Использование точного потока : Да
Отключение кэша аудио : Да
Использование указателей C2 : Нет

Коррекция смещения при чтении : 48
Способность читать области Lead-in и Lead-out : Нет
Заполнение пропущенных сэмплов тишиной : Да
Удаление блоков с тишиной в начале и конце : Нет
При вычислениях CRC использовались нулевые сэмплы : Да
Интерфейс : Встроенный Win32-интерфейс для Win NT/2000
Обработка зазоров : Добавлено к предыдущему треку

Выходной формат : Пользовательский кодировщик
Выбранный битрейт : 768 kBit/s
Качество : Высокий
Добавление ID3-тэга : Нет
Утилита сжатия : L:\программы\Exact Audio Copy\FLAC\FLAC.EXE
Дополнительные параметры : -6 -V -T "ARTIST=%a" -T "TITLE=%t" -T "ALBUM=%g" -T "DATE=%y" -T "TRACKNUMBER=%n" -T "GENRE=%m" -T "COMMENT=%e" %s -o %d


TOC извлечённого CD

Трек | Старт | Длительность | Начальный сектор | Конечный сектор
––––––––––––––––––––––––––––––––––-
1 | 0:00.00 | 2:50.50 | 0 | 12799
2 | 2:50.50 | 2:41.62 | 12800 | 24936
3 | 5:32.37 | 3:18.54 | 24937 | 39840
4 | 8:51.16 | 2:20.43 | 39841 | 50383
5 | 11:11.59 | 2:13.47 | 50384 | 60405
6 | 13:25.31 | 3:22.60 | 60406 | 75615
7 | 16:48.16 | 2:38.35 | 75616 | 87500
8 | 19:26.51 | 3:08.10 | 87501 | 101610
9 | 22:34.61 | 3:22.05 | 101611 | 116765
10 | 25:56.66 | 3:48.63 | 116766 | 133928
11 | 29:45.54 | 2:15.42 | 133929 | 144095
12 | 32:01.21 | 4:17.66 | 144096 | 163436


Трек 1

Имя файла L:\Новая папка\01. The Presidents Of The United States Of America - Tiny Explosions.wav

Длина предзазора 0:00:02.00

Пиковый уровень 99.8 %
Качество трека 99.9 %
CRC теста C9AA737B
CRC копии C9AA737B
Точное извлечение (достоверность 7) [AE6788B5]
Копирование… OK

Трек 2

Имя файла L:\Новая папка\02. The Presidents Of The United States Of America - Nuthin' But Luv.wav

Пиковый уровень 99.7 %
Качество трека 100.0 %
CRC теста B3C8BB7D
CRC копии B3C8BB7D
Точное извлечение (достоверность 6) [3D048D4D]
Копирование… OK

Трек 3

Имя файла L:\Новая папка\03. The Presidents Of The United States Of America - Tiger Bomb.wav

Пиковый уровень 99.7 %
Качество трека 100.0 %
CRC теста D833661E
CRC копии D833661E
Точное извлечение (достоверность 6) [F5D7E20F]
Копирование… OK

Трек 4

Имя файла L:\Новая папка\04. The Presidents Of The United States Of America - Last Girl On Earth.wav

Пиковый уровень 99.7 %
Качество трека 100.0 %
CRC теста 335FF031
CRC копии 335FF031
Точное извлечение (достоверность 6) [2DBEB80E]
Копирование… OK

Трек 5

Имя файла L:\Новая папка\05. The Presidents Of The United States Of America - Jazz Guy.wav

Пиковый уровень 99.7 %
Качество трека 100.0 %
CRC теста 6862FC73
CRC копии 6862FC73
Точное извлечение (достоверность 6) [0DA2860E]
Копирование… OK

Трек 6

Имя файла L:\Новая папка\06. The Presidents Of The United States Of America - Meanwhile Back In The City.wav

Пиковый уровень 99.8 %
Качество трека 100.0 %
CRC теста 30B1FB5F
CRC копии 30B1FB5F
Точное извлечение (достоверность 6) [43D6ECD2]
Копирование… OK

Трек 7

Имя файла L:\Новая папка\07. The Presidents Of The United States Of America - Jupiter.wav

Пиковый уровень 99.7 %
Качество трека 100.0 %
CRC теста E09851E5
CRC копии E09851E5
Точное извлечение (достоверность 6) [5083448C]
Копирование… OK

Трек 8

Имя файла L:\Новая папка\08. The Presidents Of The United States Of America - Superstar.wav

Пиковый уровень 99.7 %
Качество трека 100.0 %
CRC теста 9BD48F0B
CRC копии 9BD48F0B
Точное извлечение (достоверность 6) [B69C3129]
Копирование… OK

Трек 9

Имя файла L:\Новая папка\09. The Presidents Of The United States Of America - Death Star.wav

Пиковый уровень 99.7 %
Качество трека 100.0 %
CRC теста A61CBF61
CRC копии A61CBF61
Точное извлечение (достоверность 6) [DBFCDFF7]
Копирование… OK

Трек 10

Имя файла L:\Новая папка\10. The Presidents Of The United States Of America - Blank Baby.wav

Пиковый уровень 99.7 %
Качество трека 100.0 %
CRC теста EAD13F35
CRC копии EAD13F35
Точное извлечение (достоверность 6) [CB018BB8]
Копирование… OK

Трек 11

Имя файла L:\Новая папка\11. The Presidents Of The United States Of America - I'm Mad.wav

Пиковый уровень 99.7 %
Качество трека 100.0 %
CRC теста 2D280B50
CRC копии 2D280B50
Точное извлечение (достоверность 6) [04505507]
Копирование… OK

Трек 12

Имя файла L:\Новая папка\12. The Presidents Of The United States Of America - Headin' Out.wav

Пиковый уровень 99.7 %
Качество трека 100.0 %
CRC теста 9FC5C63A
CRC копии 9FC5C63A
Точное извлечение (достоверность 6) [142F962B]
Копирование… OK


Все треки извлечены точно

Ошибок не произошло

Конец отчёта

[CUETools log; Date: 09.06.2018 16:41:42; Version: 2.1.4]
[CTDB TOCID: rTrO1aVhG7LkLWS5tFJ.HuO.7KM-] found.
Track | CTDB Status
1 | (31/31) Accurately ripped
2 | (30/31) Accurately ripped
3 | (30/31) Accurately ripped
4 | (31/31) Accurately ripped
5 | (30/31) Accurately ripped
6 | (30/31) Accurately ripped
7 | (30/31) Accurately ripped
8 | (30/31) Accurately ripped
9 | (30/31) Accurately ripped
10 | (30/31) Accurately ripped
11 | (30/31) Accurately ripped
12 | (30/31) Accurately ripped
[AccurateRip ID: 000f6e7c-009126d7-9a08830c] found.
Track [ CRC | V2 ] Status
01 [ae6788b5|3a620652] (08+15/23) Accurately ripped
02 [3d048d4d|8d0a8412] (07+15/22) Accurately ripped
03 [f5d7e20f|a416c350] (07+15/22) Accurately ripped
04 [2dbeb80e|1906b8b3] (07+15/22) Accurately ripped
05 [0da2860e|a8b7904f] (07+15/22) Accurately ripped
06 [43d6ecd2|0d772921] (07+15/22) Accurately ripped
07 [5083448c|e89ba2ff] (07+15/22) Accurately ripped
08 [b69c3129|5877a3f2] (07+15/22) Accurately ripped
09 [dbfcdff7|40e63c4e] (07+15/22) Accurately ripped
10 [cb018bb8|f8fef82b] (07+15/22) Accurately ripped
11 [04505507|87840c0d] (07+15/22) Accurately ripped
12 [142f962b|26e8b741] (07+15/22) Accurately ripped

Track Peak [ CRC32 ] [W/O NULL] [ LOG ]
– 99,8 [99F2E45F] [C5EAE10A]
01 99,8 [C9AA737B] [195262CF] CRC32
02 99,7 [B3C8BB7D] [54DC1A33] CRC32
03 99,7 [D833661E] [1F811A43] CRC32
04 99,7 [335FF031] [42B2FF9E] CRC32
05 99,7 [6862FC73] [2DCC5B0C] CRC32
06 99,8 [30B1FB5F] [3DBE4D00] CRC32
07 99,7 [E09851E5] [3C971B13] CRC32
08 99,7 [9BD48F0B] [B7899057] CRC32
09 99,7 [A61CBF61] [7DA6209A] CRC32
10 99,7 [EAD13F35] [A848FD0B] CRC32
11 99,7 [2D280B50] [9F184290] CRC32
12 99,7 [9FC5C63A] [256AD963] CRC32

foobar2000 1.2 / Dynamic Range Meter 1.1.1
log date: 2018-06-09 16:29:40

––––––––––––––––––––––––––––––––––––––––
Analyzed: The Presidents Of The United States Of America / Freaked Out And Small
––––––––––––––––––––––––––––––––––––––––

DR Peak RMS Duration Track
––––––––––––––––––––––––––––––––––––––––
DR6 -0.02 dB -7.05 dB 2:51 01-Tiny Explosions
DR6 -0.02 dB -7.75 dB 2:42 02-Nuthin' But Luv
DR7 -0.02 dB -9.17 dB 3:19 03-Tiger Bomb
DR7 -0.02 dB -7.57 dB 2:21 04-Last Girl On Earth
DR6 -0.02 dB -7.17 dB 2:14 05-Jazz Guy
DR6 -0.02 dB -8.32 dB 3:23 06-Meanwhile Back In The City
DR7 -0.02 dB -8.87 dB 2:38 07-Jupiter
DR6 -0.02 dB -7.08 dB 3:08 08-Superstar
DR6 -0.02 dB -8.84 dB 3:22 09-Death Star
DR6 -0.02 dB -7.45 dB 3:49 10-Blank Baby
DR6 -0.02 dB -6.50 dB 2:16 11-I'm Mad
DR6 -0.02 dB -9.23 dB 4:18 12-Headin' Out
––––––––––––––––––––––––––––––––––––––––

Number of tracks: 12
Official DR value: DR6

Samplerate: 44100 Hz
Channels: 2
Bits per sample: 16
Bitrate: 870 kbps
Codec: FLAC
================================================================================

The Presidents Of The United States Of America - Freaked Out And Small (2000)

The Presidents Of The United States Of America - Freaked Out And Small (2000)

All thanks to original releaser - pretenders

More interesting music in My Blog