Subcategories

The Purcell Quartet - J.S. Bach: Trio Sonatas (2000) (Repost)

Posted By: tirexiss
The Purcell Quartet - J.S. Bach: Trio Sonatas (2000) (Repost)

The Purcell Quartet - J.S. Bach: Trio Sonatas (2000)
XLD | FLAC (tracks+.cue, log) | Covers + Digital Booklet | 01:12:37 | 389 MB
Genre: Classical | Label: Chaconne | Catalog: Chan 0654

Rarely do we feel the presence of Bach so vividly on a recording as we do here with this set of Trio Sonata arrangements, performed by violins, viola da gamba, and harpsichord. What a perfect combination, thanks to Richard Boothby's settings and to the wonderfully synergistic interaction among these very experienced early music players–violinists Catherine Mackintosh (in her best recorded performance in a while) and Catherine Weiss, gambist Boothby, and harpsichordist Robert Woolley. There's certainly nothing wrong with arranging Bach's music like this–and indeed, Boothby does "mix things up" by transposing keys and instrumental lines–as Bach himself reused, rearranged, and transposed his own and others' music. In these string versions of pieces normally performed on the organ we hear occasional enticing hints of the violin concertos and, because of the instruments' different registers and colors, the lines emerge in new and surprising ways. This disc makes a nice companion to Bernard Labadie's arrangement of the Goldberg Variations for strings and continuo, recorded with Les Violons du Roy on Dorian (see reviews and features): both are distinguished for their learned, totally faithful, yet refreshingly entertaining and enlightening recastings of music that's not only timeless but seemingly limitless in its revelatory capacity. The sound is demonstration quality–this is one of those recordings that when you turn it up to just the right level, the instruments come to stunningly real, three-dimensional life, no fancy surround-sound or other high end equipment needed. – David Vernier, ClassicsToday

The Purcell Quartet - J.S. Bach: Trio Sonatas (2000) (Repost)

Track List:

in E flat major (transposed to F major), BWV 525
01. I [Allegro] (2:37)
02. II Adagio (6:41)
03. III Allegro (3:53)
in C minor, BWV 526
04. I Vivace (3:32)
05. II Largo (2:53)
06. III Allegro (3:58)
in D minor, BWV 527
07. I Andante (4:31)
08. II Adagio e dolce (4:55)
09. III Vivace (3:55)
in E minor, BWV 528
10. I Adagio – Vivace (2:26)
11. II Andante (3:53)
12. III Un poc allegro (2:40)
in C major (transposed to D major), BWV 529
13. I Allegro (4:52)
14. II Largo (4:54)
15. III Allegro (3:30)
in G major, BWV 530
16. I Vivace (3:42)
17. II Lente (6:20)
18. III Allegro (3:25)

Performers:
The Purcell Quartet

X Lossless Decoder version 20151214 (149.1)
XLD extraction logfile from 2016-07-10 14:41:20 -0400
The Purcell Quartet / Trio Sonatas
Used drive : HL-DT-ST DVDRAM GP50NB40 (revision RB00)
Media type : Pressed CD
Ripper mode : XLD Secure Ripper
Disable audio cache : OK for the drive with a cache less than 1375KiB
Make use of C2 pointers : NO
Read offset correction : 6
Max retry count : 100
Gap status : Analyzed, Appended (except HTOA)
TOC of the extracted CD

Track | Start | Length | Start sector | End sector
––––––––––––––––––––––––––––-
1 | 00:00:00 | 02:37:00 | 0 | 11774
2 | 02:37:00 | 06:41:00 | 11775 | 41849
3 | 09:18:00 | 03:53:00 | 41850 | 59324
4 | 13:11:00 | 03:32:12 | 59325 | 75236
5 | 16:43:12 | 02:53:20 | 75237 | 88231
6 | 19:36:32 | 03:57:43 | 88232 | 106049
7 | 23:34:00 | 04:31:00 | 106050 | 126374
8 | 28:05:00 | 04:55:37 | 126375 | 148536
9 | 33:00:37 | 03:54:38 | 148537 | 166124
10 | 36:55:00 | 02:26:00 | 166125 | 177074
11 | 39:21:00 | 03:53:00 | 177075 | 194549
12 | 43:14:00 | 02:40:20 | 194550 | 206569
13 | 45:54:20 | 04:52:17 | 206570 | 228486
14 | 50:46:37 | 04:53:58 | 228487 | 250519
15 | 55:40:20 | 03:29:55 | 250520 | 266249
16 | 59:10:00 | 03:42:37 | 266250 | 282936
17 | 62:52:37 | 06:19:38 | 282937 | 311399
18 | 69:12:00 | 03:25:25 | 311400 | 326799

AccurateRip Summary (DiscID: 002ed0bf-026f5ae1-0e110512)
Track 01 : OK (v1+v2, confidence 6/6)
Track 02 : OK (v1+v2, confidence 6/6)
Track 03 : OK (v1+v2, confidence 6/6)
Track 04 : OK (v1+v2, confidence 7/7)
Track 05 : OK (v1+v2, confidence 7/7)
Track 06 : OK (v1+v2, confidence 7/7)
Track 07 : OK (v1+v2, confidence 7/7)
Track 08 : OK (v1+v2, confidence 7/7)
Track 09 : OK (v1+v2, confidence 7/7)
Track 10 : OK (v1+v2, confidence 7/7)
Track 11 : OK (v1+v2, confidence 6/6)
Track 12 : OK (v1+v2, confidence 7/7)
Track 13 : OK (v1+v2, confidence 7/7)
Track 14 : OK (v1+v2, confidence 7/7)
Track 15 : OK (v1+v2, confidence 7/7)
Track 16 : OK (v1+v2, confidence 7/7)
Track 17 : OK (v1+v2, confidence 6/6)
Track 18 : OK (v1+v2, confidence 7/7)
->All tracks accurately ripped.

All Tracks
Album gain : 4.70 dB
Peak : 0.530670
Statistics
Read error : 0
Jitter error (maybe fixed) : 0
Retry sector count : 0
Damaged sector count : 0

Track 01
Filename : /Users/pythagoras/Documents/rip/Johann Sebastian Bach - (2000) Trio Sonatas - FLAC/01 (BWV 525) Trio Sonata in E flat (transposed to F) - 1 - Allegro.flac
Pre-gap length : 00:02:00
Track gain : 4.24 dB
Peak : 0.454376
CRC32 hash (test run) : 40A5FB8D
CRC32 hash : 40A5FB8D
CRC32 hash (skip zero) : E721F16D
AccurateRip v1 signature : D1FE39BE
AccurateRip v2 signature : 42A31043
->Accurately ripped (v1+v2, confidence 4+2/6)
Statistics
Read error : 0
Jitter error (maybe fixed) : 0
Retry sector count : 0
Damaged sector count : 0

Track 02
Filename : /Users/pythagoras/Documents/rip/Johann Sebastian Bach - (2000) Trio Sonatas - FLAC/02 (BWV 525) Trio Sonata in E flat (transposed to F) - 2 - Adagio.flac
Track gain : 7.26 dB
Peak : 0.330353
CRC32 hash (test run) : F4271DD0
CRC32 hash : F4271DD0
CRC32 hash (skip zero) : 36B966B3
AccurateRip v1 signature : B8AB8337
AccurateRip v2 signature : C19E75E3
->Accurately ripped (v1+v2, confidence 4+2/6)
Statistics
Read error : 0
Jitter error (maybe fixed) : 0
Retry sector count : 0
Damaged sector count : 0

Track 03
Filename : /Users/pythagoras/Documents/rip/Johann Sebastian Bach - (2000) Trio Sonatas - FLAC/03 (BWV 525) Trio Sonata in E flat (transposed to F) - 3 - Allegro.flac
Track gain : 4.88 dB
Peak : 0.530670
CRC32 hash (test run) : D5DAD345
CRC32 hash : D5DAD345
CRC32 hash (skip zero) : 05EE7B7F
AccurateRip v1 signature : 04FA4A0A
AccurateRip v2 signature : 9D3AA816
->Accurately ripped (v1+v2, confidence 4+2/6)
Statistics
Read error : 0
Jitter error (maybe fixed) : 0
Retry sector count : 0
Damaged sector count : 0

Track 04
Filename : /Users/pythagoras/Documents/rip/Johann Sebastian Bach - (2000) Trio Sonatas - FLAC/04 (BWV 526) Trio Sonata in C - 1 - Vivace.flac
Pre-gap length : 00:05:50
Track gain : 3.41 dB
Peak : 0.530426
CRC32 hash (test run) : 1A3FB59D
CRC32 hash : 1A3FB59D
CRC32 hash (skip zero) : 77631294
AccurateRip v1 signature : 316563B0
AccurateRip v2 signature : 3CBD7657
->Accurately ripped (v1+v2, confidence 5+2/7)
Statistics
Read error : 0
Jitter error (maybe fixed) : 0
Retry sector count : 0
Damaged sector count : 0

Track 05
Filename : /Users/pythagoras/Documents/rip/Johann Sebastian Bach - (2000) Trio Sonatas - FLAC/05 (BWV 526) Trio Sonata in C - 2 - Largo.flac
Track gain : 5.00 dB
Peak : 0.336121
CRC32 hash (test run) : 42E5D28F
CRC32 hash : 42E5D28F
CRC32 hash (skip zero) : 767BD46E
AccurateRip v1 signature : 90CCCEB8
AccurateRip v2 signature : 55C6B58E
->Accurately ripped (v1+v2, confidence 5+2/7)
Statistics
Read error : 0
Jitter error (maybe fixed) : 0
Retry sector count : 0
Damaged sector count : 0

Track 06
Filename : /Users/pythagoras/Documents/rip/Johann Sebastian Bach - (2000) Trio Sonatas - FLAC/06 (BWV 526) Trio Sonata in C - 3 - Allegro.flac
Track gain : 2.72 dB
Peak : 0.530518
CRC32 hash (test run) : B65F11E6
CRC32 hash : B65F11E6
CRC32 hash (skip zero) : EE5F6F7D
AccurateRip v1 signature : DC8FCA3C
AccurateRip v2 signature : EC150075
->Accurately ripped (v1+v2, confidence 5+2/7)
Statistics
Read error : 0
Jitter error (maybe fixed) : 0
Retry sector count : 0
Damaged sector count : 0

Track 07
Filename : /Users/pythagoras/Documents/rip/Johann Sebastian Bach - (2000) Trio Sonatas - FLAC/07 (BWV 527) Trio Sonata in D - 1 - Andante.flac
Pre-gap length : 00:06:50
Track gain : 4.47 dB
Peak : 0.474670
CRC32 hash (test run) : 94EC6AEC
CRC32 hash : 94EC6AEC
CRC32 hash (skip zero) : 759E8F64
AccurateRip v1 signature : 9D7509AE
AccurateRip v2 signature : AA84BA8F
->Accurately ripped (v1+v2, confidence 5+2/7)
Statistics
Read error : 0
Jitter error (maybe fixed) : 0
Retry sector count : 0
Damaged sector count : 0

Track 08
Filename : /Users/pythagoras/Documents/rip/Johann Sebastian Bach - (2000) Trio Sonatas - FLAC/08 (BWV 527) Trio Sonata in D - 2 - Adagio e dolce.flac
Track gain : 4.83 dB
Peak : 0.403351
CRC32 hash (test run) : 1AACE865
CRC32 hash : 1AACE865
CRC32 hash (skip zero) : 88137B92
AccurateRip v1 signature : 0DFD185F
AccurateRip v2 signature : 01EF7DAD
->Accurately ripped (v1+v2, confidence 5+2/7)
Statistics
Read error : 0
Jitter error (maybe fixed) : 0
Retry sector count : 0
Damaged sector count : 0

Track 09
Filename : /Users/pythagoras/Documents/rip/Johann Sebastian Bach - (2000) Trio Sonatas - FLAC/09 (BWV 527) Trio Sonata in D - 3 - Vivace.flac
Track gain : 3.16 dB
Peak : 0.494690
CRC32 hash (test run) : 66F27175
CRC32 hash : 66F27175
CRC32 hash (skip zero) : F8269C64
AccurateRip v1 signature : 4883DBC6
AccurateRip v2 signature : 0F6D7427
->Accurately ripped (v1+v2, confidence 5+2/7)
Statistics
Read error : 0
Jitter error (maybe fixed) : 0
Retry sector count : 0
Damaged sector count : 0

Track 10
Filename : /Users/pythagoras/Documents/rip/Johann Sebastian Bach - (2000) Trio Sonatas - FLAC/10 (BWV 528) Trio Sonata in E - 1 - Adagio / Vivace.flac
Pre-gap length : 00:06:50
Track gain : 5.75 dB
Peak : 0.442169
CRC32 hash (test run) : E91DCA5F
CRC32 hash : E91DCA5F
CRC32 hash (skip zero) : 6A7CF403
AccurateRip v1 signature : 31969250
AccurateRip v2 signature : BE60371A
->Accurately ripped (v1+v2, confidence 5+2/7)
Statistics
Read error : 0
Jitter error (maybe fixed) : 0
Retry sector count : 0
Damaged sector count : 0

Track 11
Filename : /Users/pythagoras/Documents/rip/Johann Sebastian Bach - (2000) Trio Sonatas - FLAC/11 (BWV 528) Trio Sonata in E - 2 - Andante.flac
Track gain : 6.13 dB
Peak : 0.402252
CRC32 hash (test run) : 9336B0A7
CRC32 hash : 9336B0A7
CRC32 hash (skip zero) : A06705CD
AccurateRip v1 signature : 4B19EEF1
AccurateRip v2 signature : 5E23A949
->Accurately ripped (v1+v2, confidence 4+2/6)
Statistics
Read error : 0
Jitter error (maybe fixed) : 0
Retry sector count : 0
Damaged sector count : 0

Track 12
Filename : /Users/pythagoras/Documents/rip/Johann Sebastian Bach - (2000) Trio Sonatas - FLAC/12 (BWV 528) Trio Sonata in E - 3 - Un poc' allegro.flac
Track gain : 4.73 dB
Peak : 0.400208
CRC32 hash (test run) : E10F367B
CRC32 hash : E10F367B
CRC32 hash (skip zero) : CEB63AB7
AccurateRip v1 signature : 4EDC575F
AccurateRip v2 signature : 5196B92A
->Accurately ripped (v1+v2, confidence 5+2/7)
Statistics
Read error : 0
Jitter error (maybe fixed) : 0
Retry sector count : 0
Damaged sector count : 0

Track 13
Filename : /Users/pythagoras/Documents/rip/Johann Sebastian Bach - (2000) Trio Sonatas - FLAC/13 (BWV 529) Trio Sonata in C (transposed to D) - 1 - Allegro.flac
Pre-gap length : 00:05:70
Track gain : 5.30 dB
Peak : 0.370911
CRC32 hash (test run) : 8D7C81C1
CRC32 hash : 8D7C81C1
CRC32 hash (skip zero) : 43819A4A
AccurateRip v1 signature : 01E7F25B
AccurateRip v2 signature : F261B68D
->Accurately ripped (v1+v2, confidence 5+2/7)
Statistics
Read error : 0
Jitter error (maybe fixed) : 0
Retry sector count : 0
Damaged sector count : 0

Track 14
Filename : /Users/pythagoras/Documents/rip/Johann Sebastian Bach - (2000) Trio Sonatas - FLAC/14 (BWV 529) Trio Sonata in C (transposed to D) - 2 - Largo.flac
Track gain : 6.63 dB
Peak : 0.340179
CRC32 hash (test run) : 8B6FCF6A
CRC32 hash : 8B6FCF6A
CRC32 hash (skip zero) : 7543537C
AccurateRip v1 signature : 9AE9ED95
AccurateRip v2 signature : AFF72B67
->Accurately ripped (v1+v2, confidence 5+2/7)
Statistics
Read error : 0
Jitter error (maybe fixed) : 0
Retry sector count : 0
Damaged sector count : 0

Track 15
Filename : /Users/pythagoras/Documents/rip/Johann Sebastian Bach - (2000) Trio Sonatas - FLAC/15 (BWV 529) Trio Sonata in C (transposed to D) - 3 - Allegro.flac
Track gain : 4.83 dB
Peak : 0.374634
CRC32 hash (test run) : 97E0F7A3
CRC32 hash : 97E0F7A3
CRC32 hash (skip zero) : 68200633
AccurateRip v1 signature : C9FEFB7C
AccurateRip v2 signature : 41689DA9
->Accurately ripped (v1+v2, confidence 5+2/7)
Statistics
Read error : 0
Jitter error (maybe fixed) : 0
Retry sector count : 0
Damaged sector count : 0

Track 16
Filename : /Users/pythagoras/Documents/rip/Johann Sebastian Bach - (2000) Trio Sonatas - FLAC/16 (BWV 530) Trio Sonata in G - 1 - Vivace.flac
Pre-gap length : 00:07:50
Track gain : 4.10 dB
Peak : 0.489166
CRC32 hash (test run) : 24ECE436
CRC32 hash : 24ECE436
CRC32 hash (skip zero) : 317CA5B7
AccurateRip v1 signature : 3E219467
AccurateRip v2 signature : C1A09C49
->Accurately ripped (v1+v2, confidence 5+2/7)
Statistics
Read error : 0
Jitter error (maybe fixed) : 0
Retry sector count : 0
Damaged sector count : 0

Track 17
Filename : /Users/pythagoras/Documents/rip/Johann Sebastian Bach - (2000) Trio Sonatas - FLAC/17 (BWV 530) Trio Sonata in G - 2 - Lente.flac
Track gain : 8.00 dB
Peak : 0.307281
CRC32 hash (test run) : 86273BAC
CRC32 hash : 86273BAC
CRC32 hash (skip zero) : 12225BF1
AccurateRip v1 signature : BC897B6A
AccurateRip v2 signature : F2302A53
->Accurately ripped (v1+v2, confidence 4+2/6)
Statistics
Read error : 0
Jitter error (maybe fixed) : 0
Retry sector count : 0
Damaged sector count : 0

Track 18
Filename : /Users/pythagoras/Documents/rip/Johann Sebastian Bach - (2000) Trio Sonatas - FLAC/18 (BWV 530) Trio Sonata in G - 3 - Allegro.flac
Track gain : 3.84 dB
Peak : 0.517731
CRC32 hash (test run) : 2539813E
CRC32 hash : 2539813E
CRC32 hash (skip zero) : 1E0D8575
AccurateRip v1 signature : 74DFCD40
AccurateRip v2 signature : 58085634
->Accurately ripped (v1+v2, confidence 5+2/7)
Statistics
Read error : 0
Jitter error (maybe fixed) : 0
Retry sector count : 0
Damaged sector count : 0
No errors occurred

End of status report

––-BEGIN XLD SIGNATURE––-
_7Kdp7vpEawdfVs4Lg1Q0dlpy25ymAtfxzZTAfBbkNsBbFycXLkxmZxQTaN7ptjpf_Vx7YzByOxPjmplUKicwyS_Dw.k_hMO9Hp1Q8i

––-END XLD SIGNATURE––-

[CUETools log; Date: 05.03.2017 10:40:25; Version: 2.1.5]
[CTDB TOCID: wIYPiEoFTcx0lSPVugHFhU0QalI-] found.
Track | CTDB Status
1 | (5/5) Accurately ripped
2 | (5/5) Accurately ripped
3 | (5/5) Accurately ripped
4 | (5/5) Accurately ripped
5 | (5/5) Accurately ripped
6 | (5/5) Accurately ripped
7 | (5/5) Accurately ripped
8 | (5/5) Accurately ripped
9 | (5/5) Accurately ripped
10 | (5/5) Accurately ripped
11 | (5/5) Accurately ripped
12 | (5/5) Accurately ripped
13 | (5/5) Accurately ripped
14 | (5/5) Accurately ripped
15 | (5/5) Accurately ripped
16 | (5/5) Accurately ripped
17 | (5/5) Accurately ripped
18 | (5/5) Accurately ripped
[AccurateRip ID: 002ed0bf-026f5ae1-0e110512] found.
Track [ CRC | V2 ] Status
01 [d1fe39be|42a31043] (4+2/6) Accurately ripped
02 [b8ab8337|c19e75e3] (4+2/6) Accurately ripped
03 [04fa4a0a|9d3aa816] (4+2/6) Accurately ripped
04 [316563b0|3cbd7657] (5+2/7) Accurately ripped
05 [90ccceb8|55c6b58e] (5+2/7) Accurately ripped
06 [dc8fca3c|ec150075] (5+2/7) Accurately ripped
07 [9d7509ae|aa84ba8f] (5+2/7) Accurately ripped
08 [0dfd185f|01ef7dad] (5+2/7) Accurately ripped
09 [4883dbc6|0f6d7427] (5+2/7) Accurately ripped
10 [31969250|be60371a] (5+2/7) Accurately ripped
11 [4b19eef1|5e23a949] (4+2/6) Accurately ripped
12 [4edc575f|5196b92a] (5+2/7) Accurately ripped
13 [01e7f25b|f261b68d] (5+2/7) Accurately ripped
14 [9ae9ed95|aff72b67] (5+2/7) Accurately ripped
15 [c9fefb7c|41689da9] (5+2/7) Accurately ripped
16 [3e219467|c1a09c49] (5+2/7) Accurately ripped
17 [bc897b6a|f2302a53] (4+2/6) Accurately ripped
18 [74dfcd40|58085634] (5+2/7) Accurately ripped

Track Peak [ CRC32 ] [W/O NULL]
– 53,0 [5580FFE3] [06F0A45F]
01 45,4 [40A5FB8D] [E721F16D]
02 33,0 [F4271DD0] [36B966B3]
03 53,0 [D5DAD345] [05EE7B7F]
04 53,0 [1A3FB59D] [77631294]
05 33,6 [42E5D28F] [767BD46E]
06 53,0 [B65F11E6] [EE5F6F7D]
07 47,4 [94EC6AEC] [759E8F64]
08 40,3 [1AACE865] [88137B92]
09 49,4 [66F27175] [F8269C64]
10 44,2 [E91DCA5F] [6A7CF403]
11 40,2 [9336B0A7] [A06705CD]
12 40,0 [E10F367B] [CEB63AB7]
13 37,0 [8D7C81C1] [43819A4A]
14 34,0 [8B6FCF6A] [7543537C]
15 37,4 [97E0F7A3] [68200633]
16 48,9 [24ECE436] [317CA5B7]
17 30,7 [86273BAC] [12225BF1]
18 51,7 [2539813E] [1E0D8575]

The Purcell Quartet - J.S. Bach: Trio Sonatas (2000) (Repost)

Thanks to the Original ripper (unknown)!

Download: