Subcategories

The Rolling Stones - Exile On Main St (1972) [1986, CBS 450196 2]

Posted By: v3122
The Rolling Stones - Exile On Main St (1972) [1986, CBS 450196 2]

The Rolling Stones - Exile On Main St (1972)
EAC | Flac(Image) + Cue + Log & MP3 CBR 320Kbps
CBS, 450196 2 | ~ 426 or 178 Mb | Scans Included
Classic Rock

Greeted with decidedly mixed reviews upon its original release, Exile on Main St. has become generally regarded as the Rolling Stones' finest album. Part of the reason why the record was initially greeted with hesitant reviews is that it takes a while to assimilate. A sprawling, weary double album encompassing rock & roll, blues, soul, and country, Exile doesn't try anything new on the surface, but the substance is new. Taking the bleakness that underpinned Let It Bleed and Sticky Fingers to an extreme, Exile is a weary record, and not just lyrically. Jagger's vocals are buried in the mix, and the music is a series of dark, dense jams, with Keith Richards and Mick Taylor spinning off incredible riffs and solos. And the songs continue the breakthroughs of their three previous albums. No longer does their country sound forced or kitschy – it's lived-in and complex, just like the group's forays into soul and gospel. While the songs, including the masterpieces "Rocks Off," "Tumbling Dice," "Torn and Frayed," "Happy," "Let It Loose," and "Shine a Light," are all terrific, they blend together, with only certain lyrics and guitar lines emerging from the murk. It's the kind of record that's gripping on the very first listen, but each subsequent listen reveals something new. Few other albums, let alone double albums, have been so rich and masterful as Exile on Main St., and it stands not only as one of the Stones' best records, but sets a remarkably high standard for all of hard rock.

by Stephen Thomas Erlewine, AMG
The Rolling Stones - Exile On Main St (1972):

The Rolling Stones - Exile On Main St (1972) [1986, CBS 450196 2]

Tracklist:

1. Rocks Off (4:30)
2. Rip This Joint (2:23)
3. Shake Your Hips (2:57)
4. CasinoBoogie (3:31)
5. Tumbling Dice (3:42)
6. Sweet Virginia (4:26)
7. Torn And Frayed (4:16)
8. Sweet Black Angel (2:52)
9. Loving Cup (4:22)
10. Happy (3:02)
11. Turd On The Run (2:35)
12. Ventilator Blues (3:25)
13. I Just Want To See His Face (2:52)
14. Let It Loose (5:16)
15. All Down The Line (3:47)
16. Stop Breaking Down (4:34)
17. Shine A Light (4:15)
18. Soul Survivor (3:47)

Musicians:

Mick Jagger – lead vocals, harmonica, guitar on "Tumbling Dice" and "Stop Breaking Down", percussion
Keith Richards –guitars, backing vocals, lead vocals on "Happy" and "Soul Survivor", piano on "I Just Want to bass guitar on "Casino Boogie", "Happy" and "Soul Survivor"
Mick Taylor – guitars, slide guitar, backing vocals, bass guitar on "Tumbling Dice", "Torn and Frayed", "I Just Want to See His Face" and "Shine a Light"
Charlie Watts – drums
Bill Wyman – bass guitar

Additional musicians:
Nicky Hopkins – piano
Bobby Keys – saxophone and percussion
Jim Price – trumpet, trombone, organ on "Torn and Frayed"
Jan Stewart – piano on "Shake Your Hips", "Sweet Virginia" and "Stop Breaking Down"
Jimmy Miller – drums on "Happy" and "Shine a Light", percussion on "Sweet Black Angel", "Loving Cup", "I Just Want to See His Face" and "All Down the Line"
Bill Plummer – upright bass on "Rip This Joint", "Turd on the Run", "I Just Want to See His Face" and "All Down the Line"
Billy Preston – piano and organ on "Shine a Light"
Al Perkins – pedal steel guitar on "Torn and Frayed"
Richard Washington – marimba on "Sweet Black Angel"
Clydie King, Vanetta Fields – backing vocals on "Tumbling Dice", "I Just Want to See His Face", "Let It Loose" and "Shine a Light"
Joe Green – backing vocals on "Let It Loose" and "Shine a Light"
Jerry Kirkland – backing vocals on "I Just Want to See His Face" and "Shine a Light"
Mac Rebennack, Shirley Goodman, Tami Lynn – backing vocals on "Let It Loose"
Kathi McDonald – backing vocals on "All Down the Line"
Lisa Fischer, Cindy Mizelle – backing vocals on bonus tracks
David Campbell – string arrangement on "Following the River"


Exact Audio Copy V1.0 beta 3 from 29. August 2011

EAC extraction logfile from 12. March 2013, 15:35

The Rolling Stones / Exile On Main St [CBS]

Used drive : HL-DT-STDVD+-RW GH50N Adapter: 0 ID: 1

Read mode : Secure
Utilize accurate stream : Yes
Defeat audio cache : Yes
Make use of C2 pointers : No

Read offset correction : 667
Overread into Lead-In and Lead-Out : No
Fill up missing offset samples with silence : Yes
Delete leading and trailing silent blocks : No
Null samples used in CRC calculations : Yes
Used interface : Native Win32 interface for Win NT & 2000

Used output format : User Defined Encoder
Selected bitrate : 768 kBit/s
Quality : High
Add ID3 tag : No
Command line compressor : C:\Program Files (x86)\Exact Audio Copy\FLAC\FLAC.EXE
Additional command line options : -V -8 -T "Date=%year%" -T "Genre=%genre%" %source%


TOC of the extracted CD

Track | Start | Length | Start sector | End sector
––––––––––––––––––––––––––––-
1 | 0:00.00 | 4:30.25 | 0 | 20274
2 | 4:30.25 | 2:22.50 | 20275 | 30974
3 | 6:53.00 | 2:57.00 | 30975 | 44249
4 | 9:50.00 | 3:31.30 | 44250 | 60104
5 | 13:21.30 | 3:42.37 | 60105 | 76791
6 | 17:03.67 | 4:25.10 | 76792 | 96676
7 | 21:29.02 | 4:16.48 | 96677 | 115924
8 | 25:45.50 | 2:52.15 | 115925 | 128839
9 | 28:37.65 | 4:21.62 | 128840 | 148476
10 | 32:59.52 | 3:02.03 | 148477 | 162129
11 | 36:01.55 | 2:34.70 | 162130 | 173749
12 | 38:36.50 | 3:24.30 | 173750 | 189079
13 | 42:01.05 | 2:51.70 | 189080 | 201974
14 | 44:53.00 | 5:16.55 | 201975 | 225729
15 | 50:09.55 | 3:47.02 | 225730 | 242756
16 | 53:56.57 | 4:34.05 | 242757 | 263311
17 | 58:30.62 | 4:14.35 | 263312 | 282396
18 | 62:45.22 | 3:47.10 | 282397 | 299431


Range status and errors

Selected range

Filename C:\222\CBS\1972 - Exile\The Rolling Stones - Exile On Main St [CBS].wav

Peak level 100.0 %
Extraction speed 3.2 X
Range quality 100.0 %
Test CRC EDCDC7B5
Copy CRC EDCDC7B5
Copy OK

No errors occurred


AccurateRip summary

Track 1 accurately ripped (confidence 17) [A6846A58] (AR v2)
Track 2 accurately ripped (confidence 17) [76A08A09] (AR v2)
Track 3 accurately ripped (confidence 17) [AE7A5896] (AR v2)
Track 4 accurately ripped (confidence 17) [152E6185] (AR v2)
Track 5 accurately ripped (confidence 17) [B433C547] (AR v2)
Track 6 accurately ripped (confidence 17) [0D095E97] (AR v2)
Track 7 accurately ripped (confidence 17) [C56C0D90] (AR v2)
Track 8 accurately ripped (confidence 17) [49EA88BE] (AR v2)
Track 9 accurately ripped (confidence 17) [CC3036D4] (AR v2)
Track 10 accurately ripped (confidence 17) [223158D8] (AR v2)
Track 11 accurately ripped (confidence 17) [E63D1464] (AR v2)
Track 12 accurately ripped (confidence 17) [B984BC74] (AR v2)
Track 13 accurately ripped (confidence 17) [AAD7C6A7] (AR v2)
Track 14 accurately ripped (confidence 17) [65BD4524] (AR v2)
Track 15 accurately ripped (confidence 17) [1B10A93B] (AR v2)
Track 16 accurately ripped (confidence 17) [C5111A05] (AR v2)
Track 17 accurately ripped (confidence 17) [1D73B3DD] (AR v2)
Track 18 accurately ripped (confidence 17) [12C6C6D4] (AR v2)

All tracks accurately ripped

End of status report

==== Log checksum 0427190A437754AAFF36DC40CBDCA3C7D3BD76E107E19123F12158C1225E5F64 ====

foobar2000 1.2.9 / Dynamic Range Meter 1.1.1
log date: 2015-02-18 17:20:45

––––––––––––––––––––––––––––––––––––––––
Analyzed: The Rolling Stones / Exile On Main St [CBS]
––––––––––––––––––––––––––––––––––––––––

DR Peak RMS Duration Track
––––––––––––––––––––––––––––––––––––––––
DR11 -0.82 dB -14.70 dB 4:30 01-Rocks Off
DR12 -0.37 dB -14.49 dB 2:23 02-Rip This Joint
DR12 -3.14 dB -16.81 dB 2:57 03-Shake Your Hips
DR13 -0.07 dB -16.07 dB 3:31 04-CasinoBoogie
DR12 -0.81 dB -15.10 dB 3:42 05-Tumbling Dice
DR14 -0.64 dB -17.86 dB 4:25 06-Sweet Virginia
DR13 0.00 dB -15.06 dB 4:17 07-Torn And Frayed
DR13 -2.28 dB -17.07 dB 2:52 08-Sweet Black Angel
DR13 0.00 dB -15.91 dB 4:22 09-Loving Cup
DR13 0.00 dB -15.12 dB 3:02 10-Happy
DR10 -1.82 dB -14.58 dB 2:35 11-Turd On The Run
DR12 -0.93 dB -15.72 dB 3:24 12-Ventilator Blues
DR13 -3.34 dB -19.35 dB 2:52 13-I Just Want To See His Face
DR13 0.00 dB -16.22 dB 5:17 14-Let It Loose
DR13 -0.49 dB -15.18 dB 3:47 15-All Down The Line
DR12 0.00 dB -14.47 dB 4:34 16-Stop Breaking Down
DR14 -2.16 dB -19.72 dB 4:14 17-Shine A Light
DR12 -0.40 dB -14.54 dB 3:47 18-Soul Survivor
––––––––––––––––––––––––––––––––––––––––

Number of tracks: 18
Official DR value: DR12

Samplerate: 44100 Hz
Channels: 2
Bits per sample: 16
Bitrate: 828 kbps
Codec: FLAC

[CUETools log; Date: 14.01.2014 22:19:25; Version: 2.1.5]
[CTDB TOCID: lS_2mWymhMbJYG59qvWSeVM0SgA-] found.
Track | CTDB Status
1 | (64/64) Accurately ripped
2 | (64/64) Accurately ripped
3 | (64/64) Accurately ripped
4 | (64/64) Accurately ripped
5 | (64/64) Accurately ripped
6 | (64/64) Accurately ripped
7 | (64/64) Accurately ripped
8 | (64/64) Accurately ripped
9 | (64/64) Accurately ripped
10 | (64/64) Accurately ripped
11 | (63/64) Accurately ripped
12 | (64/64) Accurately ripped
13 | (64/64) Accurately ripped
14 | (64/64) Accurately ripped
15 | (64/64) Accurately ripped
16 | (64/64) Accurately ripped
17 | (62/64) Accurately ripped
18 | (64/64) Accurately ripped
[AccurateRip ID: 002a287f-02347826-f00f9812] found.
Track [ CRC | V2 ] Status
01 [d36e399b|a6846a58] (094+058/214) Accurately ripped
02 [f1e053c2|76a08a09] (099+059/220) Accurately ripped
03 [c2131501|ae7a5896] (099+059/219) Accurately ripped
04 [5320ebe5|152e6185] (097+060/216) Accurately ripped
05 [61fee09f|b433c547] (097+060/218) Accurately ripped
06 [071a6012|0d095e97] (098+060/216) Accurately ripped
07 [49ada491|c56c0d90] (097+060/217) Accurately ripped
08 [c0e18e7a|49ea88be] (099+060/218) Accurately ripped
09 [72855cdb|cc3036d4] (098+060/218) Accurately ripped
10 [f00f2a73|223158d8] (095+060/215) Accurately ripped
11 [167abf42|e63d1464] (096+060/217) Accurately ripped
12 [8e33ff37|b984bc74] (096+060/217) Accurately ripped
13 [e7866408|aad7c6a7] (095+060/216) Accurately ripped
14 [182560ea|65bd4524] (096+060/215) Accurately ripped
15 [1f07348e|1b10a93b] (097+060/220) Accurately ripped
16 [6b303255|c5111a05] (095+060/214) Accurately ripped
17 [bd266c8c|1d73b3dd] (095+060/214) Accurately ripped
18 [b80e1886|12c6c6d4] (097+059/213) Accurately ripped
Offsetted by -1262:
01 [748fc5fa] (002/214) Accurately ripped
02 [00eed63e] (002/220) Accurately ripped
03 [f1a2bc39] (002/219) Accurately ripped
04 [f4f78aa1] (002/216) Accurately ripped
05 [402b0532] (002/218) Accurately ripped
06 [64797d52] (002/216) Accurately ripped
07 [91102c94] (002/217) Accurately ripped
08 [30aeeca6] (002/218) Accurately ripped
09 [d9aa86fc] (002/218) Accurately ripped
10 [26eae7f2] (002/215) Accurately ripped
11 [cb298971] (002/217) Accurately ripped
12 [321e0e66] (002/217) Accurately ripped
13 [716e1adf] (002/216) Accurately ripped
14 [4848eabe] (002/215) Accurately ripped
15 [dfc1d5e0] (002/220) Accurately ripped
16 [5549c25e] (002/214) Accurately ripped
17 [e2b03dc6] (002/214) Accurately ripped
18 [6974550b] (002/213) Accurately ripped
Offsetted by -247:
01 [8d9d9615] (006/214) Accurately ripped
02 [4fa1f60d] (006/220) Accurately ripped
03 [8e01d90a] (006/219) Accurately ripped
04 [1f1163b5] (006/216) Accurately ripped
05 [2d14b88a] (006/218) Accurately ripped
06 [ef9e9cbf] (006/216) Accurately ripped
07 [0d48f501] (006/217) Accurately ripped
08 [5c6afca9] (006/218) Accurately ripped
09 [17669ffb] (006/218) Accurately ripped
10 [88e0260c] (006/215) Accurately ripped
11 [b05dcc3a] (006/217) Accurately ripped
12 [71a282b0] (006/217) Accurately ripped
13 [711b8e23] (006/216) Accurately ripped
14 [5358e421] (005/215) Accurately ripped
15 [70e32bcf] (007/220) Accurately ripped
16 [f3aa14b5] (006/214) Accurately ripped
17 [4ee94f50] (006/214) Accurately ripped
18 [c2363d5e] (006/213) Accurately ripped
Offsetted by -221:
01 [ee434830] (032/214) Accurately ripped
02 [53623452] (032/220) Accurately ripped
03 [d38ffb2a] (032/219) Accurately ripped
04 [a610f451] (031/216) Accurately ripped
05 [e3fd5108] (031/218) Accurately ripped
06 [d2383921] (031/216) Accurately ripped
07 [246a4990] (031/217) Accurately ripped
08 [189c97dc] (030/218) Accurately ripped
09 [14639e67] (031/218) Accurately ripped
10 [692b2928] (030/215) Accurately ripped
11 [66c39965] (032/217) Accurately ripped
12 [9ce86dde] (032/217) Accurately ripped
13 [c3871297] (032/216) Accurately ripped
14 [d2712578] (032/215) Accurately ripped
15 [7cf70ba7] (032/220) Accurately ripped
16 [3cff0b40] (030/214) Accurately ripped
17 [44af4fe1] (031/214) Accurately ripped
18 [3924a094] (029/213) Accurately ripped
Offsetted by -1292:
01 [f6380ce6] (000/214) No match (V2 was not tested)
02 [aeabcae2] (000/220) No match (V2 was not tested)
03 [66fa9785] (000/219) No match (V2 was not tested)
04 [d617bf1c] (000/216) No match (V2 was not tested)
05 [20917ad1] (000/218) No match (V2 was not tested)
06 [e1b7ecc4] (000/216) No match (V2 was not tested)
07 [548f9f84] (000/217) No match (V2 was not tested)
08 [85241c12] (000/218) No match (V2 was not tested)
09 [da7dc48a] (000/218) No match (V2 was not tested)
10 [1a620e1d] (000/215) No match (V2 was not tested)
11 [b7f4b993] (000/217) No match (V2 was not tested)
12 [63b9099e] (000/217) No match (V2 was not tested)
13 [aa7e33e5] (000/216) No match (V2 was not tested)
14 [79fa912f] (000/215) No match (V2 was not tested)
15 [3077e5c6] (000/220) No match (V2 was not tested)
16 [7b9f6c76] (000/214) No match (V2 was not tested)
17 [aab4de02] (000/214) No match (V2 was not tested)
18 [f2485403] (000/213) No match (V2 was not tested)
Offsetted by 4:
01 [5ae57584] (000/214) No match
02 [00dbcf27] (000/220) No match (V2 was not tested)
03 [3495f954] (000/219) No match
04 [99107644] (000/216) No match
05 [b8d856e3] (000/218) No match
06 [6817787d] (000/216) No match
07 [15c5eb89] (000/217) No match
08 [d2b1297f] (000/218) No match
09 [4a21a8d7] (000/218) No match
10 [aa128287] (000/215) No match
11 [5ecc84c5] (000/217) No match
12 [565ef51e] (000/217) No match
13 [405c35ca] (000/216) No match
14 [3f6b0412] (000/215) No match
15 [062ed02d] (000/220) No match
16 [71da4137] (000/214) No match
17 [353222d8] (000/214) No match
18 [8fc038d1] (000/213) No match
Offsetted by 82:
01 [18854b11] (000/214) No match (V2 was not tested)
02 [9c4d1e8e] (000/220) No match
03 [3de663b2] (000/219) No match
04 [4517daff] (000/216) No match
05 [d704d8c0] (000/218) No match
06 [6e5b2d59] (000/216) No match
07 [565ee2a5] (000/217) No match
08 [6aca6d3c] (000/218) No match
09 [31676712] (000/218) No match
10 [a499eccd] (000/215) No match
11 [1f2b2ff4] (000/217) No match
12 [09b7b58d] (000/217) No match
13 [1eb25127] (000/216) No match
14 [b6e86641] (000/215) No match
15 [927ac1e8] (000/220) No match
16 [024e01e4] (000/214) No match
17 [2c4dbfca] (000/214) No match
18 [fcf625f9] (000/213) No match
Offsetted by 292:
01 [10d47091] (000/214) No match
02 [95107623] (000/220) No match
03 [2d1399b0] (000/219) No match
04 [ae1b1dd8] (000/216) No match
05 [0db80d86] (000/218) No match
06 [ebdbfec5] (000/216) No match
07 [26298e16] (000/217) No match
08 [3ccf2352] (000/218) No match
09 [a661349f] (000/218) No match
10 [f1b19ba4] (000/215) No match
11 [e2b47717] (000/217) No match
12 [b1d5a01e] (000/217) No match
13 [4bf5cfb6] (000/216) No match
14 [0c3c6953] (000/215) No match
15 [cdc322f8] (000/220) No match
16 [6c869378] (000/214) No match
17 [396e4653] (000/214) No match (V2 was not tested)
18 [2c8fcfa2] (000/213) No match
Offsetted by 472:
01 [275623ec] (000/214) No match
02 [95123b34] (000/220) No match
03 [1cedbd04] (000/219) No match (V2 was not tested)
04 [63fc0fb7] (000/216) No match (V2 was not tested)
05 [03cbab8b] (000/218) No match (V2 was not tested)
06 [30e84c3e] (000/216) No match (V2 was not tested)
07 [bbf4a0e6] (000/217) No match (V2 was not tested)
08 [70c16478] (000/218) No match (V2 was not tested)
09 [35145500] (000/218) No match (V2 was not tested)
10 [b7704289] (000/215) No match (V2 was not tested)
11 [a153a296] (000/217) No match (V2 was not tested)
12 [4394bb66] (000/217) No match (V2 was not tested)
13 [8165d982] (000/216) No match (V2 was not tested)
14 [d7e0478f] (000/215) No match (V2 was not tested)
15 [9d8e0d92] (000/220) No match (V2 was not tested)
16 [17d00fdb] (000/214) No match (V2 was not tested)
17 [9a02bce7] (000/214) No match
18 [d7386a69] (000/213) No match (V2 was not tested)

Track Peak [ CRC32 ] [W/O NULL] [ LOG ]
– 100,0 [EDCDC7B5] [9A93A869] CRC32
01 91,0 [B79CBD53] [734B67BE]
02 95,8 [0DD974F8] [1D6E718C]
03 69,6 [C67967D6] [D390DB6B]
04 99,1 [B0449498] [966C01AC]
05 91,1 [6013E21E] [B65B975F]
06 92,9 [9B101025] [1305FC7D]
07 100,0 [9F55E57D] [9DC014C4]
08 76,9 [50614BA3] [0018A189]
09 100,0 [FE527078] [1D9EB04E]
10 100,0 [FB507BB1] [7640F1C7]
11 81,1 [0B438A16] [99340F97]
12 89,8 [4B524E81] [7DA8A38C]
13 68,0 [25DD9B50] [DDBDF2D7]
14 100,0 [43E272AF] [EEBE330D]
15 94,4 [D5FA893B] [4559DE01]
16 100,0 [3ECB3366] [44899974]
17 77,9 [A3326625] [D921BC13]
18 95,5 [AFA78474] [71308DED]

The Rolling Stones - Exile On Main St (1972) [1986, CBS 450196 2]

All thanks go to Ironbelly

Download The Rolling Stones - Exile On Main St (1972):