Subcategories

The Rolling Stones - The Rolling Stones No. 2 (1965) [Polydor P25L 25033, Japan]

Posted By: v3122
The Rolling Stones - The Rolling Stones No. 2 (1965) [Polydor P25L 25033, Japan]

The Rolling Stones - The Rolling Stones No. 2 (1965)
EAC | Flac(Image) + Cue + Log & MP3 CBR 320Kbps
1989 | Polydor, P25L 25033 | ~ 201 or 103 Mb | Scans Included
Blues Rock / Classic Rock / Rock & Roll

The group's second British album actually appeared after their second U.S. LP, mostly owing to the fact that the British rock & roll audience wasn't focused on the long-player as a medium (singles and EPs were the driving force of the business in England then). It uses the same David Bailey cover shot that had graced the U.S.-issued 12 X 5 album two and a half months earlier, but only four songs – "Under the Boardwalk," "Suzie Q," "Grown Up Wrong," and "Time Is on My Side" – overlap on the two albums. Rather, Rolling Stones No. 2 offered seven songs that weren't to make it out in America until four months later on The Rolling Stones Now!, and they're all solid numbers: "Off the Hook," "Everybody Needs Somebody to Love," "Down Home Girl," "You Can't Catch Me," "What a Shame," "Pain in My Heart," and "Down the Road Apiece," plus one of the group's best blues covers, their version of Muddy Waters' "I Can't Be Satisfied," which wasn't released in America until 1973 and features some killer slide playing by Brian Jones. The U.K. LP also had the advantage of only being released in mono, so there are no "rechanneled stereo" copies with which to concern oneself.

by Bruce Eder, AMG
The Rolling Stones - The Rolling Stones No. 2 (1965):

The Rolling Stones - The Rolling Stones No. 2 (1965) [Polydor P25L 25033, Japan]

Tracklist:

1. Everybody Needs Somebody To Love (5:07)
2. Down Home Girl (4:17)
3. You Can't Catch Me (3:38)
4. Time Is On My Side (3:00)
5. What A Shame (3:09)
6. Grown Up Wrong (2:08)
7. Down The Road Apiece (3:00)
8. Under The Boardwalk (2:50)
9. I Can't Be Satisfied (3:31)
10. Pain In My Heart (2:14)
11. Off The Hook (2:37)
12. Suzie Q (1:54)

Musicians:

Mick Jagger – lead vocals, harmonica, tambourine, percussion
Keith Richards – guitars, backing vocals
Brian Jones – guitar, slide guitar, backing vocals
Charlie Watts – drums and percussion
Bill Wyman – bass guitar, backing vocals

Additional musicians:
Jack Nitzsche – piano, 'Nitzsche' phone, tambourine
Ian Stewart – piano
David Thomson - Backing vocals on 'Off The Hook'


Exact Audio Copy V1.0 beta 3 from 29. August 2011

EAC extraction logfile from 7. April 2014, 17:38

The Rolling Stones / The Rolling Stones No2 [P25L 25033]

Used drive : HL-DT-STDVD+-RW GH50N Adapter: 0 ID: 1

Read mode : Secure
Utilize accurate stream : Yes
Defeat audio cache : Yes
Make use of C2 pointers : No

Read offset correction : 667
Overread into Lead-In and Lead-Out : No
Fill up missing offset samples with silence : Yes
Delete leading and trailing silent blocks : No
Null samples used in CRC calculations : Yes
Used interface : Native Win32 interface for Win NT & 2000

Used output format : User Defined Encoder
Selected bitrate : 768 kBit/s
Quality : High
Add ID3 tag : No
Command line compressor : C:\Program Files (x86)\Exact Audio Copy\FLAC\FLAC.EXE
Additional command line options : -V -8 -T "Date=%year%" -T "Genre=%genre%" %source%


TOC of the extracted CD

Track | Start | Length | Start sector | End sector
––––––––––––––––––––––––––––-
1 | 0:00.37 | 5:07.00 | 37 | 23061
2 | 5:07.37 | 4:16.38 | 23062 | 42299
3 | 9:24.00 | 3:38.37 | 42300 | 58686
4 | 13:02.37 | 3:00.00 | 58687 | 72186
5 | 16:02.37 | 3:08.50 | 72187 | 86336
6 | 19:11.12 | 2:08.25 | 86337 | 95961
7 | 21:19.37 | 2:59.50 | 95962 | 109436
8 | 24:19.12 | 2:50.25 | 109437 | 122211
9 | 27:09.37 | 3:30.38 | 122212 | 137999
10 | 30:40.00 | 2:14.00 | 138000 | 148049
11 | 32:54.00 | 2:37.37 | 148050 | 159861
12 | 35:31.37 | 1:53.38 | 159862 | 168374


Range status and errors

Selected range

Filename C:\222\London\Japan\1965 - No2\The Rolling Stones - The Rolling Stones No2 [P25L 25033].wav

Peak level 97.6 %
Extraction speed 2.8 X
Range quality 99.9 %
Test CRC 9A5A43C1
Copy CRC 9A5A43C1
Copy OK

No errors occurred


AccurateRip summary

Track 1 accurately ripped (confidence 8) [D3DECA0B] (AR v2)
Track 2 accurately ripped (confidence 8) [3A743448] (AR v2)
Track 3 accurately ripped (confidence 8) [5326CA99] (AR v2)
Track 4 accurately ripped (confidence 8) [C6C5CB46] (AR v2)
Track 5 accurately ripped (confidence 8) [7C8ABDE4] (AR v2)
Track 6 accurately ripped (confidence 8) [1C41CE0A] (AR v2)
Track 7 accurately ripped (confidence 8) [1422FAF1] (AR v2)
Track 8 accurately ripped (confidence 8) [2D570C94] (AR v2)
Track 9 accurately ripped (confidence 8) [C29672D5] (AR v2)
Track 10 accurately ripped (confidence 8) [747C4C24] (AR v2)
Track 11 accurately ripped (confidence 8) [6121DDA7] (AR v2)
Track 12 accurately ripped (confidence 8) [DAB5CA19] (AR v2)

All tracks accurately ripped

End of status report

foobar2000 1.2.9 / Dynamic Range Meter 1.1.1
log date: 2015-01-30 20:23:21

––––––––––––––––––––––––––––––––––––––––
Analyzed: The Rolling Stones / The Rolling Stones No2 [P25L 25033]
––––––––––––––––––––––––––––––––––––––––

DR Peak RMS Duration Track
––––––––––––––––––––––––––––––––––––––––
DR11 -0.21 dB -12.38 dB 5:07 01-Everybody Needs Somebody To Love
DR11 -0.74 dB -13.68 dB 4:17 02-Down Home Girl
DR11 -1.79 dB -15.53 dB 3:38 03-You Can't Catch Me
DR11 -2.40 dB -16.37 dB 3:00 04-Time Is On My Side
DR11 -2.95 dB -17.29 dB 3:09 05-What A Shame
DR11 -3.18 dB -16.76 dB 2:08 06-Grown Up Wrong
DR10 -2.95 dB -16.91 dB 3:00 07-Down The Road Apiece
DR10 -4.52 dB -16.75 dB 2:50 08-Under The Boardwalk
DR12 -4.00 dB -18.74 dB 3:31 09-I Can't Be Satisfied
DR12 -0.28 dB -14.28 dB 2:14 10-Pain In My Heart
DR13 -3.69 dB -19.03 dB 2:37 11-Off The Hook
DR11 -3.49 dB -16.10 dB 1:54 12-Suzie Q
––––––––––––––––––––––––––––––––––––––––

Number of tracks: 12
Official DR value: DR11

Samplerate: 44100 Hz
Channels: 2
Bits per sample: 16
Bitrate: 694 kbps
Codec: FLAC

[CUETools log; Date: 13.05.2014 18:27:47; Version: 2.1.5]
Pregap length 00:00:37.
[CTDB TOCID: Img2EyJGnblKl79eEy3Uy7rt7uQ-] found.
Track | CTDB Status
1 | (1/1) Accurately ripped
2 | (1/1) Accurately ripped
3 | (1/1) Accurately ripped
4 | (1/1) Accurately ripped
5 | (1/1) Accurately ripped
6 | (1/1) Accurately ripped
7 | (1/1) Accurately ripped
8 | (1/1) Accurately ripped
9 | (1/1) Accurately ripped
10 | (1/1) Accurately ripped
11 | (1/1) Accurately ripped
12 | (1/1) Accurately ripped
[AccurateRip ID: 0012af3c-00a89ac9-a108c50c] found.
Track [ CRC | V2 ] Status
01 [3d743907|d3deca0b] (02+08/12) Accurately ripped
02 [953f5195|3a743448] (02+08/12) Accurately ripped
03 [9a5dead7|5326ca99] (02+08/12) Accurately ripped
04 [05fa8628|c6c5cb46] (02+08/12) Accurately ripped
05 [f1967c36|7c8abde4] (02+08/12) Accurately ripped
06 [cc0738d4|1c41ce0a] (02+08/12) Accurately ripped
07 [dc81c6af|1422faf1] (02+08/12) Accurately ripped
08 [3c260fce|2d570c94] (02+08/12) Accurately ripped
09 [aabf9d0d|c29672d5] (02+08/12) Accurately ripped
10 [73734634|747c4c24] (02+08/12) Accurately ripped
11 [d96bdee5|6121dda7] (02+08/12) Accurately ripped
12 [49946ef2|dab5ca19] (02+08/12) Accurately ripped
Offsetted by -1134:
01 [6b827165] (02/12) Accurately ripped
02 [4b2e5ce9] (02/12) Accurately ripped
03 [f20d947d] (02/12) Accurately ripped
04 [cfd49988] (02/12) Accurately ripped
05 [1b07d0cc] (02/12) Accurately ripped
06 [cfb16b72] (02/12) Accurately ripped
07 [f896eaa5] (02/12) Accurately ripped
08 [4192d6c2] (02/12) Accurately ripped
09 [d88c9d73] (02/12) Accurately ripped
10 [02c0283c] (02/12) Accurately ripped
11 [445b7b69] (02/12) Accurately ripped
12 [d424c2ac] (02/12) Accurately ripped

Track Peak [ CRC32 ] [W/O NULL] [ LOG ]
– 97,6 [9A5A43C1] [53545349] CRC32
01 97,6 [6EBE310E] [36146150]
02 91,7 [77A2A770] [6E238BC6]
03 81,3 [2D9A8DCF] [94E1AE9C]
04 75,8 [07E46185] [F8A84011]
05 71,2 [3427B990] [804AB28A]
06 69,3 [79A3F56F] [071CC342]
07 71,2 [35E92D2F] [D253CBBA]
08 59,4 [8D09AD5B] [DC85F230]
09 63,1 [E0F3B1D9] [A8F90541]
10 96,7 [F09BDE28] [CAD0A790]
11 65,3 [1B7DDCDB] [F552A364]
12 66,8 [5BB120E6] [201869BF]

The Rolling Stones - The Rolling Stones No. 2 (1965) [Polydor P25L 25033, Japan]

All thanks go to Ironbelly