Subcategories

The Rolling Stones - Original Master Recordings Box Set (1984) [Vinyl Rip 16/44 & mp3-320]

Posted By: v3122
The Rolling Stones - Original Master Recordings Box Set (1984) [Vinyl Rip 16/44 & mp3-320]

The Rolling Stones - Original Master Recordings Box Set (1984)
11 x Vinyl Rip 16/44 | Flac(Image + Cue) > 3080 Mb
MP3 CBR 320Kbps > 1232 Mb | Artwork(jpg) > 172 Mb
Mobile Fidelity Sound Lab, RC-1 | Remastered
Pop Rock, Country Rock, Psychedelic Rock, Rock & Roll, Blues Rock, Rhythm & Blues

The Rolling Stones Collection was originally released in October 1984 (only 10,000 sets were pressed). This "Limited Edition Library of Original Master Recordings" transferred direct from the original 1963 to 1969 master recording tapes, includes a softcover book that reproduces The Rolling Stones original album cover graphics (front and back), a Geo-Disc cartridge alignment platter and a color, four page folded leaflet with band photo and information about the Collection. The LPs are in the original inner sleeves, the jackets are glossy red with black lettering.

Mobile Fidelity's 'Rolling Stones - The Collection' box set is arguably the greatest sounding release of the Rolling Stones albums ever; considerably better than the standard LP or CD releases. All 11 albums in this box set were mastered at half speed from the original master tapes, and pressed onto pure 180 gram high definition super vinyl by JVC, which has an extraordinarily quiet playing surface, extreme durability and a lifespan many times exceeding conventional pressings.

~ musicbrainz.org
The Rolling Stones - Original Master Recordings Box Set (1984):

The Rolling Stones - Original Master Recordings Box Set (1984) [Vinyl Rip 16/44 & mp3-320]

Tracklist VNL01 - The Rolling Stones 1964:

01. A1 Route 66
02. A2 I Just Want To Make Love To You
03. A3 Honest I Do
04. A4 I Need You Baby
05. A5 Now I've Got A Witness
06. A6 Little By Little
07. B1 I'm A King Bee
08. B2 Carol
09. B3 Tell Me
10. B4 Can I Get A Witness
11. B5 You Can Make It If You Try
12. B6 Walking The Dog

foobar2000 1.2.9 / Dynamic Range Meter 1.1.1
log date: 2018-02-09 21:35:38

––––––––––––––––––––––––––––––––––––––––
Analyzed: The Rolling Stones / The Rolling Stones
––––––––––––––––––––––––––––––––––––––––

DR Peak RMS Duration Track
––––––––––––––––––––––––––––––––––––––––
DR8 -0.48 dB -9.84 dB 2:23 01-A1 Route 66
DR8 -0.43 dB -10.34 dB 2:19 02-A2 I Just Want To Make Love To You
DR10 -0.44 dB -12.68 dB 2:11 03-A3 Honest I Do
DR9 -0.44 dB -10.87 dB 3:37 04-A4 I Need You Baby
DR9 -0.33 dB -10.24 dB 2:32 05-A5 Now I've Got A Witness
DR10 -0.45 dB -11.64 dB 2:44 06-A6 Little By Little
DR10 -0.25 dB -11.86 dB 2:38 07-B1 I'm A King Bee
DR9 -0.41 dB -10.90 dB 2:37 08-B2 Carol
DR9 -0.58 dB -11.57 dB 4:09 09-B3 Tell Me
DR9 -0.31 dB -10.51 dB 2:57 10-B4 Can I Get A Witness
DR9 -0.53 dB -12.17 dB 2:03 11-B5 You Can Make It If You Try
DR9 -0.66 dB -11.28 dB 3:15 12-B6 Walking The Dog
––––––––––––––––––––––––––––––––––––––––

Number of tracks: 12
Official DR value: DR9

Samplerate: 44100 Hz
Channels: 2
Bits per sample: 16
Bitrate: 981 kbps
Codec: FLAC
================================================================================



The Rolling Stones - Original Master Recordings Box Set (1984) [Vinyl Rip 16/44 & mp3-320]

Tracklist VNL02 - 12x5 1964:

01. A1 Around And Around
02. A2 Confessin' The Blues
03. A3 Empty Heart
04. A4 Time Is On My Side
05. A5 Good Times, Bad Times
06. A6 It's All Over Now
07. B1 2120 SouthH Michigan Avenue
08. B2 Under The Broadwalk
09. B3 Congratulations
10. B4 Grown Up Wrong
11. B5 If You Need Me
12. B6 Susie Q

foobar2000 1.2.9 / Dynamic Range Meter 1.1.1
log date: 2018-02-09 21:35:52

––––––––––––––––––––––––––––––––––––––––
Analyzed: The Rolling Stones / 12x5
––––––––––––––––––––––––––––––––––––––––

DR Peak RMS Duration Track
––––––––––––––––––––––––––––––––––––––––
DR8 -0.65 dB -10.28 dB 3:11 01-A1 Around And Around
DR8 0.00 dB -10.67 dB 2:51 02-A2 Confessin' The Blues
DR8 0.00 dB -9.90 dB 2:41 03-A3 Empty Heart
DR10 -0.44 dB -11.92 dB 2:55 04-A4 Time Is On My Side
DR12 -0.40 dB -14.78 dB 2:36 05-A5 Good Times, Bad Times
DR8 -0.35 dB -10.32 dB 3:37 06-A6 It's All Over Now
DR9 0.00 dB -10.95 dB 2:12 07-B1 2120 SouthH Michigan Avenue
DR9 -1.07 dB -12.67 dB 2:49 08-B2 Under The Broadwalk
DR9 -0.46 dB -12.06 dB 2:24 09-B3 Congratulations
DR9 -1.06 dB -12.78 dB 2:09 10-B4 Grown Up Wrong
DR8 -0.99 dB -10.61 dB 2:06 11-B5 If You Need Me
DR9 -0.44 dB -12.26 dB 1:57 12-B6 Susie Q
––––––––––––––––––––––––––––––––––––––––

Number of tracks: 12
Official DR value: DR9

Samplerate: 44100 Hz
Channels: 2
Bits per sample: 16
Bitrate: 916 kbps
Codec: FLAC
================================================================================



The Rolling Stones - Original Master Recordings Box Set (1984) [Vinyl Rip 16/44 & mp3-320]

Tracklist VNL03 - Out Of Our Heads 1965:

01. A1 Mercy Mercy
02. A2 Hitch Hike
03. A3 The Last Time
04. A4 That's How Strong My Love Is
05. A5 Good Times
06. A6 I'm All Rigt
07. B1 Satisfaction
08. B2 Cry To Me
09. B3 The Under Assistant West Coast Promotion Man
10. B4 Play With Fire
11. B5 The Spider And The Fly
12. B6 One More Try

foobar2000 1.2.9 / Dynamic Range Meter 1.1.1
log date: 2018-02-09 21:36:06

––––––––––––––––––––––––––––––––––––––––
Analyzed: The Rolling Stones / Out of Our Heads
––––––––––––––––––––––––––––––––––––––––

DR Peak RMS Duration Track
––––––––––––––––––––––––––––––––––––––––
DR10 -0.80 dB -12.05 dB 2:52 01-Mercy, Mercy
DR7 -0.89 dB -9.57 dB 2:27 02-Hitch Hike
DR7 -0.85 dB -9.52 dB 3:43 03-The Last Time
DR10 -0.86 dB -12.60 dB 2:27 04-That’s How Strong My Love Is
DR8 -1.15 dB -10.33 dB 2:02 05-Good Times
DR8 -1.47 dB -11.03 dB 2:27 06-I’m All Right
DR8 -0.75 dB -10.16 dB 3:48 07-(I Can’t Get No) Satisfaction
DR8 -0.61 dB -10.80 dB 3:12 08-Cry to Me
DR10 -1.21 dB -12.04 dB 3:10 09-The Under Assistant West Coast Promotion Man
DR9 -0.64 dB -12.27 dB 2:18 10-Play With Fire
DR11 -0.81 dB -12.98 dB 3:41 11-The Spider and the Fly
DR10 -1.08 dB -12.34 dB 2:02 12-One More Try
––––––––––––––––––––––––––––––––––––––––

Number of tracks: 12
Official DR value: DR9

Samplerate: 44100 Hz
Channels: 2
Bits per sample: 16
Bitrate: 919 kbps
Codec: FLAC
================================================================================



The Rolling Stones - Original Master Recordings Box Set (1984) [Vinyl Rip 16/44 & mp3-320]

Tracklist VNL04 - Aftermath 1966:

01. A1 Mother's Little Helper
02. A2 Studio Girl
03. A3 Lady Jane
04. A4 Under My Thumb
05. A5 Doncha Bother Me
06. A6 Goin' Home
07. B1 Flight 505
08. B2 High And Dry
09. B3 Out Of Time
10. B4 It's Not Easy
11. B5 I Am Waiting
12. B6 Take It Or Leave It
13. B7 Think
14. B8 What To Do

foobar2000 1.2.9 / Dynamic Range Meter 1.1.1
log date: 2018-02-09 21:36:22

––––––––––––––––––––––––––––––––––––––––
Analyzed: The Rolling Stones / Aftermath
––––––––––––––––––––––––––––––––––––––––

DR Peak RMS Duration Track
––––––––––––––––––––––––––––––––––––––––
DR12 -0.99 dB -15.58 dB 2:49 01-Mother’s Little Helper
DR14 -1.17 dB -17.39 dB 3:00 02-Stupid Girl
DR14 -3.81 dB -23.95 dB 3:10 03-Lady Jane
DR14 -3.84 dB -19.71 dB 3:44 04-Under My Thumb
DR13 -3.19 dB -18.79 dB 2:43 05-Doncha Bother Me
DR14 -0.99 dB -18.88 dB 11:17 06-Goin’ Home
DR13 -0.94 dB -15.80 dB 3:32 07-Flight 505
DR13 -3.14 dB -19.52 dB 3:11 08-High and Dry
DR13 -1.17 dB -17.75 dB 5:39 09-Out of Time
DR13 -1.25 dB -16.68 dB 2:59 10-It’s Not Easy
DR14 -1.29 dB -21.12 dB 3:12 11-I Am Waiting
DR14 -3.39 dB -20.74 dB 2:50 12-Take It or Leave It
DR13 -3.60 dB -19.27 dB 3:12 13-Think
DR14 -1.15 dB -16.72 dB 2:34 14-What to Do
––––––––––––––––––––––––––––––––––––––––

Number of tracks: 14
Official DR value: DR13

Samplerate: 44100 Hz
Channels: 2
Bits per sample: 16
Bitrate: 815 kbps
Codec: FLAC
================================================================================



The Rolling Stones - Original Master Recordings Box Set (1984) [Vinyl Rip 16/44 & mp3-320]

Tracklist VNL05 - Between The Buttons 1967:

01. A1 Yesterday' Papers
02. A2 My Obsession
03. A3 Back Street Girl
04. A4 Connection
05. A5 She Smiled Sweetly
06. A6 Cool, Calm And Collected
07. B1 All Sold Out
08. B2 Please Go Home
09. B3 Who's Been Sleeping Here?
10. B4 Complicated
11. B5 Miss Amanda Jones
12. B6 Something Happened To Me Yesterday

foobar2000 1.2.9 / Dynamic Range Meter 1.1.1
log date: 2018-02-09 21:36:34

––––––––––––––––––––––––––––––––––––––––
Analyzed: The Rolling Stones / Between The Buttons
––––––––––––––––––––––––––––––––––––––––

DR Peak RMS Duration Track
––––––––––––––––––––––––––––––––––––––––
DR10 -0.49 dB -13.70 dB 2:08 01-A1 Yesterday' Papers
DR11 -0.86 dB -15.27 dB 3:19 02-A2 My Obsession
DR12 -2.22 dB -18.40 dB 3:27 03-A3 Back Street Girl
DR15 -1.04 dB -18.69 dB 2:09 04-A4 Connection
DR12 -2.06 dB -16.79 dB 2:45 05-A5 She Smiled Sweetly
DR12 -1.03 dB -14.89 dB 4:18 06-A6 Cool, Calm And Collected
DR11 -0.65 dB -15.30 dB 2:19 07-B1 All Sold Out
DR11 -0.99 dB -14.05 dB 3:19 08-B2 Please Go Home
DR12 -0.98 dB -15.01 dB 3:52 09-B3 Who's Been Sleeping Here?
DR13 -1.00 dB -16.76 dB 3:13 10-B4 Complicated
DR11 -0.67 dB -14.69 dB 2:44 11-B5 Miss Amanda Jones
DR12 -0.99 dB -15.14 dB 5:01 12-B6 Something Happened To Me Yesterday
––––––––––––––––––––––––––––––––––––––––

Number of tracks: 12
Official DR value: DR12

Samplerate: 44100 Hz
Channels: 2
Bits per sample: 16
Bitrate: 874 kbps
Codec: FLAC
================================================================================



The Rolling Stones - Original Master Recordings Box Set (1984) [Vinyl Rip 16/44 & mp3-320]

Tracklist VNL06 - Their Satanic Majesties Request 1967:

01. A1 Sing This All Together
02. A2 Citadel
03. A3 In Another Land
04. A4 2000 Man
05. A5 Sing This All Together (See What Happens)
06. B1 She's A Rainbow
07. B2 The Lantern
08. B3 Gomper
09. B4 2000 Light Years From Home
10. B5 On With The Show

foobar2000 1.2.9 / Dynamic Range Meter 1.1.1
log date: 2018-02-09 21:36:51

––––––––––––––––––––––––––––––––––––––––
Analyzed: The Rolling Stones , / Their Satanic Majesties Request
––––––––––––––––––––––––––––––––––––––––

DR Peak RMS Duration Track
––––––––––––––––––––––––––––––––––––––––
DR13 -1.55 dB -17.84 dB 3:48 01-Sing This All Together
DR11 -0.86 dB -14.67 dB 2:51 02-Citadel
DR13 -1.20 dB -17.78 dB 3:15 03-In Another Land
DR10 -0.75 dB -13.17 dB 3:08 04-2000 Man
DR13 -1.23 dB -17.34 dB 8:36 05-Sing This All Together (See What Happens)
DR10 -0.81 dB -13.63 dB 4:36 06-She's A Rainbow
DR12 -0.99 dB -16.04 dB 4:22 07-The Lantern
DR10 -0.61 dB -13.45 dB 5:09 08-Gomper
DR13 -1.41 dB -17.34 dB 4:44 09-2000 Light Years From Home
DR11 -0.90 dB -14.76 dB 3:42 10-On With The Show
––––––––––––––––––––––––––––––––––––––––

Number of tracks: 10
Official DR value: DR12

Samplerate: 44100 Hz
Channels: 2
Bits per sample: 16
Bitrate: 851 kbps
Codec: FLAC
================================================================================



The Rolling Stones - Original Master Recordings Box Set (1984) [Vinyl Rip 16/44 & mp3-320]

Tracklist VNL07 - Beggars Banquet 1968:

01. A1 Sympathy For The Devil
02. A2 No Expectation
03. A3 Dear Doctor
04. A4 Parachute Woman
05. A5 Jig-Saw Puzle
06. B1 Street Fighting Man
07. B2 Prodigal Son
08. B3 Stray Cat Blues
09. B4 Factory Girl
10. B5 Salt Of The Earth

foobar2000 1.2.9 / Dynamic Range Meter 1.1.1
log date: 2018-02-09 21:37:17

––––––––––––––––––––––––––––––––––––––––
Analyzed: The Rolling Stones / Beggars Banquet
––––––––––––––––––––––––––––––––––––––––

DR Peak RMS Duration Track
––––––––––––––––––––––––––––––––––––––––
DR9 -0.87 dB -12.03 dB 6:28 01-Sympathy for the Devil
DR11 -2.24 dB -15.25 dB 4:04 02-No Expectations
DR10 -0.61 dB -12.89 dB 3:29 03-Dear Doctor
DR9 -1.66 dB -13.79 dB 2:26 04-Parachute Woman
DR10 -1.16 dB -12.98 dB 6:20 05-Jig‐Saw Puzzle
DR10 -0.34 dB -12.13 dB 3:22 06-Street Fighting Man
DR11 -0.72 dB -13.89 dB 2:57 07-Prodigal Son
DR10 -1.00 dB -13.00 dB 4:41 08-Stray Cat Blues
DR11 -0.73 dB -14.96 dB 2:14 09-Factory Girl
DR10 -0.33 dB -13.42 dB 4:57 10-Salt of the Earth
––––––––––––––––––––––––––––––––––––––––

Number of tracks: 10
Official DR value: DR10

Samplerate: 44100 Hz
Channels: 2
Bits per sample: 16
Bitrate: 940 kbps
Codec: FLAC
================================================================================



The Rolling Stones - 			  		 	 	  		 	    	 			   		   	  		 		   		  	   	 			   		  	   		  	   		 	    	 			   		   	  		 			  		 		 			 Original Master Recordings Box Set (1984) [Vinyl Rip 16/44 & mp3-320]

Tracklist VNL08 - Let It Bleed 1969:

01. A1 Gimme Shelter
02. A2 Love In Vain
03. A3 Country Honk
04. A4 Live With Me
05. A5 Let It Bleed
06. B1 Midnight Rambler
07. B2 You Got The Silver
08. B3 Monkey Man
09. B4 You Can't Always Get What You Want

foobar2000 1.2.9 / Dynamic Range Meter 1.1.1
log date: 2018-02-09 21:37:33

––––––––––––––––––––––––––––––––––––––––
Analyzed: The Rolling Stones / Let It Bleed
––––––––––––––––––––––––––––––––––––––––

DR Peak RMS Duration Track
––––––––––––––––––––––––––––––––––––––––
DR10 -1.05 dB -12.91 dB 4:39 01-Gimme Shelter
DR12 -1.64 dB -16.48 dB 4:23 02-Love in Vain
DR11 -0.53 dB -14.26 dB 3:09 03-Country Honk
DR11 -0.39 dB -13.34 dB 3:37 04-Live With Me
DR9 -0.54 dB -12.25 dB 5:32 05-Let It Bleed
DR11 -0.03 dB -14.32 dB 7:00 06-Midnight Rambler
DR11 -0.24 dB -15.86 dB 2:56 07-You Got the Silver
DR11 0.00 dB -12.75 dB 4:15 08-Monkey Man
DR10 -0.16 dB -13.24 dB 7:32 09-You Can’t Always Get What You Want
––––––––––––––––––––––––––––––––––––––––

Number of tracks: 9
Official DR value: DR11

Samplerate: 44100 Hz
Channels: 2
Bits per sample: 16
Bitrate: 914 kbps
Codec: FLAC
================================================================================



The Rolling Stones - Original Master Recordings Box Set (1984) [Vinyl Rip 16/44 & mp3-320]

Tracklist VNL09 - Get Yer Ya-Ya's Out p1970:

01. A1 Jampin' Jack Flash
02. A2 Carol
03. A3 Stray Cat Blues
04. A4 Love In Vain
05. A5 Midnight Rambler
06. B1 Sympathy For The Devil
07. B2 Live With Me
08. B3 Little Queenie
09. B4 Honky Tonk Women
10. B5 Street Fighting Man

foobar2000 1.2.9 / Dynamic Range Meter 1.1.1
log date: 2018-02-09 21:37:46

––––––––––––––––––––––––––––––––––––––––
Analyzed: The Rolling Stone / Get Yer Ya-Ya's Out
––––––––––––––––––––––––––––––––––––––––

DR Peak RMS Duration Track
––––––––––––––––––––––––––––––––––––––––
DR11 -0.85 dB -13.75 dB 3:50 01-A1 Jampin' Jack Flash
DR10 -0.47 dB -13.04 dB 4:02 02-A2 Carol
DR11 -0.69 dB -13.92 dB 3:44 03-A3 Stray Cat Blues
DR13 -0.94 dB -16.36 dB 5:02 04-A4 Love In Vain
DR11 -0.51 dB -14.16 dB 9:11 05-A5 Midnight Rambler
DR12 -0.44 dB -14.24 dB 6:58 06-B1 Sympathy For The Devil
DR11 -0.83 dB -13.23 dB 3:08 07-B2 Live With Me
DR11 -0.56 dB -13.11 dB 4:36 08-B3 Little Queenie
DR11 -0.84 dB -14.24 dB 3:27 09-4 Honky Tonk Women
DR10 -0.67 dB -12.14 dB 4:08 10-B5 Street Fighting Man
––––––––––––––––––––––––––––––––––––––––

Number of tracks: 10
Official DR value: DR11

Samplerate: 44100 Hz
Channels: 2
Bits per sample: 16
Bitrate: 916 kbps
Codec: FLAC
================================================================================



The Rolling Stones - Original Master Recordings Box Set (1984) [Vinyl Rip 16/44 & mp3-320]

Tracklist VNL10-11 - Hot Rocks 1964-1971 1972:

01. A1 Time Is On My Side
02. A2 Hart Of Stone
03. A3 Play With Fire
04. A4 (I Can't Get No) Satisfaction
05. A5 As Tears Go By
06. A6 Get Off Of My Cloud
07. B1 Mother's Little Helper
08. B2 19th Nervous Breakdown
09. B3 Paint It, Black
10. B4 Under My Thumb
11. B5 Ruby Tuesday
12. B6 Let's Spend The Night Together
13. C1 Jumping Jack Flash
14. C2 Street Fighting Man
15. C3 Sympathy For The Devil
16. C4 Honky Tonk Women
17. C5 Gimme Shelter
18. D1 Midnight Rambler
19. D2 You Can't Always Get What You Want
20. D3 Brown Sugar
21. D4 Wild Horses

foobar2000 1.2.9 / Dynamic Range Meter 1.1.1
log date: 2018-02-09 21:38:06

––––––––––––––––––––––––––––––––––––––––
Analyzed: The Rolling Stones / Hot Rocks 1964-1971
––––––––––––––––––––––––––––––––––––––––

DR Peak RMS Duration Track
––––––––––––––––––––––––––––––––––––––––
DR10 0.00 dB -12.69 dB 3:07 01-A1 Time Is On My Side
DR10 0.00 dB -12.68 dB 2:49 02-A2 Hart Of Stone
DR10 -0.59 dB -13.64 dB 2:19 03-A3 Play With Fire
DR9 -0.07 dB -10.03 dB 3:47 04-A4 (I Can't Get No) Satisfaction
DR9 -0.71 dB -11.68 dB 2:47 05-A5 As Tears Go By
DR10 -0.38 dB -12.67 dB 3:03 06-A6 Get Off Of My Cloud
DR11 -0.54 dB -13.90 dB 2:50 07-B1 Mother's Little Helper
DR9 -0.87 dB -12.07 dB 4:02 08-B2 19th Nervous Breakdown
DR9 -0.32 dB -11.67 dB 3:26 09-B3 Paint It, Black
DR13 -0.72 dB -14.86 dB 3:45 10-B4 Under My Thumb
DR10 -0.72 dB -12.56 dB 3:21 11-B5 Ruby Tuesday
DR9 -0.50 dB -11.62 dB 3:40 12-B6 Let's Spend The Night Together
DR10 0.00 dB -11.93 dB 3:47 13-C1 Jumping Jack Flash
DR10 -0.69 dB -12.73 dB 3:18 14-C2 Street Fighting Man
DR10 -0.43 dB -12.73 dB 6:31 15-C3 Sympathy For The Devil
DR10 -0.15 dB -12.38 dB 3:08 16-C4 Honky Tonk Women
DR10 -0.50 dB -12.50 dB 4:36 17-C5 Gimme Shelter
DR13 -0.99 dB -16.39 dB 9:16 18-D1 Midnight Rambler
DR11 -1.05 dB -15.58 dB 7:33 19-D2 You Can't Always Get What You Want
DR11 -1.59 dB -14.91 dB 3:54 20-D3 Brown Sugar
DR13 -1.15 dB -17.83 dB 5:46 21-D4 Wild Horses
––––––––––––––––––––––––––––––––––––––––

Number of tracks: 21
Official DR value: DR10

Samplerate: 44100 Hz
Channels: 2
Bits per sample: 16
Bitrate: 907 kbps
Codec: FLAC
================================================================================




Original ripper: Anatol38
Original format: 24/192
Vinyl Condition: NM
Direct Drive Turntable: Turntable Lineartech model DD1700 PHASE II
Amplifier: Arcam Delta 290 Amplifier Phono Board
ADC: M-Audio Audiophil 24/192 Delta Series

Downsampled to 16/44

Vinyl or Vinyl in my Blog

Rolling Stones or Rolling Stones in my Blog

Download The Rolling Stones - Original Master Recordings Box Set (1984):