Subcategories

The Rosenberg Trio - The Best Of (2002)

Posted By: ciklon5
The Rosenberg Trio - The Best Of (2002)

The Rosenberg Trio - The Best Of (2002)
FLAC (image+cue) | 1:57:28 | 620 Mb
Genre: Jazz, Swing, Latin Jazz / Label: EmArcy

The Rosenberg Trio is a Dutch jazz band consisting of lead guitarist Stochelo Rosenberg, rhythm guitarist Nous'che Rosenberg and bassist Nonnie Rosenberg. The band is influenced by Django Reinhardt, the gypsy jazz guitarist of the 1930s. The group's first album was Seresta in 1989. Notable events include the release in 2010 of Djangologists a DVD featuring a recording tribute to Django Reinhardt, and the 1992 live album The Rosenberg Trio: Live at the North Sea Jazz Festival, which captured the trio at an eclectic, youthful high point. There is no exact date before 1989 when the Rosenberg Trio began playing under that name. Two of the Rosenbergs, Nous'che and Nonnie, are sons of Sani Rosenberg, a musician in the Dutch Gypsy community. Having been raised in a very musical family, they all were influenced by the music of Django Reinhardt.

Track List:

CD1:
01. Seresta 2:35
02. Troublant Bolero 2:45
03. Tears (with Stephane Grappelli) 5:57
04. Entre Dos Aquas 3:55
05. Minor Blues 2:58
06. Miro Tata Mimer (For My Dad Mimer) 3:34
07. Begin The Beguine 3:47
08. Nuages 3:33
09. I Surrender Dear 3:29
10. Melodie Au Crepuscule 2:39
11. Gipsy Summer 3:36
12. Night And Day (with Stephane Grappelli) 5:36
13. Pent-up House (with Stephane Grappelli) 3:54
14. Concierto De Aranjuez (Adagio) 6:19
15. Impressions 3:49

CD2:
01. Chega De Saudade 3:47
02. Bossa Dorado 3:30
03. Honeysuckle Rose 2:46
04. Manha De Carnaval (with Jan Akkerman) 4:33
05. For Sephora 4:27
06. Bluesette 4:44
07. Noches Calientes 5:11
08. Tango Op.165 Nr.2 5:07
09. Anouman 2:33
10. Rumba's Sunset 4:19
11. 2 The Night (Extended Version) 4:10
12. Undecided 2:25
13. Django 3:46
14. Embracable You (with Stephane Grappelli) 3:42
15. Sevilla 3:49

Exact Audio Copy V0.99 prebeta 5 from 4. May 2009

Отчёт EAC об извлечении, выполненном 28. августа 2009, 18:37

The Rosenberg Trio / The Best Of CD1

Дисковод: PLEXTOR DVDR PX-716A Adapter: 1 ID: 0

Режим чтения : Достоверность
Использование точного потока : Да
Отключение кэша аудио : Да
Использование указателей C2 : Нет

Коррекция смещения при чтении : 30
Способность читать области Lead-in и Lead-out : Да
Заполнение пропущенных сэмплов тишиной : Да
Удаление блоков с тишиной в начале и конце : Нет
При вычислениях CRC использовались нулевые сэмплы : Нет
Интерфейс : Установленный внешний ASPI-интерфейс

Выходной формат : Пользовательский кодировщик
Выбранный битрейт : 1024 kBit/s
Качество : Высокий
Добавление ID3-тэга : Да
Утилита сжатия : C:\Program Files\Exact Audio Copy\Flac\flac.exe
Дополнительные параметры : -8 -V -T "artist=%a" -T "title=%t" -T "album=%g" -T "date=%y" -T "tracknumber=%n" -T "genre=%m" %s


TOC извлечённого CD

Трек | Старт | Длительность | Начальный сектор | Конечный сектор
––––––––––––––––––––––––––––––––––-
1 | 0:00.00 | 2:35.65 | 0 | 11689
2 | 2:35.65 | 2:45.68 | 11690 | 24132
3 | 5:21.58 | 5:57.25 | 24133 | 50932
4 | 11:19.08 | 3:55.05 | 50933 | 68562
5 | 15:14.13 | 2:58.00 | 68563 | 81912
6 | 18:12.13 | 3:34.60 | 81913 | 98022
7 | 21:46.73 | 3:47.50 | 98023 | 115097
8 | 25:34.48 | 3:33.70 | 115098 | 131142
9 | 29:08.43 | 3:29.47 | 131143 | 146864
10 | 32:38.15 | 2:39.68 | 146865 | 158857
11 | 35:18.08 | 3:36.09 | 158858 | 175066
12 | 38:54.17 | 5:36.56 | 175067 | 200322
13 | 44:30.73 | 3:54.30 | 200323 | 217902
14 | 48:25.28 | 6:19.62 | 217903 | 246389
15 | 54:45.15 | 3:49.03 | 246390 | 263567


Характеристики диапазона извлечения и сообщения об ошибках

Выбранный диапазон

Имя файла F:\The Rosenberg Trio - The Best Of 2002\The Rosenberg Trio - The Best Of CD1.wav

Пиковый уровень 100.0 %
Качество диапазона 99.9 %
CRC теста C4E7C47A
CRC копии C4E7C47A
Копирование… OK

Ошибок не произошло


AccurateRip: сводка

Трек 1 нет в базе данных
Трек 2 нет в базе данных
Трек 3 нет в базе данных
Трек 4 нет в базе данных
Трек 5 нет в базе данных
Трек 6 нет в базе данных
Трек 7 нет в базе данных
Трек 8 нет в базе данных
Трек 9 нет в базе данных
Трек 10 нет в базе данных
Трек 11 нет в базе данных
Трек 12 нет в базе данных
Трек 13 нет в базе данных
Трек 14 нет в базе данных
Трек 15 нет в базе данных

Ни одного трека нет в базе AccurateRip

Конец отчёта

Exact Audio Copy V0.99 prebeta 5 from 4. May 2009

Отчёт EAC об извлечении, выполненном 28. августа 2009, 19:18

The Rosenberg Trio / The Best Of CD2

Дисковод: PLEXTOR DVDR PX-716A Adapter: 1 ID: 0

Режим чтения : Достоверность
Использование точного потока : Да
Отключение кэша аудио : Да
Использование указателей C2 : Нет

Коррекция смещения при чтении : 30
Способность читать области Lead-in и Lead-out : Да
Заполнение пропущенных сэмплов тишиной : Да
Удаление блоков с тишиной в начале и конце : Нет
При вычислениях CRC использовались нулевые сэмплы : Нет
Интерфейс : Установленный внешний ASPI-интерфейс

Выходной формат : Пользовательский кодировщик
Выбранный битрейт : 1024 kBit/s
Качество : Высокий
Добавление ID3-тэга : Да
Утилита сжатия : C:\Program Files\Exact Audio Copy\Flac\flac.exe
Дополнительные параметры : -8 -V -T "artist=%a" -T "title=%t" -T "album=%g" -T "date=%y" -T "tracknumber=%n" -T "genre=%m" %s


TOC извлечённого CD

Трек | Старт | Длительность | Начальный сектор | Конечный сектор
––––––––––––––––––––––––––––––––––-
1 | 0:00.00 | 3:47.10 | 0 | 17034
2 | 3:47.10 | 3:30.08 | 17035 | 32792
3 | 7:17.18 | 2:46.20 | 32793 | 45262
4 | 10:03.38 | 4:33.45 | 45263 | 65782
5 | 14:37.08 | 4:27.00 | 65783 | 85807
6 | 19:04.08 | 4:44.22 | 85808 | 107129
7 | 23:48.30 | 5:11.60 | 107130 | 130514
8 | 29:00.15 | 5:07.63 | 130515 | 153602
9 | 34:08.03 | 2:33.02 | 153603 | 165079
10 | 36:41.05 | 4:19.45 | 165080 | 184549
11 | 41:00.50 | 4:10.28 | 184550 | 203327
12 | 45:11.03 | 2:25.20 | 203328 | 214222
13 | 47:36.23 | 3:46.50 | 214223 | 231222
14 | 51:22.73 | 3:42.27 | 231223 | 247899
15 | 55:05.25 | 3:49.08 | 247900 | 265082


Характеристики диапазона извлечения и сообщения об ошибках

Выбранный диапазон

Имя файла F:\The Rosenberg Trio - The Best Of 2002\The Rosenberg Trio - The Best Of CD2.wav

Пиковый уровень 100.0 %
Качество диапазона 100.0 %
CRC теста CF74C08F
CRC копии CF74C08F
Копирование… OK

Ошибок не произошло


AccurateRip: сводка

Трек 1 точность не определена (достоверность 2) [FF6D6766], AccurateRip вернул [8CDDBCEA]
Трек 2 точность не определена (достоверность 2) [23A1F609], AccurateRip вернул [1F8AA731]
Трек 3 точность не определена (достоверность 2) [4E7729C6], AccurateRip вернул [E4FC4AC6]
Трек 4 точность не определена (достоверность 2) [47767D1A], AccurateRip вернул [521577BA]
Трек 5 точность не определена (достоверность 2) [D5E345CF], AccurateRip вернул [46F8DBA7]
Трек 6 точность не определена (достоверность 2) [82AB0AED], AccurateRip вернул [55D58635]
Трек 7 точность не определена (достоверность 2) [37D72F82], AccurateRip вернул [D2A5C94A]
Трек 8 точность не определена (достоверность 2) [AB1E7053], AccurateRip вернул [C5E01E73]
Трек 9 точность не определена (достоверность 2) [62F4E55D], AccurateRip вернул [8AF21DFD]
Трек 10 точность не определена (достоверность 2) [C0582D80], AccurateRip вернул [C45D2200]
Трек 11 точность не определена (достоверность 2) [CA175595], AccurateRip вернул [294B840D]
Трек 12 точность не определена (достоверность 2) [21E831C6], AccurateRip вернул [1D59C346]
Трек 13 точность не определена (достоверность 2) [6826D41E], AccurateRip вернул [5FD2F566]
Трек 14 точность не определена (достоверность 2) [5210DEC6], AccurateRip вернул [2D5719FE]
Трек 15 точность не определена (достоверность 2) [839241D3], AccurateRip вернул [B51E1713]

Ни один трек не прошёл проверки на точность
В вашей базе может быть иной вариант штамповки диска

Конец отчёта