Subcategories

The Salomon String Quartet - Haydn: The "Sun" String Quartets, Op. 20 Nos. 1-3 (1991)

Posted By: murena
The Salomon String Quartet - Haydn: The "Sun" String Quartets, Op. 20 Nos. 1-3 (1991)

The Salomon String Quartet - Haydn: The "Sun" String Quartets, Op. 20 Nos. 1-3 (1991)
EAC Rip | FLAC (Tracks+.cue, log) | 01:15:15 min | Scans included | 348 mb
Genre: Classical / Label: Hyperion

The Salomon's beautiful playing of these important masterpieces make this set indispensable. The dedication, beauty and vitality of the interpretations are of the highest order … a Haydn monument as important to the 90s as the one by the Pro Arte was to the 30s.
When Haydn completed his Opus 20 String Quartets in 1772 he was in his fortieth year and was on the brink of international fame. Since 1761 he had been in the service of the Esterházy family at their castle in Eisenstadt, east of Vienna, or, after the mid-1760s, mainly at the palace of Eszterháza, over the present-day border with Hungary on the other side of the Neusiedlersee.
Haydn's duties at Eszterháza were many, varied and time-consuming. He was responsible for the conduct of the musicians subordinate to him, also for the purchase and care of music and instruments and for the composition, rehearsal and direction of all the music required by his employer. Prince Nikolaus Esterházy wanted music for varied chamber combinations (often featuring his own instrument, the baryton), symphonies and concertos for the small but excellent resident orchestra, church music for the chapel, and, from the late 1760s, operas and incidental music for the puppets of the Eszterháza marionette theatre, and for the human performers of the nearby opera house.

Tracklist:
String Quartet in E flat major Op 20 No 1 (23'23)
1. Allegro moderato [9'41]
2. Menuetto: Allegretto [3'52]
3. Affettuoso e sostenuto [5'37]
4. Presto [3'45]

String Quartet in C major Op 20 No 2 (23'52)
5. Moderato [10'16]
6. Capriccio: Adagio [6'06]
7. Menuetto: Allegretto [3'50]
8. Fuga a 4 soggetti: Allegro [3'27]

String Quartet in G minor Op 20 No 3 (27'32)
9. Allegro con spirito [6'56]
10. Menuetto: Allegretto [4'08]
11. Poco adagio [10'04]
12. Allegro molto [6'03]

Exact Audio Copy V1.0 beta 3 from 29. August 2011

EAC extraction logfile from 21. May 2012, 20:59

Salomon String Quartet / Haydn- String Quartets Op. 20 Nos. 1-3

Used drive : PLDS BD-RE DH-8B2SH Adapter: 0 ID: 0

Read mode : Secure
Utilize accurate stream : Yes
Defeat audio cache : Yes
Make use of C2 pointers : No

Read offset correction : 6
Overread into Lead-In and Lead-Out : No
Fill up missing offset samples with silence : Yes
Delete leading and trailing silent blocks : No
Null samples used in CRC calculations : Yes
Used interface : Native Win32 interface for Win NT & 2000
Gap handling : Not detected, thus appended to previous track

Used output format : User Defined Encoder
Selected bitrate : 768 kBit/s
Quality : High
Add ID3 tag : No
Command line compressor : C:\Program Files (x86)\Exact Audio Copy\FLAC\FLAC.EXE
Additional command line options : -6 -V -T "ARTIST=%artist%" -T "TITLE=%title%" -T "ALBUM=%albumtitle%" -T "DATE=%year%" -T "TRACKNUMBER=%tracknr%" -T "GENRE=%genre%" -T "COMMENT=%comment%" -T "BAND=%albuminterpret%" -T "ALBUMARTIST=%albuminterpret%" -T "COMPOSER=%composer%" %haslyrics%–tag-from-file=LYRICS="%lyricsfile%"%haslyrics% -T "DISCNUMBER=%cdnumber%" -T "TOTALDISCS=%totalcds%" -T "TOTALTRACKS=%numtracks%" %hascover%–picture="%coverfile%"%hascover% %source% -o %dest%


TOC of the extracted CD

Track | Start | Length | Start sector | End sector
––––––––––––––––––––––––––––-
1 | 0:00.00 | 9:49.22 | 0 | 44196
2 | 9:49.22 | 4:04.45 | 44197 | 62541
3 | 13:53.67 | 5:45.73 | 62542 | 88489
4 | 19:39.65 | 3:52.52 | 88490 | 105941
5 | 23:32.42 | 10:22.23 | 105942 | 152614
6 | 33:54.65 | 6:07.47 | 152615 | 180186
7 | 40:02.37 | 3:54.28 | 180187 | 197764
8 | 43:56.65 | 3:33.15 | 197765 | 213754
9 | 47:30.05 | 7:03.55 | 213755 | 245534
10 | 54:33.60 | 4:15.42 | 245535 | 264701
11 | 58:49.27 | 10:09.60 | 264702 | 310436
12 | 68:59.12 | 6:05.40 | 310437 | 337851


Track 1

Filename C:\EAC\Haydn- String Quartets Op. 20 Nos. 1-3\Haydn- String Quartets Op. 20 Nos. 1-3\01 String Quartet Op. 20 No. 1, 1.wav

Peak level 59.9 %
Extraction speed 5.3 X
Track quality 99.9 %
Test CRC 04DD7808
Copy CRC 04DD7808
Track not present in AccurateRip database
Copy OK

Track 2

Filename C:\EAC\Haydn- String Quartets Op. 20 Nos. 1-3\Haydn- String Quartets Op. 20 Nos. 1-3\02 String Quartet Op. 20 No. 1, 2.wav

Peak level 55.0 %
Extraction speed 6.1 X
Track quality 100.0 %
Test CRC BF3380CF
Copy CRC BF3380CF
Track not present in AccurateRip database
Copy OK

Track 3

Filename C:\EAC\Haydn- String Quartets Op. 20 Nos. 1-3\Haydn- String Quartets Op. 20 Nos. 1-3\03 String Quartet Op. 20 No. 1, 3.wav

Peak level 48.1 %
Extraction speed 6.8 X
Track quality 100.0 %
Test CRC 9A5415EC
Copy CRC 9A5415EC
Track not present in AccurateRip database
Copy OK

Track 4

Filename C:\EAC\Haydn- String Quartets Op. 20 Nos. 1-3\Haydn- String Quartets Op. 20 Nos. 1-3\04 String Quartet Op. 20 No. 1, 4.wav

Peak level 64.7 %
Extraction speed 7.0 X
Track quality 100.0 %
Test CRC 4359702B
Copy CRC 4359702B
Track not present in AccurateRip database
Copy OK

Track 5

Filename C:\EAC\Haydn- String Quartets Op. 20 Nos. 1-3\Haydn- String Quartets Op. 20 Nos. 1-3\05 String Quartet Op. 20 No. 2, 1.wav

Peak level 61.8 %
Extraction speed 8.3 X
Track quality 100.0 %
Test CRC B614629E
Copy CRC B614629E
Track not present in AccurateRip database
Copy OK

Track 6

Filename C:\EAC\Haydn- String Quartets Op. 20 Nos. 1-3\Haydn- String Quartets Op. 20 Nos. 1-3\06 String Quartet Op. 20 No. 2, 2.wav

Peak level 74.6 %
Extraction speed 8.6 X
Track quality 100.0 %
Test CRC 28CE0ED7
Copy CRC 28CE0ED7
Track not present in AccurateRip database
Copy OK

Track 7

Filename C:\EAC\Haydn- String Quartets Op. 20 Nos. 1-3\Haydn- String Quartets Op. 20 Nos. 1-3\07 String Quartet Op. 20 No. 2, 3.wav

Peak level 41.0 %
Extraction speed 7.0 X
Track quality 99.9 %
Test CRC BF0A5CC9
Copy CRC BF0A5CC9
Track not present in AccurateRip database
Copy OK

Track 8

Filename C:\EAC\Haydn- String Quartets Op. 20 Nos. 1-3\Haydn- String Quartets Op. 20 Nos. 1-3\08 String Quartet Op. 20 No. 2, 4.wav

Peak level 71.7 %
Extraction speed 8.6 X
Track quality 100.0 %
Test CRC CC2CDA47
Copy CRC CC2CDA47
Track not present in AccurateRip database
Copy OK

Track 9

Filename C:\EAC\Haydn- String Quartets Op. 20 Nos. 1-3\Haydn- String Quartets Op. 20 Nos. 1-3\09 String Quartet Op. 20 No. 3, 1.wav

Peak level 75.5 %
Extraction speed 9.7 X
Track quality 100.0 %
Test CRC 13D9B9ED
Copy CRC 13D9B9ED
Track not present in AccurateRip database
Copy OK

Track 10

Filename C:\EAC\Haydn- String Quartets Op. 20 Nos. 1-3\Haydn- String Quartets Op. 20 Nos. 1-3\10 String Quartet Op. 20 No. 3, 2.wav

Peak level 65.4 %
Extraction speed 9.7 X
Track quality 100.0 %
Test CRC 6CB93E28
Copy CRC 6CB93E28
Track not present in AccurateRip database
Copy OK

Track 11

Filename C:\EAC\Haydn- String Quartets Op. 20 Nos. 1-3\Haydn- String Quartets Op. 20 Nos. 1-3\11 String Quartet Op. 20 No. 3, 3.wav

Peak level 41.5 %
Extraction speed 10.9 X
Track quality 100.0 %
Test CRC 4C863875
Copy CRC 4C863875
Track not present in AccurateRip database
Copy OK

Track 12

Filename C:\EAC\Haydn- String Quartets Op. 20 Nos. 1-3\Haydn- String Quartets Op. 20 Nos. 1-3\12 String Quartet Op. 20 No. 3, 4.wav

Peak level 60.4 %
Extraction speed 9.4 X
Track quality 99.9 %
Test CRC 4F9F0411
Copy CRC 4F9F0411
Track not present in AccurateRip database
Copy OK


None of the tracks are present in the AccurateRip database

No errors occurred

End of status report

Thanks to the original ripper.