Subcategories

The Stranglers - Access All Areas (1998)

Posted By: popsakov
The Stranglers - Access All Areas (1998)

The Stranglers - Access All Areas (1998)
EAC Rip | FLAC (Img) + Cue + Log ~ 479 Mb | MP3 CBR320 ~ 176 Mb
Scans Included (JPG, 300 dpi) | RAR 5% Recovery
Punk Rock, New wave | VoicePrint/The Official Stranglers Fan Club #SOF001CD

The Stranglers are an English rock band who emerged via the punk rock scene. Scoring some 23 UK top 40 singles and 17 UK top 40 albums to date in a career spanning four decades, the Stranglers are one of the longest-surviving and most "continuously successful" bands to have originated in the UK punk scene of the mid to late 1970s.

Access All Areas is a compilation of live tracks recorded by The Stranglers during their 1995 UK tour. It is also the name of a hacking community that met in London UK on an annual basis. Originally commissioned by SIS UK (the Stranglers Information Service) and released in 1996, this album has since been re-released (in 1998) on the VoicePrint label.
~ Wiki

The Stranglers - Access All Areas (1998)


***************

The Stranglers - Access All Areas (1998)

Track List:

01. Genetix [0:05:01.38]
02. Grip [0:03:44.12]
03. Golden Boy [0:02:55.70]
04. Straighten Out [0:02:56.03]
05. 5 Minutes [0:03:26.55]
06. Paradise Row [0:04:00.02]
07. Money [0:03:25.23]
08. Nice & Sleazy [0:03:44.22]
09. Princess of the Streets [0:04:53.05]
10. European Female [0:03:33.28]
11. Still Life [0:04:29.32]
12. Goobye Toulouse [0:03:20.48]
13. Sinister [0:04:23.37]
14. Let Me Introduce You to the Family [0:04:36.48]
15. All Day and All Of the Night [0:02:50.10]
16. Duchess [0:02:11.72]
17. Nuclear Device [0:03:21.25]
18. English Towns [0:02:08.20]
19. No More Heroes [0:03:37.48]

Exact Audio Copy V1.1 from 23. June 2015

EAC extraction logfile from 15. May 2016, 14:39

The Stranglers / Access All Areas [SOF001CD]

Used drive : HL-DT-STBD-RE BH10LS38 Adapter: 1 ID: 1

Read mode : Secure
Utilize accurate stream : Yes
Defeat audio cache : Yes
Make use of C2 pointers : No

Read offset correction : 667
Overread into Lead-In and Lead-Out : No
Fill up missing offset samples with silence : Yes
Delete leading and trailing silent blocks : No
Null samples used in CRC calculations : Yes
Used interface : Installed external ASPI interface

Used output format : User Defined Encoder
Selected bitrate : 128 kBit/s
Quality : High
Add ID3 tag : No
Command line compressor : C:\Program Files (x86)\Exact Audio Copy\wavpack-4.60.1\wavpack.exe
Additional command line options : -hm -w "Year=%year%" -w "Genre=%genre%" %source% %dest%


TOC of the extracted CD

Track | Start | Length | Start sector | End sector
––––––––––––––––––––––––––––-
1 | 0:00.32 | 5:01.38 | 32 | 22644
2 | 5:01.70 | 3:44.12 | 22645 | 39456
3 | 8:46.07 | 2:55.70 | 39457 | 52651
4 | 11:42.02 | 2:56.03 | 52652 | 65854
5 | 14:38.05 | 3:26.55 | 65855 | 81359
6 | 18:04.60 | 4:00.02 | 81360 | 99361
7 | 22:04.62 | 3:25.23 | 99362 | 114759
8 | 25:30.10 | 3:44.22 | 114760 | 131581
9 | 29:14.32 | 4:53.05 | 131582 | 153561
10 | 34:07.37 | 3:33.28 | 153562 | 169564
11 | 37:40.65 | 4:29.32 | 169565 | 189771
12 | 42:10.22 | 3:20.48 | 189772 | 204819
13 | 45:30.70 | 4:23.37 | 204820 | 224581
14 | 49:54.32 | 4:36.48 | 224582 | 245329
15 | 54:31.05 | 2:50.10 | 245330 | 258089
16 | 57:21.15 | 2:11.72 | 258090 | 267986
17 | 59:33.12 | 3:21.25 | 267987 | 283086
18 | 62:54.37 | 2:08.20 | 283087 | 292706
19 | 65:02.57 | 3:37.48 | 292707 | 309029


Range status and errors

Selected range

Filename G:\Rips by Alder\The Stranglers - Access All Areas [SOF001CD].wav

Peak level 89.0 %
Extraction speed 7.7 X
Range quality 100.0 %
Test CRC C86822E1
Copy CRC C86822E1
Copy OK

No errors occurred


AccurateRip summary

Track 1 accurately ripped (confidence 1) [40AD93F5] (AR v2)
Track 2 accurately ripped (confidence 1) [6A08ED9D] (AR v2)
Track 3 accurately ripped (confidence 1) [4E8C05A7] (AR v2)
Track 4 accurately ripped (confidence 1) [4E7EEE30] (AR v2)
Track 5 accurately ripped (confidence 1) [11EDFBCB] (AR v2)
Track 6 accurately ripped (confidence 1) [29B8FD4B] (AR v2)
Track 7 accurately ripped (confidence 1) [BDEDFAAE] (AR v2)
Track 8 accurately ripped (confidence 1) [A8506768] (AR v2)
Track 9 accurately ripped (confidence 1) [4E27DA60] (AR v2)
Track 10 accurately ripped (confidence 1) [9E8FD2CD] (AR v2)
Track 11 accurately ripped (confidence 1) [8720A7DD] (AR v2)
Track 12 accurately ripped (confidence 1) [661EF36B] (AR v2)
Track 13 accurately ripped (confidence 1) [E5628DE4] (AR v2)
Track 14 accurately ripped (confidence 1) [9491C6A2] (AR v2)
Track 15 accurately ripped (confidence 1) [214A8116] (AR v2)
Track 16 accurately ripped (confidence 1) [A3D523C8] (AR v2)
Track 17 accurately ripped (confidence 1) [D04BBA61] (AR v2)
Track 18 accurately ripped (confidence 1) [7DA33730] (AR v2)
Track 19 accurately ripped (confidence 1) [5FF5BECF] (AR v2)

All tracks accurately ripped

End of status report

–– CUETools DB Plugin V2.1.6

[CTDB TOCID: 4sPGTa0K5wp61io3FzJnXwTUwrA-] disk not present in database
Submit result: 4sPGTa0K5wp61io3FzJnXwTUwrA- has been uploaded


==== Log checksum 31BF51EAAD9670724E03C543956F346E3AB8901D7E993009BBF315884A1005EB ====

foobar2000 1.2.6 / Dynamic Range Meter 1.1.1
log date: 2016-05-18 21:49:22

––––––––––––––––––––––––––––––––––––––––
Analyzed: The Stranglers / Access All Areas [SOF001CD]
––––––––––––––––––––––––––––––––––––––––

DR Peak RMS Duration Track
––––––––––––––––––––––––––––––––––––––––
DR13 -3.84 dB -18.57 dB 5:02 01-Genetix
DR9 -3.32 dB -13.25 dB 3:44 02-Grip
DR9 -3.40 dB -14.29 dB 2:56 03-Golden Boy
DR10 -2.43 dB -14.82 dB 2:56 04-Straighten Out
DR11 -3.46 dB -16.38 dB 3:27 05-5 Minutes
DR11 -3.10 dB -17.54 dB 4:00 06-Paradise Row
DR9 -3.72 dB -15.70 dB 3:25 07-Money
DR10 -3.57 dB -16.08 dB 3:44 08-Nice & Sleazy
DR11 -3.60 dB -17.59 dB 4:53 09-Princess of the Streets
DR16 -5.28 dB -23.45 dB 3:33 10-European Female
DR15 -3.93 dB -21.82 dB 4:29 11-Still Life
DR10 -1.33 dB -15.78 dB 3:21 12-Goobye Toulouse
DR12 -3.20 dB -17.91 dB 4:23 13-Sinister
DR13 -4.16 dB -19.54 dB 4:37 14-Let Me Introduce You to the Family
DR12 -3.45 dB -18.84 dB 2:50 15-All Day and All Of the Night
DR12 -3.11 dB -16.43 dB 2:12 16-Duchess
DR12 -3.68 dB -18.27 dB 3:21 17-Nuclear Device
DR10 -3.21 dB -15.21 dB 2:08 18-English Towns
DR12 -1.01 dB -16.98 dB 3:38 19-No More Heroes
––––––––––––––––––––––––––––––––––––––––

Number of tracks: 19
Official DR value: DR11

Samplerate: 44100 Hz
Channels: 2
Bits per sample: 16
Bitrate: 906 kbps
Codec: FLAC
================================================================================

[CUETools log; Date: 18.05.2016 21:49:17; Version: 2.1.5]
Pregap length 00:00:32.
[CTDB TOCID: 4sPGTa0K5wp61io3FzJnXwTUwrA-] found.
Track | CTDB Status
1 | (1/1) Accurately ripped
2 | (1/1) Accurately ripped
3 | (1/1) Accurately ripped
4 | (1/1) Accurately ripped
5 | (1/1) Accurately ripped
6 | (1/1) Accurately ripped
7 | (1/1) Accurately ripped
8 | (1/1) Accurately ripped
9 | (1/1) Accurately ripped
10 | (1/1) Accurately ripped
11 | (1/1) Accurately ripped
12 | (1/1) Accurately ripped
13 | (1/1) Accurately ripped
14 | (1/1) Accurately ripped
15 | (1/1) Accurately ripped
16 | (1/1) Accurately ripped
17 | (1/1) Accurately ripped
18 | (1/1) Accurately ripped
19 | (1/1) Accurately ripped
[AccurateRip ID: 0030ec5d-02a9b88f-13101813] found.
Track [ CRC | V2 ] Status
01 [121f38cf|40ad93f5] (0+1/3) Accurately ripped
02 [65483455|6a08ed9d] (0+1/3) Accurately ripped
03 [f1970447|4e8c05a7] (0+1/3) Accurately ripped
04 [2c1babc5|4e7eee30] (0+1/3) Accurately ripped
05 [5151718b|11edfbcb] (0+1/3) Accurately ripped
06 [6182bf43|29b8fd4b] (0+1/3) Accurately ripped
07 [826a52ae|bdedfaae] (0+1/3) Accurately ripped
08 [54f3138b|a8506768] (0+1/3) Accurately ripped
09 [a1aef98d|4e27da60] (0+1/3) Accurately ripped
10 [a2130fa7|9e8fd2cd] (0+1/3) Accurately ripped
11 [8e3d0f3a|8720a7dd] (0+1/3) Accurately ripped
12 [078410e8|661ef36b] (0+1/3) Accurately ripped
13 [8982d983|e5628de4] (0+1/3) Accurately ripped
14 [30e9d6a2|9491c6a2] (0+1/3) Accurately ripped
15 [414f61bd|214a8116] (0+1/3) Accurately ripped
16 [b90e2ef1|a3d523c8] (0+1/3) Accurately ripped
17 [e41ac30c|d04bba61] (0+1/3) Accurately ripped
18 [d3aec79f|7da33730] (0+1/3) Accurately ripped
19 [c5637758|5ff5becf] (0+1/3) Accurately ripped
Offsetted by 659:
01 [80eaba96] (1/3) Accurately ripped
02 [55f9b8e3] (1/3) Accurately ripped
03 [d19fd43c] (1/3) Accurately ripped
04 [3c9e2961] (1/3) Accurately ripped
05 [af93d48c] (1/3) Accurately ripped
06 [5af7d21f] (1/3) Accurately ripped
07 [32934968] (1/3) Accurately ripped
08 [f5601e90] (1/3) Accurately ripped
09 [23479a23] (1/3) Accurately ripped
10 [f66792cf] (1/3) Accurately ripped
11 [a963270b] (1/3) Accurately ripped
12 [85b1c712] (1/3) Accurately ripped
13 [2481e9b9] (1/3) Accurately ripped
14 [aa86951c] (1/3) Accurately ripped
15 [87a8e28c] (1/3) Accurately ripped
16 [f28b8580] (1/3) Accurately ripped
17 [35de363d] (1/3) Accurately ripped
18 [ac9cef17] (1/3) Accurately ripped
19 [554f526a] (1/3) Accurately ripped

Track Peak [ CRC32 ] [W/O NULL] [ LOG ]
– 89,0 [C86822E1] [0319879B] CRC32
01 64,2 [2204FE6E] [1138BD0B]
02 68,1 [D8FFF479] [9F27AADB]
03 67,6 [F14DD060] [E3F74565]
04 75,6 [FC6BC41F] [6851995B]
05 67,1 [4103C1DE] [83F9BFA8]
06 69,9 [00ECAD65] [0FF330A0]
07 65,1 [72541291] [6BB72F6D]
08 66,2 [9161B5B2] [95311434]
09 66,0 [D3D28E8A] [2B23211E]
10 54,4 [0BCF9BA0] [4E48AB3E]
11 63,6 [4C0F4882] [B5D5E9AB]
12 85,7 [14AFE24B] [72756C48]
13 69,2 [4C711C61] [5FF178D8]
14 61,9 [EB1EEE74] [EF6A86BD]
15 67,1 [069B8522] [C3DA1A66]
16 69,9 [18402F75] [E48FEEAD]
17 65,4 [33F3B626] [47C2908B]
18 69,0 [264CDF9B] [730FDFE3]
19 89,0 [3DD2E0CA] [9B180D19]

The Stranglers - Access All Areas (1998)

The Stranglers - Access All Areas (1998)

All thanks go to Alder

Visit my blog!

Download:
Nitroflare: FLAC | mp3
Salefiles: FLAC | mp3