Subcategories

The Style Council - Cafe Bleu (1984) [Re-Up]

Posted By: Designol
The Style Council - Cafe Bleu (1984) [Re-Up]

The Style Council - Café Bleu (1984)
EAC | FLAC | Tracks (Cue&Log) ~ 286 Mb | Mp3 (CBR320) ~ 133 Mb | Scans included
Sophisti-Pop, New Wave, Soul, Alternative Pop/Rock | Label: Polydor | # 817 535-2 | 00:44:06

Style Council's first proper album Cafe Bleu was one of their better efforts, but it indicated the group's fatal flaw – a tendency to be too eclectic and overambitious. Amidst the lazy jazz instrumentals, many of them courtesy of Mick Talbot, Paul Weller inserted several solid soul-tinged pop songs, including "My Ever Changing Moods," "Headstart for Happiness," "You're the Best Thing," and "Here's One That Got Away." However, that doesn't excuse the rap experiment, "A Gospel." The album was later released with a slightly different running order as My Ever Changing Moods in the U.S.; the American edition included the U.K. hit "A Solid Bond in Your Heart".

Review by Stephen Thomas Erlewine, Allmusic.com

The Style Council - Cafe Bleu (1984) [Re-Up]



Tracklist:

01. Mick's Blessings (01:17)
02. The Whole Point Of No Return (02:43)
03. Me Ship Come In! (03:07)
04. Blue Cafe (02:17)
05. The Paris Match (04:26)
06. My Ever Changing Moods (03:39)
07. Dropping Bombs On The Whitehouse (03:15)
08. A Gospel (04:45)
09. Strength Of Your Nature (04:21)
10. You're The Best Thing (05:43)
11. Here's One That Got Away (02:37)
12. Headstart For Happiness (03:19)
13. Council Meetin' (02:31)


Exact Audio Copy V1.0 beta 4 from 7. December 2014

EAC extraction logfile from 18. August 2016, 20:27

The Style Council / Cafe Bleu

Used drive : TSSTcorpCDDVDW SH-224DB Adapter: 1 ID: 0

Read mode : Secure
Utilize accurate stream : Yes
Defeat audio cache : Yes
Make use of C2 pointers : No

Read offset correction : 6
Overread into Lead-In and Lead-Out : No
Fill up missing offset samples with silence : Yes
Delete leading and trailing silent blocks : No
Null samples used in CRC calculations : Yes
Used interface : Native Win32 interface for Win NT & 2000
Gap handling : Appended to previous track

Used output format : User Defined Encoder
Selected bitrate : 896 kBit/s
Quality : High
Add ID3 tag : No
Command line compressor : C:\Program Files\Exact Audio Copy\Flac\flac.exe
Additional command line options : -6 -V -T "ARTIST=%artist%" -T "TITLE=%title%" -T "ALBUM=%albumtitle%" -T "DATE=%year%" -T "TRACKNUMBER=%tracknr%" -T "GENRE=%genre%" -T "COMMENT=%comment%" %source% -o %dest%


TOC of the extracted CD

Track | Start | Length | Start sector | End sector
––––––––––––––––––––––––––––-
1 | 0:00.32 | 1:17.03 | 32 | 5809
2 | 1:17.35 | 2:43.35 | 5810 | 18069
3 | 4:00.70 | 3:07.57 | 18070 | 32151
4 | 7:08.52 | 2:17.40 | 32152 | 42466
5 | 9:26.17 | 4:26.30 | 42467 | 62446
6 | 13:52.47 | 3:39.38 | 62447 | 78909
7 | 17:32.10 | 3:15.32 | 78910 | 93566
8 | 20:47.42 | 4:45.38 | 93567 | 114979
9 | 25:33.05 | 4:21.62 | 114980 | 134616
10 | 29:54.67 | 5:43.08 | 134617 | 160349
11 | 35:38.00 | 2:37.40 | 160350 | 172164
12 | 38:15.40 | 3:19.72 | 172165 | 187161
13 | 41:35.37 | 2:31.25 | 187162 | 198511


Track 1

Filename C:\New Folder\01 - Mick's Blessings.wav

Pre-gap length 0:00:02.32

Peak level 87.0 %
Extraction speed 1.1 X
Track quality 99.8 %
Test CRC 725701E9
Copy CRC 725701E9
Accurately ripped (confidence 117) [01BEE3CA] (AR v2)
Copy OK

Track 2

Filename C:\New Folder\02 - The Whole Point Of No Return.wav

Pre-gap length 0:00:01.00

Peak level 66.8 %
Extraction speed 1.8 X
Track quality 100.0 %
Test CRC 5A25F776
Copy CRC 5A25F776
Accurately ripped (confidence 115) [04BD5A85] (AR v2)
Copy OK

Track 3

Filename C:\New Folder\03 - Me Ship Come In!.wav

Pre-gap length 0:00:02.00

Peak level 90.6 %
Extraction speed 1.9 X
Track quality 100.0 %
Test CRC 52AAD4C0
Copy CRC 52AAD4C0
Accurately ripped (confidence 116) [B3431EC0] (AR v2)
Copy OK

Track 4

Filename C:\New Folder\04 - Blue Cafe.wav

Pre-gap length 0:00:01.00

Peak level 79.8 %
Extraction speed 1.8 X
Track quality 100.0 %
Test CRC F36B46C1
Copy CRC F36B46C1
Accurately ripped (confidence 116) [A38142B2] (AR v2)
Copy OK

Track 5

Filename C:\New Folder\05 - The Paris Match.wav

Pre-gap length 0:00:02.00

Peak level 60.9 %
Extraction speed 2.1 X
Track quality 100.0 %
Test CRC E9B9E73D
Copy CRC E9B9E73D
Accurately ripped (confidence 116) [39181C41] (AR v2)
Copy OK

Track 6

Filename C:\New Folder\06 - My Ever Changing Moods.wav

Pre-gap length 0:00:02.00

Peak level 72.3 %
Extraction speed 2.0 X
Track quality 100.0 %
Test CRC AC69B528
Copy CRC AC69B528
Accurately ripped (confidence 115) [D2911729] (AR v2)
Copy OK

Track 7

Filename C:\New Folder\07 - Dropping Bombs On The Whitehouse.wav

Pre-gap length 0:00:02.00

Peak level 82.0 %
Extraction speed 2.0 X
Track quality 100.0 %
Test CRC DD70844A
Copy CRC DD70844A
Accurately ripped (confidence 115) [DCA94073] (AR v2)
Copy OK

Track 8

Filename C:\New Folder\08 - A Gospel.wav

Pre-gap length 0:00:02.00

Peak level 83.6 %
Extraction speed 1.9 X
Track quality 99.9 %
Test CRC 22DD7994
Copy CRC 22DD7994
Accurately ripped (confidence 113) [A1130F3C] (AR v2)
Copy OK

Track 9

Filename C:\New Folder\09 - Strength Of Your Nature.wav

Pre-gap length 0:00:01.00

Peak level 89.3 %
Extraction speed 2.1 X
Track quality 100.0 %
Test CRC 867277D1
Copy CRC 867277D1
Accurately ripped (confidence 114) [CB4FA887] (AR v2)
Copy OK

Track 10

Filename C:\New Folder\10 - You're The Best Thing.wav

Pre-gap length 0:00:02.00

Peak level 75.6 %
Extraction speed 2.2 X
Track quality 100.0 %
Test CRC 1A57E770
Copy CRC 1A57E770
Accurately ripped (confidence 110) [F5A11017] (AR v2)
Copy OK

Track 11

Filename C:\New Folder\11 - Here's One That Got Away.wav

Pre-gap length 0:00:02.00

Peak level 64.2 %
Extraction speed 1.9 X
Track quality 100.0 %
Test CRC D22E5CDD
Copy CRC D22E5CDD
Accurately ripped (confidence 114) [08686BBF] (AR v2)
Copy OK

Track 12

Filename C:\New Folder\12 - Headstart For Happiness.wav

Pre-gap length 0:00:02.00

Peak level 67.9 %
Extraction speed 2.0 X
Track quality 100.0 %
Test CRC 2DA5B2B3
Copy CRC 2DA5B2B3
Accurately ripped (confidence 111) [EC75D465] (AR v2)
Copy OK

Track 13

Filename C:\New Folder\13 - Council Meetin'.wav

Pre-gap length 0:00:01.00

Peak level 78.3 %
Extraction speed 1.9 X
Track quality 100.0 %
Test CRC 4B5E6565
Copy CRC 4B5E6565
Accurately ripped (confidence 114) [C2FC67DA] (AR v2)
Copy OK


All tracks accurately ripped

No errors occurred

End of status report

–– CUETools DB Plugin V2.1.4

[CTDB TOCID: G1eVUGbQpfYUIf0_orK7e5cBJy0-] found
Submit result: G1eVUGbQpfYUIf0_orK7e5cBJy0- has been confirmed
Track | CTDB Status
1 | (83/83) Accurately ripped
2 | (83/83) Accurately ripped
3 | (83/83) Accurately ripped
4 | (83/83) Accurately ripped
5 | (83/83) Accurately ripped
6 | (82/83) Accurately ripped
7 | (81/83) Accurately ripped
8 | (81/83) Accurately ripped
9 | (83/83) Accurately ripped
10 | (79/83) Accurately ripped
11 | (83/83) Accurately ripped
12 | (83/83) Accurately ripped
13 | (82/83) Accurately ripped


==== Log checksum D4DF98A04D48F3D10E990A3430BBCECBE0F2EB6E98552213D1C4FD5DA236D183 ====

foobar2000 1.2 / Dynamic Range Meter 1.1.1
log date: 2016-10-15 19:22:40

––––––––––––––––––––––––––––––––––––––––
Analyzed: The Style Council / Cafe Bleu
––––––––––––––––––––––––––––––––––––––––

DR Peak RMS Duration Track
––––––––––––––––––––––––––––––––––––––––
DR13 -1.21 dB -17.41 dB 1:17 01-Mick's Blessings
DR13 -3.50 dB -20.00 dB 2:43 02-The Whole Point Of No Return
DR14 -0.85 dB -17.74 dB 3:08 03-Me Ship Come In!
DR13 -1.95 dB -18.14 dB 2:18 04-Blue Cafe
DR11 -4.30 dB -17.88 dB 4:26 05-The Paris Match
DR12 -2.81 dB -18.01 dB 3:40 06-My Ever Changing Moods
DR16 -1.72 dB -20.26 dB 3:15 07-Dropping Bombs On The Whitehouse
DR15 -1.55 dB -18.44 dB 4:46 08-A Gospel
DR14 -0.98 dB -16.46 dB 4:22 09-Strength Of Your Nature
DR14 -2.43 dB -17.78 dB 5:43 10-You're The Best Thing
DR12 -3.84 dB -17.23 dB 2:38 11-Here's One That Got Away
DR12 -3.36 dB -16.75 dB 3:20 12-Headstart For Happiness
DR13 -2.12 dB -17.07 dB 2:31 13-Council Meetin'
––––––––––––––––––––––––––––––––––––––––

Number of tracks: 13
Official DR value: DR13

Samplerate: 44100 Hz
Channels: 2
Bits per sample: 16
Bitrate: 883 kbps
Codec: FLAC
================================================================================

The Style Council - Cafe Bleu (1984) [Re-Up]

The Style Council - Cafe Bleu (1984) [Re-Up]