Subcategories

The Tokens - Intercourse (1969)

Posted By: v3122
The Tokens - Intercourse (1969)

The Tokens - Intercourse (1969)
EAC | Flac(Image) + Cue + Log & MP3 CBR 320Kbps
2003 | Rev-Ola, CR REV 37 | ~ 166 or 62 Mb | Scans(png) -> 28 Mb
Psychedelic Rock, Pop Rock

The Tokens are generally thought of as the vocal group who brought their "Lion Sleeps Tonight" hit to yet another generation through the success of The Lion King. But what we have here is the great lost Tokens album, recorded in 1968 and promptly turned down by Warner Bros. To fill a contractual obligation, a few hundred copies were pressed up – in a slightly altered form – and the album pretty much remained an interesting catalog sighting before its CD-era reissue. What we also have here is a White doo wop group delivering an album that falls somewhere between Pet Sounds and Sgt. Pepper's. No wonder Warner didn't know what to make of it; previous attempts by other doo woppers at updating their sound produced some of the most laughable examples that the genre has to offer. But everything on here works in a very organic manner: all of the songs follow a neat continuum and could easily be termed as a humanistic song cycle, each one surrounded by late-'60s Beatlesque production values, right down to the massively compressed drum sounds and omnipresent tape saturation. Trippy, loopy, and totally of its time, classic doo wop this is not; great, however, it is.

by Cub Koda, allmusic
The Tokens - Intercourse (1969):

The Tokens - Intercourse (1969)

Tracklist:

1 It's Amazing To Be Alive
2 Droplet Of Water
3 Bathroom Wall
4 Animal
5 Greenfields
6 Wonderful Things
7 Commercial
8 Gray Is Gray
9 Waiting For Something
10 I Could Be
11 654321 Loulgirl On
12 I Want To Make Love To You
13 In & Out
14 Stereo
15 You Loser - You Fool
16 It's Amazing To Be Alive (Reprise)
17 Some People Sleep

Exact Audio Copy V1.1 from 23. June 2015

Отчёт EAC об извлечении, выполненном 6. февраля 2016, 0:19

The Tokens / Intercourse

Дисковод: ASUS DRW-24B3ST Adapter: 0 ID: 0

Режим чтения : Достоверность
Использование точного потока : Да
Отключение кэша аудио : Да
Использование указателей C2 : Нет

Коррекция смещения при чтении : 6
Способность читать области Lead-in и Lead-out : Нет
Заполнение пропущенных сэмплов тишиной : Да
Удаление блоков с тишиной в начале и конце : Нет
При вычислениях CRC использовались нулевые сэмплы : Да
Интерфейс : Установленный внешний ASPI-интерфейс

Выходной формат : Пользовательский кодировщик
Выбранный битрейт : 896 kBit/s
Качество : Высокий
Добавление ID3-тега : Нет
Утилита сжатия : C:\Program Files (x86)\Exact Audio Copy\FLAC\FLAC.EXE
Дополнительные параметры : -6 -V -T "ARTIST=%artist%" -T "TITLE=%title%" -T "ALBUM=%albumtitle%" -T "DATE=%year%" -T "TRACKNUMBER=%tracknr%" -T "GENRE=%genre%" -T "COMMENT=%comment%" -T "BAND=%albuminterpret%" -T "ALBUMARTIST=%albuminterpret%" -T "COMPOSER=%composer%" %haslyrics%–tag-from-file=LYRICS="%lyricsfile%"%haslyrics% -T "DISCNUMBER=%cdnumber%" -T "TOTALDISCS=%totalcds%" -T "TOTALTRACKS=%numtracks%" %hascover%–picture="%coverfile%"%hascover% %source% -o %dest%


TOC извлечённого CD

Трек | Старт | Длительность | Начальный сектор | Конечный сектор
––––––––––––––––––––––––––––––––––-
1 | 0:00.00 | 0:39.28 | 0 | 2952
2 | 0:39.28 | 2:13.67 | 2953 | 12994
3 | 2:53.20 | 1:41.28 | 12995 | 20597
4 | 4:34.48 | 3:16.70 | 20598 | 35367
5 | 7:51.43 | 0:24.22 | 35368 | 37189
6 | 8:15.65 | 2:09.33 | 37190 | 46897
7 | 10:25.23 | 1:11.70 | 46898 | 52292
8 | 11:37.18 | 0:47.70 | 52293 | 55887
9 | 12:25.13 | 2:59.50 | 55888 | 69362
10 | 15:24.63 | 2:16.32 | 69363 | 79594
11 | 17:41.20 | 0:15.20 | 79595 | 80739
12 | 17:56.40 | 2:24.35 | 80740 | 91574
13 | 20:21.00 | 0:31.60 | 91575 | 93959
14 | 20:52.60 | 0:33.25 | 93960 | 96459
15 | 21:26.10 | 2:20.03 | 96460 | 106962
16 | 23:46.13 | 0:38.62 | 106963 | 109874
17 | 24:25.00 | 1:54.05 | 109875 | 118429


Характеристики диапазона извлечения и сообщения об ошибках

Выбранный диапазон

Имя файла E:\Torrents\Lighthouse - 1971 - One Fine Morning\The Tokens - Intercourse.wav

Пиковый уровень 98.4 %
Скорость извлечения 7.2 X
Качество диапазона 100.0 %
CRC теста 5625F9FF
CRC копии 5625F9FF
Копирование… OK

Ошибок не произошло

Конец отчёта

==== Контрольная сумма отчёта 561598B6CC11A423069D83F020DBBD0EC93344E67F84C8AC3815E7655C0727A3 ====


[CUETools log; Date: 08.08.2017 19:29:02; Version: 2.1.4]
[CTDB TOCID: KsPbqWMPzirK.D.WaSfkucME6po-] found.
Track | CTDB Status
1 | (1/1) Accurately ripped
2 | (0/1) No match
3 | (0/1) No match
4 | (1/1) Accurately ripped
5 | (1/1) Accurately ripped
6 | (0/1) No match
7 | (0/1) No match
8 | (1/1) Accurately ripped
9 | (0/1) No match
10 | (0/1) No match
11 | (1/1) Accurately ripped
12 | (1/1) Accurately ripped
13 | (0/1) No match
14 | (0/1) No match
15 | (0/1) No match
16 | (0/1) No match
17 | (1/1) Accurately ripped
[AccurateRip ID: 0010f468-00d54c9b-f1062b11] found.
Track [ CRC | V2 ] Status
01 [239352ee|8bda23f7] (1+0/1) Accurately ripped
02 [8085479b|eb3c9f36] (1+0/1) Accurately ripped
03 [d07ed3af|253e7f0e] (1+0/1) Accurately ripped
04 [aa55c92a|ec91c0b7] (1+0/1) Accurately ripped
05 [d824ae8f|e3c22554] (1+0/1) Accurately ripped
06 [a0332505|32388dd0] (1+0/1) Accurately ripped
07 [954e6bba|f91b47a2] (1+0/1) Accurately ripped
08 [35740c5a|6aacaa29] (1+0/1) Accurately ripped
09 [cab9a047|ddcba3ae] (1+0/1) Accurately ripped
10 [d320eb52|849d1a8d] (1+0/1) Accurately ripped
11 [143bf30d|22c2f886] (1+0/1) Accurately ripped
12 [6eb48d58|5ab06265] (1+0/1) Accurately ripped
13 [a12368e5|bbe2d4c5] (1+0/1) Accurately ripped
14 [b5600841|5c785bb9] (1+0/1) Accurately ripped
15 [9b63beaf|84276e65] (1+0/1) Accurately ripped
16 [f9bc9c57|9b26dbe8] (1+0/1) Accurately ripped
17 [42ccc0a5|c26c954a] (1+0/1) Accurately ripped

Track Peak [ CRC32 ] [W/O NULL] [ LOG ]
– 98,4 [5625F9FF] [CD515B2D] CRC32
01 86,4 [51E3CDA9] [B8B15318]
02 86,3 [E2A5C468] [039F8ED5]
03 89,6 [066E4DEE] [8C4307DD]
04 98,4 [6A2096D6] [7F9238A2]
05 75,8 [7DCEE88E] [C4595771]
06 94,3 [55393393] [7B8BBDBC]
07 89,0 [7E17491A] [E43D520B]
08 71,9 [05E9D0AB] [FF24CBDC]
09 84,3 [6E0941D7] [43A286F0]
10 82,5 [ECFC6BD2] [DC482A1A]
11 32,2 [75B1CDBC] [B1E5D06F]
12 84,4 [CC9C4BBA] [50C05479]
13 57,4 [3711FF77] [45DA0B33]
14 69,2 [516E0F99] [8AA6428F]
15 86,3 [5C7F2C24] [1DD6399F]
16 78,5 [ED5213CD] [53916C20]
17 68,0 [DA94DA36] [F7147D82]


The Tokens - Intercourse (1969)

All thanks go to the original releaser

Psychedelic Rock in my Blog

Download The Tokens - Intercourse (1969)):