Subcategories

The Used - Live & Acoustic At The Palace (2016)

Posted By: popsakov
The Used - Live & Acoustic At The Palace (2016)

The Used - Live & Acoustic At The Palace (2016)
EAC Rip | FLAC (Tracks) + Cue + m3u + Log ~ 452 Mb | Scans Included (JPG, 300 dpi) | RAR 5% Recovery
Alternative Rock, Emo | 01:00:54 | Hopeless Records #HR2210-2

Recorded in October 2015 in Los Angeles, California, Live and Acoustic at the Palace sees the screamo vets celebrating their 15th anniversary with a special, stripped-back performance. The intimate unplugged show, which featured a four-piece string quartet, harpist, pianist, extra percussion, and a three-piece gospel choir, offers fans a unique take on some the band's best-loved songs, including "Taste of Ink," "The Bird and the Worm," "On My Own," and "Tunnel."
~ All Music
The Used - Live & Acoustic At The Palace (2016)
The Used - Live & Acoustic At The Palace (2016)
The Used - Live & Acoustic At The Palace (2016)


***************

The Used - Live & Acoustic At The Palace (2016)

Track List:

01. Tunnel [4:01]
02. The Taste Of Ink [6:08]
03. Yesterday's Feelings [4:07]
04. Lunacy Fringe [4:35]
05. The Bird And The Worm [4:35]
06. Paralyzed [4:00]
07. All That I've Got [6:51]
08. Overdose [5:57]
09. Blue And Yellow [5:58]
10. Hard To Say [5:49]
11. Imagine [4:17]
12. On My Own [4:36]

Personnel:
Bert McCracken - vocals
Justin Shekoski - guitar
Jeph Howard - bass
Dan Whitesides - drums

Exact Audio Copy V1.0 beta 3 from 29. August 2011

EAC extraction logfile from 16. February 2018, 22:13

The Used / Live & Acoustic At The Palace

Used drive : PIONEER BD-RW BDR-205 Adapter: 5 ID: 2

Read mode : Secure
Utilize accurate stream : Yes
Defeat audio cache : Yes
Make use of C2 pointers : No

Read offset correction : 667
Overread into Lead-In and Lead-Out : No
Fill up missing offset samples with silence : Yes
Delete leading and trailing silent blocks : No
Null samples used in CRC calculations : Yes
Used interface : Native Win32 interface for Win NT & 2000
Gap handling : Appended to previous track

Used output format : User Defined Encoder
Selected bitrate : 128 kBit/s
Quality : High
Add ID3 tag : No
Command line compressor : C:\Program Files (x86)\Exact Audio Copy\Flac\flac.exe
Additional command line options : -8 -V -T "ARTIST=%artist%" -T "TITLE=%title%" -T "ALBUM=%albumtitle%" -T "DATE=%year%" -T "TRACKNUMBER=%tracknr%" -T "GENRE=%genre%" -T "COMMENT=%comment%" -T "BAND=%albuminterpret%" -T "ALBUMARTIST=%albuminterpret%" -T "COMPOSER=%composer%" %haslyrics%–tag-from-file=LYRICS="%lyricsfile%"%haslyrics% -T "DISCNUMBER=%cdnumber%" -T "TOTALDISCS=%totalcds%" -T "TOTALTRACKS=%numtracks%" %hascover%–picture="%coverfile%"%hascover% %source% -o %dest%


TOC of the extracted CD

Track | Start | Length | Start sector | End sector
––––––––––––––––––––––––––––-
1 | 0:00.00 | 4:00.74 | 0 | 18073
2 | 4:00.74 | 6:07.47 | 18074 | 45645
3 | 10:08.46 | 4:06.46 | 45646 | 64141
4 | 14:15.17 | 4:34.74 | 64142 | 84765
5 | 18:50.16 | 4:35.20 | 84766 | 105410
6 | 23:25.36 | 3:59.43 | 105411 | 123378
7 | 27:25.04 | 6:51.12 | 123379 | 154215
8 | 34:16.16 | 5:57.36 | 154216 | 181026
9 | 40:13.52 | 5:58.07 | 181027 | 207883
10 | 46:11.59 | 5:49.16 | 207884 | 234074
11 | 52:01.00 | 4:16.60 | 234075 | 253334
12 | 56:17.60 | 4:35.54 | 253335 | 274013


Track 1

Filename O:\The Used -Live & Acoustic At The Palace -2016, CD\01 - Tunnel.wav

Pre-gap length 0:00:02.00

Peak level 96.6 %
Extraction speed 4.2 X
Track quality 99.9 %
Test CRC E1D43E73
Copy CRC E1D43E73
Accurately ripped (confidence 2) [4A1617F2] (AR v2)
Copy OK

Track 2

Filename O:\The Used -Live & Acoustic At The Palace -2016, CD\02 - The Taste Of Ink.wav

Peak level 96.6 %
Extraction speed 5.6 X
Track quality 100.0 %
Test CRC F13E7104
Copy CRC F13E7104
Accurately ripped (confidence 2) [687CCDCE] (AR v2)
Copy OK

Track 3

Filename O:\The Used -Live & Acoustic At The Palace -2016, CD\03 - Yesterday's Feelings.wav

Peak level 96.6 %
Extraction speed 5.8 X
Track quality 100.0 %
Test CRC B4EEA159
Copy CRC B4EEA159
Accurately ripped (confidence 2) [2A1F4474] (AR v2)
Copy OK

Track 4

Filename O:\The Used -Live & Acoustic At The Palace -2016, CD\04 - Lunacy Fringe.wav

Peak level 96.6 %
Extraction speed 6.3 X
Track quality 100.0 %
Test CRC D18CA63B
Copy CRC D18CA63B
Accurately ripped (confidence 2) [D99A0DB2] (AR v2)
Copy OK

Track 5

Filename O:\The Used -Live & Acoustic At The Palace -2016, CD\05 - The Bird And The Worm.wav

Peak level 96.6 %
Extraction speed 6.7 X
Track quality 100.0 %
Test CRC 47ED568C
Copy CRC 47ED568C
Accurately ripped (confidence 2) [1BF0832B] (AR v2)
Copy OK

Track 6

Filename O:\The Used -Live & Acoustic At The Palace -2016, CD\06 - Paralyzed.wav

Peak level 96.6 %
Extraction speed 6.9 X
Track quality 100.0 %
Test CRC 50DC0B43
Copy CRC 50DC0B43
Accurately ripped (confidence 2) [5A6E228D] (AR v2)
Copy OK

Track 7

Filename O:\The Used -Live & Acoustic At The Palace -2016, CD\07 - All That I've Got.wav

Peak level 96.6 %
Extraction speed 6.6 X
Track quality 100.0 %
Test CRC 5FD8CAE3
Copy CRC 5FD8CAE3
Accurately ripped (confidence 2) [39C07AFF] (AR v2)
Copy OK

Track 8

Filename O:\The Used -Live & Acoustic At The Palace -2016, CD\08 - Overdose.wav

Peak level 96.6 %
Extraction speed 8.1 X
Track quality 100.0 %
Test CRC D3933367
Copy CRC D3933367
Accurately ripped (confidence 2) [1890D984] (AR v2)
Copy OK

Track 9

Filename O:\The Used -Live & Acoustic At The Palace -2016, CD\09 - Blue And Yellow.wav

Peak level 96.6 %
Extraction speed 8.4 X
Track quality 100.0 %
Test CRC F1E949CA
Copy CRC F1E949CA
Accurately ripped (confidence 2) [5CEC9AC8] (AR v2)
Copy OK

Track 10

Filename O:\The Used -Live & Acoustic At The Palace -2016, CD\10 - Hard To Say.wav

Peak level 96.6 %
Extraction speed 8.7 X
Track quality 100.0 %
Test CRC F96BA50A
Copy CRC F96BA50A
Accurately ripped (confidence 2) [6D25C642] (AR v2)
Copy OK

Track 11

Filename O:\The Used -Live & Acoustic At The Palace -2016, CD\11 - Imagine.wav

Peak level 96.6 %
Extraction speed 8.3 X
Track quality 100.0 %
Test CRC 66596533
Copy CRC 66596533
Accurately ripped (confidence 2) [3B3F532E] (AR v2)
Copy OK

Track 12

Filename O:\The Used -Live & Acoustic At The Palace -2016, CD\12 - On My Own.wav

Peak level 96.6 %
Extraction speed 9.0 X
Track quality 100.0 %
Test CRC 8D3C4DC8
Copy CRC 8D3C4DC8
Accurately ripped (confidence 2) [F9004DD9] (AR v2)
Copy OK


All tracks accurately ripped

No errors occurred

End of status report

==== Log checksum AE57101E78749041FAC1D6DC623991A9FE12FD4D79A54797E6E07FB37AEBDDEE ====

foobar2000 1.3.16 / Dynamic Range Meter 1.1.1
log date: 2018-05-18 11:56:59

––––––––––––––––––––––––––––––––––––––––
Analyzed: The Used / Live & Acoustic At The Palace
––––––––––––––––––––––––––––––––––––––––

DR Peak RMS Duration Track
––––––––––––––––––––––––––––––––––––––––
DR7 -0.30 dB -9.64 dB 4:01 01-Tunnel
DR5 -0.30 dB -7.47 dB 6:08 02-The Taste Of Ink
DR6 -0.30 dB -8.93 dB 4:07 03-Yesterday's Feelings
DR6 -0.30 dB -7.69 dB 4:35 04-Lunacy Fringe
DR5 -0.30 dB -7.49 dB 4:35 05-The Bird And The Worm
DR5 -0.30 dB -6.73 dB 4:00 06-Paralyzed
DR5 -0.30 dB -8.91 dB 6:51 07-All That I've Got
DR5 -0.30 dB -8.17 dB 5:57 08-Overdose
DR5 -0.30 dB -8.61 dB 5:58 09-Blue And Yellow
DR5 -0.30 dB -8.39 dB 5:49 10-Hard To Say
DR6 -0.30 dB -9.39 dB 4:17 11-Imagine
DR5 -0.30 dB -8.48 dB 4:36 12-On My Own
––––––––––––––––––––––––––––––––––––––––

Number of tracks: 12
Official DR value: DR5

Samplerate: 44100 Hz
Channels: 2
Bits per sample: 16
Bitrate: 948 kbps
Codec: FLAC
================================================================================

[CUETools log; Date: 18.05.2018 11:57:38; Version: 2.1.6]
[CTDB TOCID: pbKX_u7nxpvsl9Q5bcRICc2tZRw-] found.
Track | CTDB Status
1 | (20/20) Accurately ripped
2 | (20/20) Accurately ripped
3 | (20/20) Accurately ripped
4 | (20/20) Accurately ripped
5 | (20/20) Accurately ripped
6 | (20/20) Accurately ripped
7 | (20/20) Accurately ripped
8 | (20/20) Accurately ripped
9 | (19/20) Accurately ripped
10 | (20/20) Accurately ripped
11 | (20/20) Accurately ripped
12 | (20/20) Accurately ripped
[AccurateRip ID: 001aa431-00fb49da-970e450c] found.
Track [ CRC | V2 ] Status
01 [625f39ee|4a1617f2] (0+2/2) Accurately ripped
02 [1a1985d8|687ccdce] (0+2/2) Accurately ripped
03 [6fbd9a9a|2a1f4474] (0+2/2) Accurately ripped
04 [9b974957|d99a0db2] (0+2/2) Accurately ripped
05 [9c679add|1bf0832b] (0+2/2) Accurately ripped
06 [3f90c925|5a6e228d] (0+2/2) Accurately ripped
07 [0d865c66|39c07aff] (0+2/2) Accurately ripped
08 [b2fcce8b|1890d984] (0+2/2) Accurately ripped
09 [30b38ef4|5cec9ac8] (0+2/2) Accurately ripped
10 [e2a8abe5|6d25c642] (0+2/2) Accurately ripped
11 [15ee1f1a|3b3f532e] (0+2/2) Accurately ripped
12 [d632b917|f9004dd9] (0+2/2) Accurately ripped

Track Peak [ CRC32 ] [W/O NULL] [ LOG ]
– 96,6 [0E2184EC] [11D85AE7]
01 96,6 [E1D43E73] [E18781FF] CRC32
02 96,6 [F13E7104] [95249C25] CRC32
03 96,6 [B4EEA159] [4649A211] CRC32
04 96,6 [D18CA63B] [F2E647C7] CRC32
05 96,6 [47ED568C] [359C1B4A] CRC32
06 96,6 [50DC0B43] [FF2277F5] CRC32
07 96,6 [5FD8CAE3] [988783D4] CRC32
08 96,6 [D3933367] [E4DABC26] CRC32
09 96,6 [F1E949CA] [1720D6B5] CRC32
10 96,6 [F96BA50A] [7C029A83] CRC32
11 96,6 [66596533] [E3B21203] CRC32
12 96,6 [8D3C4DC8] [F10CF2C9] CRC32

The Used - Live & Acoustic At The Palace (2016)

All thanks go to anbelk27

>>> My Blog <<<