Subcategories

The Who - My Generation (1965) [2016, 5CD Box Set]

Posted By: v3122
The Who - My Generation (1965) [2016, 5CD Box Set]

The Who - My Generation (1965)
EAC | Flac(Image) + Cue + Log
Polydor Records, 5372740 | ~ 1322 Mb | Scans(png) -> 1134 Mb
Rock / Hard Rock / Classic Rock

An explosive debut, and the hardest mod pop recorded by anyone. At the time of its release, it also had the most ferociously powerful guitars and drums yet captured on a rock record. Pete Townshend's exhilarating chord crunches and guitar distortions threaten to leap off the grooves on "My Generation" and "Out in the Street"; Keith Moon attacks the drums with a lightning, ruthless finesse throughout. Some "Maximum R&B" influence lingered in the two James Brown covers, but much of Townshend's original material fused Beatlesque hooks and power chords with anthemic mod lyrics, with "The Good's Gone," "Much Too Much," "La La La Lies," and especially "The Kids Are Alright" being highlights. "A Legal Matter" hinted at more ambitious lyrical concerns, and "The Ox" was instrumental mayhem that pushed the envelope of 1965 amplification with its guitar feedback and nonstop crashing drum rolls. While the execution was sometimes crude, and the songwriting not as sophisticated as it would shortly become, the Who never surpassed the pure energy level of this record.

by Richie Unterberger, allmusic
The Who - My Generation (1965) [2016, 5CD Box Set]


The Who - My Generation (1965):

The Who - My Generation (1965) [2016, 5CD Box Set]

Tracklist CD1 - Original Album (Mono Mixes):

01 Out In The Street
02 I Don’t Mind
03 The Good’s Gone
04 La-La-La Lies
05 Much Too Much
06 My Generation
07 The Kids Are Alright
08 Please, Please, Please
09 It’s Not True
10 I’m A Man
11 A Legal Matter
12 The Ox

Exact Audio Copy V1.1 from 23. June 2015

EAC extraction logfile from 7. January 2017, 8:46

The Who / My Generation CD1 Mono Mix

Used drive : PLEXTOR BD-R PX-B950SA Adapter: 1 ID: 1

Read mode : Secure
Utilize accurate stream : Yes
Defeat audio cache : Yes
Make use of C2 pointers : No

Read offset correction : 6
Overread into Lead-In and Lead-Out : No
Fill up missing offset samples with silence : Yes
Delete leading and trailing silent blocks : No
Null samples used in CRC calculations : Yes
Used interface : Native Win32 interface for Win NT & 2000

Used output format : Internal WAV Routines
Sample format : 44.100 Hz; 16 Bit; Stereo


TOC of the extracted CD

Track | Start | Length | Start sector | End sector
––––––––––––––––––––––––––––-
1 | 0:00.00 | 2:32.53 | 0 | 11452
2 | 2:32.53 | 2:36.13 | 11453 | 23165
3 | 5:08.66 | 4:04.12 | 23166 | 41477
4 | 9:13.03 | 2:16.04 | 41478 | 51681
5 | 11:29.07 | 2:44.04 | 51682 | 63985
6 | 14:13.11 | 3:20.13 | 63986 | 78998
7 | 17:33.24 | 3:07.55 | 78999 | 93078
8 | 20:41.04 | 2:46.24 | 93079 | 105552
9 | 23:27.28 | 2:32.74 | 105553 | 117026
10 | 26:00.27 | 3:21.58 | 117027 | 132159
11 | 29:22.10 | 2:50.61 | 132160 | 144970
12 | 32:12.71 | 3:55.19 | 144971 | 162614


Range status and errors

Selected range

Filename C:\Users\Meijin\Desktop\ALLexxess\The Who\1965 My Generation (5CD Box Set Polydor Records 2016)\CD1\The Who - My Generation CD1 Mono Mix.wav

Peak level 99.9 %
Extraction speed 6.5 X
Range quality 100.0 %
Test CRC 937B4CF9
Copy CRC 937B4CF9
Copy OK

No errors occurred


AccurateRip summary

Track 1 not present in database
Track 2 not present in database
Track 3 not present in database
Track 4 not present in database
Track 5 not present in database
Track 6 not present in database
Track 7 not present in database
Track 8 not present in database
Track 9 not present in database
Track 10 not present in database
Track 11 not present in database
Track 12 not present in database

None of the tracks are present in the AccurateRip database

End of status report

–– CUETools DB Plugin V2.1.6

[CTDB TOCID: SnVG.q_LA9Ng3njxA2GjIFHZrRc-] found
Submit result: SnVG.q_LA9Ng3njxA2GjIFHZrRc- has been confirmed
Track | CTDB Status
1 | (13/13) Accurately ripped
2 | (13/13) Accurately ripped
3 | (13/13) Accurately ripped
4 | (13/13) Accurately ripped
5 | (13/13) Accurately ripped
6 | (13/13) Accurately ripped
7 | (13/13) Accurately ripped
8 | (13/13) Accurately ripped
9 | (13/13) Accurately ripped
10 | (13/13) Accurately ripped
11 | (13/13) Accurately ripped
12 | (13/13) Accurately ripped


==== Log checksum 25282A2667FF5B00CD780EF289761E6B7165F1484674CFB7A64FED8DE41215BF ====


The Who - My Generation (1965) [2016, 5CD Box Set]

Tracklist CD2 - Original Album (New Stereo Mixes):

01 Out In The Street
02 I Don’t Mind
03 The Good’s Gone
04 La-La-La Lies
05 Much Too Much
06 My Generation
07 The Kids Are Alright
08 Please, Please, Please
09 It’s Not True
10 I’m A Man
11 A Legal Matter
12 The Ox

Exact Audio Copy V1.1 from 23. June 2015

EAC extraction logfile from 7. January 2017, 8:26

The Who / My Generation CD2 Stereo Mix

Used drive : PLEXTOR BD-R PX-B950SA Adapter: 1 ID: 1

Read mode : Secure
Utilize accurate stream : Yes
Defeat audio cache : Yes
Make use of C2 pointers : No

Read offset correction : 6
Overread into Lead-In and Lead-Out : No
Fill up missing offset samples with silence : Yes
Delete leading and trailing silent blocks : No
Null samples used in CRC calculations : Yes
Used interface : Native Win32 interface for Win NT & 2000

Used output format : Internal WAV Routines
Sample format : 44.100 Hz; 16 Bit; Stereo


TOC of the extracted CD

Track | Start | Length | Start sector | End sector
––––––––––––––––––––––––––––-
1 | 0:00.00 | 2:31.17 | 0 | 11341
2 | 2:31.17 | 2:36.25 | 11342 | 23066
3 | 5:07.42 | 4:05.38 | 23067 | 41479
4 | 9:13.05 | 2:15.55 | 41480 | 51659
5 | 11:28.60 | 2:43.25 | 51660 | 63909
6 | 14:12.10 | 3:18.53 | 63910 | 78812
7 | 17:30.63 | 3:05.57 | 78813 | 92744
8 | 20:36.45 | 2:43.53 | 92745 | 105022
9 | 23:20.23 | 2:30.04 | 105023 | 116276
10 | 25:50.27 | 3:20.27 | 116277 | 131303
11 | 29:10.54 | 2:49.55 | 131304 | 144033
12 | 32:00.34 | 3:52.48 | 144034 | 161481


Range status and errors

Selected range

Filename C:\Users\Meijin\Desktop\ALLexxess\The Who\1965 My Generation (5CD Box Set Polydor Records 2016)\CD2\The Who - My Generation CD2 Stereo Mix.wav

Peak level 99.8 %
Extraction speed 6.5 X
Range quality 100.0 %
Test CRC 666F6441
Copy CRC 666F6441
Copy OK

No errors occurred


AccurateRip summary

Track 1 not present in database
Track 2 not present in database
Track 3 not present in database
Track 4 not present in database
Track 5 not present in database
Track 6 not present in database
Track 7 not present in database
Track 8 not present in database
Track 9 not present in database
Track 10 not present in database
Track 11 not present in database
Track 12 not present in database

None of the tracks are present in the AccurateRip database

End of status report

–– CUETools DB Plugin V2.1.6

[CTDB TOCID: GZ7FFMjgL1gf0.4HIPBrY.Cl8IA-] found
Submit result: GZ7FFMjgL1gf0.4HIPBrY.Cl8IA- has been confirmed
Track | CTDB Status
1 | (12/12) Accurately ripped
2 | (12/12) Accurately ripped
3 | (12/12) Accurately ripped
4 | (12/12) Accurately ripped
5 | (12/12) Accurately ripped
6 | (12/12) Accurately ripped
7 | (12/12) Accurately ripped
8 | (12/12) Accurately ripped
9 | (12/12) Accurately ripped
10 | (12/12) Accurately ripped
11 | (12/12) Accurately ripped
12 | (12/12) Accurately ripped


==== Log checksum 2F807C50AA2746730E0CF7EBC5D99341488BC35F432F73D6652B4C7AB370B387 ====


The Who - My Generation (1965) [2016, 5CD Box Set]

Tracklist CD3 - Mono Mixes / Bonus Tracks:

01 I Can’t Explain
02 Bald Headed Woman
03 Daddy Rolling Stone
04 Leaving Here
05 Lubie, Come Back Home
06 Shout And Shimmy
07 (Love Is Like A) Heatwave
08 Motoring
09 Anytime You Want Me
10 Anyway, Anyhow, Anywhere
11 Instant Party Mixture
12 Circles
13 Anyway, Anyhow, Anywhere (French EP Mix)
14 Out In The Street (Alt Guitar Break)
15 Out In The Street (Alt Early Vocal)
16 I Don’t Mind (Full Length)
17 The Good’s Gone (Full Length)
18 My Generation (Alt Version)
19 I’m A Man (V2 / Early Vocal)
20 Daddy Rolling Stone (Alt Take)
21 Lubie (Alt Mix)
22 Shout And Shimmy (Alt Mix)
23 Circles (Alt Mix)

Exact Audio Copy V1.1 from 23. June 2015

EAC extraction logfile from 6. January 2017, 18:42

The Who / My Generation CD3 Bonus Tracks Mono

Used drive : PLEXTOR BD-R PX-B950SA Adapter: 1 ID: 1

Read mode : Secure
Utilize accurate stream : Yes
Defeat audio cache : Yes
Make use of C2 pointers : No

Read offset correction : 6
Overread into Lead-In and Lead-Out : No
Fill up missing offset samples with silence : Yes
Delete leading and trailing silent blocks : No
Null samples used in CRC calculations : Yes
Used interface : Native Win32 interface for Win NT & 2000

Used output format : Internal WAV Routines
Sample format : 44.100 Hz; 16 Bit; Stereo


TOC of the extracted CD

Track | Start | Length | Start sector | End sector
––––––––––––––––––––––––––––-
1 | 0:00.00 | 2:06.12 | 0 | 9461
2 | 2:06.12 | 2:10.05 | 9462 | 19216
3 | 4:16.17 | 2:48.45 | 19217 | 31861
4 | 7:04.62 | 2:49.18 | 31862 | 44554
5 | 9:54.05 | 3:37.57 | 44555 | 60886
6 | 13:31.62 | 3:18.26 | 60887 | 75762
7 | 16:50.13 | 2:41.67 | 75763 | 87904
8 | 19:32.05 | 2:49.35 | 87905 | 100614
9 | 22:21.40 | 2:36.66 | 100615 | 112380
10 | 24:58.31 | 2:41.25 | 112381 | 124480
11 | 27:39.56 | 3:28.41 | 124481 | 140121
12 | 31:08.22 | 3:13.25 | 140122 | 154621
13 | 34:21.47 | 2:44.49 | 154622 | 166970
14 | 37:06.21 | 2:36.52 | 166971 | 178722
15 | 39:42.73 | 2:35.43 | 178723 | 190390
16 | 42:18.41 | 4:08.40 | 190391 | 209030
17 | 46:27.06 | 4:35.04 | 209031 | 229659
18 | 51:02.10 | 3:34.02 | 229660 | 245711
19 | 54:36.12 | 3:28.33 | 245712 | 261344
20 | 58:04.45 | 3:06.66 | 261345 | 275360
21 | 61:11.36 | 3:45.34 | 275361 | 292269
22 | 64:56.70 | 3:26.36 | 292270 | 307755
23 | 68:23.31 | 3:31.60 | 307756 | 323640


Range status and errors

Selected range

Filename C:\Users\Meijin\Desktop\ALLexxess\The Who\1965 My Generation (5CD Box Set Polydor Records 2016)\CD3\The Who - My Generation CD3 Bonus Tracks Mono.wav

Peak level 99.4 %
Extraction speed 8.2 X
Range quality 100.0 %
Test CRC 23361920
Copy CRC 23361920
Copy OK

No errors occurred


AccurateRip summary

Track 1 not present in database
Track 2 not present in database
Track 3 not present in database
Track 4 not present in database
Track 5 not present in database
Track 6 not present in database
Track 7 not present in database
Track 8 not present in database
Track 9 not present in database
Track 10 not present in database
Track 11 not present in database
Track 12 not present in database
Track 13 not present in database
Track 14 not present in database
Track 15 not present in database
Track 16 not present in database
Track 17 not present in database
Track 18 not present in database
Track 19 not present in database
Track 20 not present in database
Track 21 not present in database
Track 22 not present in database
Track 23 not present in database

None of the tracks are present in the AccurateRip database

End of status report

–– CUETools DB Plugin V2.1.6

[CTDB TOCID: zV6rSnMpMxt055XaGZgyhUBeMTQ-] found
Submit result: zV6rSnMpMxt055XaGZgyhUBeMTQ- has been confirmed
Track | CTDB Status
1 | (12/12) Accurately ripped
2 | (12/12) Accurately ripped
3 | (12/12) Accurately ripped
4 | (12/12) Accurately ripped
5 | (11/12) Accurately ripped
6 | (12/12) Accurately ripped
7 | (12/12) Accurately ripped
8 | (12/12) Accurately ripped
9 | (12/12) Accurately ripped
10 | (12/12) Accurately ripped
11 | (12/12) Accurately ripped
12 | (12/12) Accurately ripped
13 | (12/12) Accurately ripped
14 | (12/12) Accurately ripped
15 | (12/12) Accurately ripped
16 | (12/12) Accurately ripped
17 | (12/12) Accurately ripped
18 | (12/12) Accurately ripped
19 | (12/12) Accurately ripped
20 | (12/12) Accurately ripped
21 | (12/12) Accurately ripped
22 | (12/12) Accurately ripped
23 | (12/12) Accurately ripped


==== Log checksum A9BC52BFBD0267B69842FFA9D4F245524499ECEC04E41D2F9A18C87C733EFDAC ====


The Who - My Generation (1965) [2016, 5CD Box Set]

Tracklist CD4 - Stereo Mixes / Bonus Tracks:

01 Out In The Street (Alt / Take 1)
02 I Don’t Mind (Full Length Version)
03 The Good’s Gone (Full Length Version)
04 My Generation (Instrumental Version)
05 The Kids Are Alright (Alt / Take 1)
06 I Can’t Explain
07 Bald Headed Woman
08 Daddy Rolling Stone
09 Daddy Rolling Stone (Alt Version)
10 Leaving Here
11 Lubie, Come Back Home
12 Shout And Shimmy
13 (Love Is Like A) Heatwave
14 Motoring
15 Anytime You Want Me
16 Instant Party Mixture
17 Anyway, Anyhow, Anywhere
18 Circles (New Mix)
19 Daddy Rolling Stone (Alt Take B / New Mix)
20 Out In The Street (Alt / Take 2)
21 I’m A Man (Alt / New Mix)

Exact Audio Copy V1.1 from 23. June 2015

EAC extraction logfile from 5. January 2017, 19:16

The Who / My Generation CD4 Bonus Tracks Stereo

Used drive : PLEXTOR BD-R PX-B950SA Adapter: 1 ID: 1

Read mode : Secure
Utilize accurate stream : Yes
Defeat audio cache : Yes
Make use of C2 pointers : No

Read offset correction : 6
Overread into Lead-In and Lead-Out : No
Fill up missing offset samples with silence : Yes
Delete leading and trailing silent blocks : No
Null samples used in CRC calculations : Yes
Used interface : Native Win32 interface for Win NT & 2000

Used output format : Internal WAV Routines
Sample format : 44.100 Hz; 16 Bit; Stereo


TOC of the extracted CD

Track | Start | Length | Start sector | End sector
––––––––––––––––––––––––––––-
1 | 0:00.00 | 2:31.17 | 0 | 11341
2 | 2:31.17 | 3:45.10 | 11342 | 28226
3 | 6:16.27 | 4:27.28 | 28227 | 48279
4 | 10:43.55 | 3:38.37 | 48280 | 64666
5 | 14:22.17 | 3:07.66 | 64667 | 78757
6 | 17:30.08 | 2:05.72 | 78758 | 88204
7 | 19:36.05 | 2:34.01 | 88205 | 99755
8 | 22:10.06 | 2:59.41 | 99756 | 113221
9 | 25:09.47 | 3:06.62 | 113222 | 127233
10 | 28:16.34 | 2:49.31 | 127234 | 139939
11 | 31:05.65 | 3:42.41 | 139940 | 156630
12 | 34:48.31 | 3:19.36 | 156631 | 171591
13 | 38:07.67 | 2:39.32 | 171592 | 183548
14 | 40:47.24 | 2:47.31 | 183549 | 196104
15 | 43:34.55 | 2:37.00 | 196105 | 207879
16 | 46:11.55 | 3:29.53 | 207880 | 223607
17 | 49:41.33 | 2:43.73 | 223608 | 235905
18 | 52:25.31 | 3:15.24 | 235906 | 250554
19 | 55:40.55 | 3:08.15 | 250555 | 264669
20 | 58:48.70 | 2:34.69 | 264670 | 276288
21 | 61:23.64 | 3:27.31 | 276289 | 291844


Range status and errors

Selected range

Filename C:\Users\Meijin\Desktop\ALLexxess\The Who\1965 My Generation (5CD Box Set Polydor Records 2016)\CD4\The Who - My Generation CD4 Bonus Tracks Stereo.wav

Peak level 99.1 %
Extraction speed 8.0 X
Range quality 100.0 %
Test CRC 249BD1A5
Copy CRC 249BD1A5
Copy OK

No errors occurred


AccurateRip summary

Track 1 not present in database
Track 2 not present in database
Track 3 not present in database
Track 4 not present in database
Track 5 not present in database
Track 6 not present in database
Track 7 not present in database
Track 8 not present in database
Track 9 not present in database
Track 10 not present in database
Track 11 not present in database
Track 12 not present in database
Track 13 not present in database
Track 14 not present in database
Track 15 not present in database
Track 16 not present in database
Track 17 not present in database
Track 18 not present in database
Track 19 not present in database
Track 20 not present in database
Track 21 not present in database

None of the tracks are present in the AccurateRip database

End of status report

–– CUETools DB Plugin V2.1.6

[CTDB TOCID: 7J38Yj2DSiA1udnmJLGWUD95vO8-] found
Submit result: 7J38Yj2DSiA1udnmJLGWUD95vO8- has been confirmed
Track | CTDB Status
1 | (11/11) Accurately ripped
2 | (11/11) Accurately ripped
3 | (11/11) Accurately ripped
4 | (11/11) Accurately ripped
5 | (11/11) Accurately ripped
6 | (11/11) Accurately ripped
7 | (11/11) Accurately ripped
8 | (11/11) Accurately ripped
9 | (11/11) Accurately ripped
10 | (11/11) Accurately ripped
11 | (11/11) Accurately ripped
12 | (11/11) Accurately ripped
13 | (11/11) Accurately ripped
14 | (11/11) Accurately ripped
15 | (11/11) Accurately ripped
16 | (11/11) Accurately ripped
17 | (11/11) Accurately ripped
18 | (11/11) Accurately ripped
19 | (11/11) Accurately ripped
20 | (11/11) Accurately ripped
21 | (11/11) Accurately ripped


==== Log checksum 65E482F2654908CA621F6837EC1FCEDDE84B599A6115FB6F26AD2F9015202F08 ====


The Who - My Generation (1965) [2016, 5CD Box Set]

Tracklist CD5 - The Demos:

01 My Generation (V 3)
02 My Generation (V 2 / Fragment)
03 The Girls I Could’ve Had
04 It’s Not True
05 As Children We Grew
06 Legal Matter
07 Sunrise (V 1)
08 Much Too Much
09 My Own Love
10 La-La-La- Lies
11 The Good’s Gone

Exact Audio Copy V1.1 from 23. June 2015

EAC extraction logfile from 5. January 2017, 7:44

The Who / My Generation CD5 Demos

Used drive : PLEXTOR BD-R PX-B950SA Adapter: 1 ID: 1

Read mode : Secure
Utilize accurate stream : Yes
Defeat audio cache : Yes
Make use of C2 pointers : No

Read offset correction : 6
Overread into Lead-In and Lead-Out : No
Fill up missing offset samples with silence : Yes
Delete leading and trailing silent blocks : No
Null samples used in CRC calculations : Yes
Used interface : Native Win32 interface for Win NT & 2000

Used output format : Internal WAV Routines
Sample format : 44.100 Hz; 16 Bit; Stereo


TOC of the extracted CD

Track | Start | Length | Start sector | End sector
––––––––––––––––––––––––––––-
1 | 0:00.00 | 3:05.47 | 0 | 13921
2 | 3:05.47 | 1:02.70 | 13922 | 18641
3 | 4:08.42 | 2:57.07 | 18642 | 31923
4 | 7:05.49 | 2:47.46 | 31924 | 44494
5 | 9:53.20 | 1:43.56 | 44495 | 52275
6 | 11:37.01 | 3:00.03 | 52276 | 65778
7 | 14:37.04 | 2:31.23 | 65779 | 77126
8 | 17:08.27 | 3:20.31 | 77127 | 92157
9 | 20:28.58 | 3:25.01 | 92158 | 107533
10 | 23:53.59 | 1:59.07 | 107534 | 116465
11 | 25:52.66 | 3:38.59 | 116466 | 132874


Range status and errors

Selected range

Filename C:\Users\Meijin\Desktop\ALLexxess\The Who\1965 My Generation (5CD Box Set Polydor Records 2016)\CD5\The Who - My Generation CD5 Demos.wav

Peak level 99.1 %
Extraction speed 6.2 X
Range quality 100.0 %
Test CRC 1D74731D
Copy CRC 1D74731D
Copy OK

No errors occurred


AccurateRip summary

Track 1 not present in database
Track 2 not present in database
Track 3 not present in database
Track 4 not present in database
Track 5 not present in database
Track 6 not present in database
Track 7 not present in database
Track 8 not present in database
Track 9 not present in database
Track 10 not present in database
Track 11 not present in database

None of the tracks are present in the AccurateRip database

End of status report

–– CUETools DB Plugin V2.1.6

[CTDB TOCID: NVOSUxafmZjNDLyj5IhL7YX1ebk-] found
Submit result: NVOSUxafmZjNDLyj5IhL7YX1ebk- has been confirmed
Track | CTDB Status
1 | (12/12) Accurately ripped
2 | (12/12) Accurately ripped
3 | (12/12) Accurately ripped
4 | (12/12) Accurately ripped
5 | (12/12) Accurately ripped
6 | (12/12) Accurately ripped
7 | (12/12) Accurately ripped
8 | (12/12) Accurately ripped
9 | (12/12) Accurately ripped
10 | (12/12) Accurately ripped
11 | (12/12) Accurately ripped


==== Log checksum 510A9C4F5B9EB966EB8EDC502C00A1613A8D2B7D9641E71DA19EF3BC6455260E ====


The Who - My Generation (1965) [2016, 5CD Box Set]

All thanks go to ALLexxess

The Who in my Blog

Download The Who - My Generation (1965):