Subcategories

The Who - Quadrophenia (1973) [2011, 4CD + DVD Box Set]

Posted By: v3122
The Who - Quadrophenia (1973) [2011, 4CD + DVD Box Set]

The Who - Quadrophenia (1973)
EAC | Flac(Image) + Cue + Log
Universal Music Japan, UICY-91798 | ~ 1239 Mb | Scans(png) -> 4.31 Mb
DVD9: NTSC 4:3 (720x480) VBR | LPCM, 2 ch / DTS, 6 ch -> 6.39 Gb
Hard Rock, Classic Rock

Digitally remastered and expanded Super Deluxe edition of this 1973 concept album by the British Rock icons contains four CDs, a DVD and a vinyl seven inch single. This box set gives a unique insight into the creation of this landmark album and features a remaster of the original double album, Pete Townshend's previously unheard demos including songs that didn't make it onto the original album, an exclusive eight track 5.1 sound DVD, a deluxe hard-back book, previously unseen personal notes, photographs, memorabilia and other exclusive material.
The Who - Quadrophenia (1973) [2011, 4CD + DVD Box Set]

The Who - Quadrophenia (1973):

The Who - Quadrophenia (1973) [2011, 4CD + DVD Box Set]

Tracklist CD1 - The Original Album (Remaster 2011):

01. I Am The Sea 02:09
02. The Real Me 03:20
03. Quadrophenia 06:13
04. Cut My Hair 03:44
05. The Punk And The Godfather 05:11
06. I'm One 02:37
07. The Dirty Jobs 04:28
08. Helpless Dancer 02:33
09. Is It In My Head? 03:43
10. I've Had Enough 06:16

Exact Audio Copy V1.0 beta 3 from 29. August 2011

EAC extraction logfile from 28. November 2011, 11:47

The Who / Quadrophenia CD1

Used drive : HL-DT-STDVDRAM GSA-H60N Adapter: 2 ID: 0

Read mode : Secure
Utilize accurate stream : Yes
Defeat audio cache : Yes
Make use of C2 pointers : No

Read offset correction : 667
Overread into Lead-In and Lead-Out : No
Fill up missing offset samples with silence : Yes
Delete leading and trailing silent blocks : No
Null samples used in CRC calculations : Yes
Used interface : Native Win32 interface for Win NT & 2000

Used output format : Internal WAV Routines
Sample format : 44.100 Hz; 16 Bit; Stereo


TOC of the extracted CD

Track | Start | Length | Start sector | End sector
––––––––––––––––––––––––––––-
1 | 0:00.00 | 2:09.66 | 0 | 9740
2 | 2:09.66 | 3:20.53 | 9741 | 24793
3 | 5:30.44 | 6:13.10 | 24794 | 52778
4 | 11:43.54 | 3:44.62 | 52779 | 69640
5 | 15:28.41 | 5:11.14 | 69641 | 92979
6 | 20:39.55 | 2:37.64 | 92980 | 104818
7 | 23:17.44 | 4:28.70 | 104819 | 124988
8 | 27:46.39 | 2:33.41 | 124989 | 136504
9 | 30:20.05 | 3:43.34 | 136505 | 153263
10 | 34:03.39 | 6:16.19 | 153264 | 181482


Range status and errors

Selected range

Filename C:\Documents and Settings\Admin\Рабочий стол\ALLexxess\2011 Quadrophenia (4SHM-CD + DVD-A + 7'' Single Box Set Universal Music Japan 2011)\CD1\The Who - Quadrophenia CD1.wav

Peak level 98.7 %
Extraction speed 5.6 X
Range quality 100.0 %
Test CRC 44441640
Copy CRC 44441640
Copy OK

No errors occurred


AccurateRip summary

Track 1 accurately ripped (confidence 1) [3D5E3FF0] (AR v2)
Track 2 accurately ripped (confidence 1) [2FB27C48] (AR v2)
Track 3 accurately ripped (confidence 1) [3C87B816] (AR v2)
Track 4 accurately ripped (confidence 1) [1025DAFA] (AR v2)
Track 5 accurately ripped (confidence 1) [7F84398D] (AR v2)
Track 6 accurately ripped (confidence 1) [3E65B68D] (AR v2)
Track 7 accurately ripped (confidence 1) [EDB4E645] (AR v2)
Track 8 accurately ripped (confidence 1) [483FF7BB] (AR v2)
Track 9 accurately ripped (confidence 1) [4AB31984] (AR v2)
Track 10 accurately ripped (confidence 1) [204FCFFA] (AR v2)

All tracks accurately ripped

End of status report

==== Log checksum 3F02E4CB31777B41CB08BC99FCA85279C40DD4086D1A8D37EF5A2CCAF668854F ====


[CUETools log; Date: 23.05.2018 20:12:20; Version: 2.1.5]
[CTDB TOCID: gInasGHG1Ice2UYDG9uH_o2Lgys-] found.
Track | CTDB Status
1 | (47/47) Accurately ripped
2 | (47/47) Accurately ripped
3 | (47/47) Accurately ripped
4 | (47/47) Accurately ripped
5 | (47/47) Accurately ripped
6 | (47/47) Accurately ripped
7 | (47/47) Accurately ripped
8 | (46/47) Accurately ripped
9 | (47/47) Accurately ripped
10 | (47/47) Accurately ripped
[AccurateRip ID: 000e82d3-007586c1-7209730a] found.
Track [ CRC | V2 ] Status
01 [2f567640|3d5e3ff0] (06+49/55) Accurately ripped
02 [abed0299|2fb27c48] (06+49/55) Accurately ripped
03 [7595891f|3c87b816] (06+49/55) Accurately ripped
04 [725810fc|1025dafa] (05+49/54) Accurately ripped
05 [31d67b77|7f84398d] (06+49/55) Accurately ripped
06 [370d7100|3e65b68d] (06+49/55) Accurately ripped
07 [b833653a|edb4e645] (06+49/55) Accurately ripped
08 [6ece7f45|483ff7bb] (04+48/54) Accurately ripped
09 [5f24434a|4ab31984] (06+49/55) Accurately ripped
10 [a4ac41cf|204fcffa] (06+49/55) Accurately ripped

Track Peak [ CRC32 ] [W/O NULL] [ LOG ]
– 98,7 [44441640] [074ABFC2] CRC32
01 81,9 [EA0A2AE5] [2288294E]
02 98,7 [47CD319B] [D47B6879]
03 98,7 [64FA4D2D] [D7A03A2D]
04 98,7 [D24DABEA] [7D2EDE9D]
05 98,7 [DDF54165] [5180F16E]
06 98,7 [05BDA2D7] [084D9555]
07 98,7 [937E8F24] [2846CCE1]
08 88,9 [5867FDFF] [29E5783F]
09 98,7 [C7F5AA11] [BF7E52C6]
10 98,6 [51B047B5] [4DACEE8B]


The Who - Quadrophenia (1973) [2011, 4CD + DVD Box Set]

Tracklist CD2 - The Original Album (Remaster 2011):

01. 5:15 05:00
02. Sea And Sand 05:01
03. Drowned 05:26
04. Bell Boy 04:58
05. Doctor Jimmy 08:35
06. The Rock 06:37
07. Love, Reign O'er Me 05:49

Exact Audio Copy V1.0 beta 3 from 29. August 2011

EAC extraction logfile from 28. November 2011, 12:32

The Who / Quadrophenia CD2

Used drive : HL-DT-STDVDRAM GSA-H60N Adapter: 2 ID: 0

Read mode : Secure
Utilize accurate stream : Yes
Defeat audio cache : Yes
Make use of C2 pointers : No

Read offset correction : 667
Overread into Lead-In and Lead-Out : No
Fill up missing offset samples with silence : Yes
Delete leading and trailing silent blocks : No
Null samples used in CRC calculations : Yes
Used interface : Native Win32 interface for Win NT & 2000

Used output format : Internal WAV Routines
Sample format : 44.100 Hz; 16 Bit; Stereo


TOC of the extracted CD

Track | Start | Length | Start sector | End sector
––––––––––––––––––––––––––––-
1 | 0:00.00 | 5:00.61 | 0 | 22560
2 | 5:00.61 | 5:01.36 | 22561 | 45171
3 | 10:02.22 | 5:26.56 | 45172 | 69677
4 | 15:29.03 | 4:58.08 | 69678 | 92035
5 | 20:27.11 | 8:35.72 | 92036 | 130732
6 | 29:03.08 | 6:37.33 | 130733 | 160540
7 | 35:40.41 | 5:49.45 | 160541 | 186760


Range status and errors

Selected range

Filename C:\Documents and Settings\Admin\Рабочий стол\ALLexxess\2011 Quadrophenia (4SHM-CD + DVD-A + 7'' Single Box Set Universal Music Japan 2011)\CD2\The Who - Quadrophenia CD2.wav

Peak level 98.8 %
Extraction speed 5.6 X
Range quality 100.0 %
Test CRC 3076D64A
Copy CRC 3076D64A
Copy OK

No errors occurred


AccurateRip summary

Track 1 accurately ripped (confidence 1) [A57DB453] (AR v2)
Track 2 accurately ripped (confidence 1) [B4D44FBD] (AR v2)
Track 3 accurately ripped (confidence 1) [939DE86E] (AR v2)
Track 4 accurately ripped (confidence 1) [ED956573] (AR v2)
Track 5 accurately ripped (confidence 1) [3DB2621D] (AR v2)
Track 6 accurately ripped (confidence 1) [AD7ED75B] (AR v2)
Track 7 accurately ripped (confidence 1) [3F5DE131] (AR v2)

All tracks accurately ripped

End of status report

==== Log checksum 9A1C50ADFB1EE9BECCE4A916CE394EEF63702A3696CEFA95AEC2D2EA12A3F41A ====


[CUETools log; Date: 23.05.2018 20:12:56; Version: 2.1.5]
[CTDB TOCID: ..6vGc1YZ7e5234_oegjv1CC5b4-] found.
Track | CTDB Status
1 | (50/50) Accurately ripped
2 | (50/50) Accurately ripped
3 | (50/50) Accurately ripped
4 | (50/50) Accurately ripped
5 | (50/50) Accurately ripped
6 | (50/50) Accurately ripped
7 | (50/50) Accurately ripped
[AccurateRip ID: 000acb9a-0041f20c-4609ba07] found.
Track [ CRC | V2 ] Status
01 [408c7242|a57db453] (07+50/57) Accurately ripped
02 [35473111|b4d44fbd] (07+50/57) Accurately ripped
03 [9eac7f7c|939de86e] (07+50/57) Accurately ripped
04 [bcab0d57|ed956573] (07+50/57) Accurately ripped
05 [7b38c9a3|3db2621d] (07+50/57) Accurately ripped
06 [62acd414|ad7ed75b] (07+50/57) Accurately ripped
07 [b0ad3517|3f5de131] (07+50/57) Accurately ripped

Track Peak [ CRC32 ] [W/O NULL] [ LOG ]
– 98,8 [3076D64A] [971A436A] CRC32
01 98,8 [7531E035] [6F064BCA]
02 98,7 [F2B712A9] [892F7BCC]
03 98,7 [9C799188] [A4632F08]
04 98,7 [733C7065] [7882D1B3]
05 98,7 [9CDF6715] [41DA4CB0]
06 98,7 [10AC0BDB] [9D38BCA4]
07 98,7 [E5DAE5BA] [3BD98003]


The Who - Quadrophenia (1973) [2011, 4CD + DVD Box Set]

Tracklist CD3 - The Demos Pete Townshend:

01. The Real Me 04:26
02. Quadrophenia - Four Overtures 06:21
03. Cut My Hair 03:30
04. Fill No. 1 - Get Out And Stay Out 01:23
05. Quadrophenic - Four Faces 04:04
06. We Close Tonight 02:43
07. You Came Back 03:18
08. Get Inside 03:11
09. Joker James 03:42
10. Punk 04:56
11. I'm One 02:39
12. Dirty Jobs 03:47
13. Helpless Dancer 02:16

Exact Audio Copy V1.0 beta 3 from 29. August 2011

EAC extraction logfile from 28. November 2011, 13:40

The Who / Quadrophenia CD3

Used drive : HL-DT-STDVDRAM GSA-H60N Adapter: 2 ID: 0

Read mode : Secure
Utilize accurate stream : Yes
Defeat audio cache : Yes
Make use of C2 pointers : No

Read offset correction : 667
Overread into Lead-In and Lead-Out : No
Fill up missing offset samples with silence : Yes
Delete leading and trailing silent blocks : No
Null samples used in CRC calculations : Yes
Used interface : Native Win32 interface for Win NT & 2000

Used output format : Internal WAV Routines
Sample format : 44.100 Hz; 16 Bit; Stereo


TOC of the extracted CD

Track | Start | Length | Start sector | End sector
––––––––––––––––––––––––––––-
1 | 0:00.00 | 4:26.51 | 0 | 20000
2 | 4:26.51 | 6:21.26 | 20001 | 48601
3 | 10:48.02 | 3:30.26 | 48602 | 64377
4 | 14:18.28 | 1:23.36 | 64378 | 70638
5 | 15:41.64 | 4:04.03 | 70639 | 88941
6 | 19:45.67 | 2:43.45 | 88942 | 101211
7 | 22:29.37 | 3:18.53 | 101212 | 116114
8 | 25:48.15 | 3:11.37 | 116115 | 130476
9 | 28:59.52 | 3:42.10 | 130477 | 147136
10 | 32:41.62 | 4:56.37 | 147137 | 169373
11 | 37:38.24 | 2:39.06 | 169374 | 181304
12 | 40:17.30 | 3:47.49 | 181305 | 198378
13 | 44:05.04 | 2:16.18 | 198379 | 208596


Range status and errors

Selected range

Filename C:\Documents and Settings\Admin\Рабочий стол\ALLexxess\2011 Quadrophenia (4SHM-CD + DVD-A + 7'' Single Box Set Universal Music Japan 2011)\CD3\The Who - Quadrophenia CD3.wav

Peak level 98.7 %
Extraction speed 1.9 X
Range quality 100.0 %
Test CRC AAA55686
Copy CRC AAA55686
Copy OK

No errors occurred


AccurateRip summary

Track 1 accurately ripped (confidence 1) [C5226512] (AR v2)
Track 2 accurately ripped (confidence 1) [41CAFD7F] (AR v2)
Track 3 accurately ripped (confidence 1) [5BA76DB1] (AR v2)
Track 4 accurately ripped (confidence 1) [963FF293] (AR v2)
Track 5 accurately ripped (confidence 1) [4F4332D4] (AR v2)
Track 6 accurately ripped (confidence 1) [5CE219A0] (AR v2)
Track 7 accurately ripped (confidence 1) [078D85AC] (AR v2)
Track 8 accurately ripped (confidence 1) [5FEE7A35] (AR v2)
Track 9 accurately ripped (confidence 1) [137FC086] (AR v2)
Track 10 accurately ripped (confidence 1) [CD916174] (AR v2)
Track 11 accurately ripped (confidence 1) [0AACE118] (AR v2)
Track 12 accurately ripped (confidence 1) [558AF43A] (AR v2)
Track 13 accurately ripped (confidence 1) [0D885F07] (AR v2)

All tracks accurately ripped

End of status report

==== Log checksum 564A64FFDBCFA67C007C9C98D934848BC6C050528FA3B12FDA2DA066C0CE4218 ====


[CUETools log; Date: 23.05.2018 20:13:29; Version: 2.1.5]
[CTDB TOCID: 04sAN2kTd7QcXZIqAm1yJoadFQY-] found.
Track | CTDB Status
1 | (45/46) Accurately ripped
2 | (46/46) Accurately ripped
3 | (46/46) Accurately ripped
4 | (46/46) Accurately ripped
5 | (46/46) Accurately ripped
6 | (46/46) Accurately ripped
7 | (46/46) Accurately ripped
8 | (46/46) Accurately ripped
9 | (46/46) Accurately ripped
10 | (46/46) Accurately ripped
11 | (46/46) Accurately ripped
12 | (46/46) Accurately ripped
13 | (46/46) Accurately ripped
[AccurateRip ID: 001793c6-00e730be-ae0add0d] found.
Track [ CRC | V2 ] Status
01 [f82a43d9|c5226512] (06+48/54) Accurately ripped
02 [9d5e8d7d|41cafd7f] (06+49/55) Accurately ripped
03 [ac15efb8|5ba76db1] (06+49/55) Accurately ripped
04 [156954b1|963ff293] (06+49/55) Accurately ripped
05 [4e405792|4f4332d4] (06+49/55) Accurately ripped
06 [f9502d7d|5ce219a0] (06+49/55) Accurately ripped
07 [3075624e|078d85ac] (06+49/55) Accurately ripped
08 [a6220d05|5fee7a35] (06+49/55) Accurately ripped
09 [f2b54d94|137fc086] (06+49/55) Accurately ripped
10 [c97fadbb|cd916174] (05+49/54) Accurately ripped
11 [c700a294|0aace118] (06+49/55) Accurately ripped
12 [d3adc58e|558af43a] (06+49/55) Accurately ripped
13 [094ba3ad|0d885f07] (06+49/55) Accurately ripped

Track Peak [ CRC32 ] [W/O NULL] [ LOG ]
– 98,7 [AAA55686] [4C62CA30] CRC32
01 98,7 [797D2F0C] [1CA5D15A]
02 98,7 [C51968B1] [7F19409B]
03 98,7 [DEA9B957] [BD753E83]
04 98,7 [F051E1BE] [6C20BC82]
05 98,7 [B637B3CB] [46CAE617]
06 98,7 [5E4BFE68] [F5F706DC]
07 98,7 [E80EE5C1] [5A4AEBE9]
08 98,7 [851D0324] [788329E6]
09 98,7 [4272CED8] [607F07FE]
10 98,7 [A85E4E07] [C7878ED6]
11 98,7 [C603D568] [E9D8F063]
12 98,7 [80FF3CC0] [334B0718]
13 98,7 [B24CF4D9] [FC601F0A]


The Who - Quadrophenia (1973) [2011, 4CD + DVD Box Set]

Tracklist CD4 - The Demos Pete Townshend:

01. Is It In My Head? 04:12
02. Any More 03:21
03. I've Had Enough 06:23
04. Fill No. 2 01:31
05. Wizardry 03:10
06. Sea And Sand 04:14
07. Drowned 04:15
08. Is It Me 04:39
09. Bell Boy 05:03
10. Dr Jimmy 07:29
11. Finale - The Rock 07:59
12. Love Reign O'er Me 05:11

Exact Audio Copy V1.0 beta 3 from 29. August 2011

EAC extraction logfile from 28. November 2011, 14:55

The Who / Quadrophenia CD4

Used drive : HL-DT-STDVDRAM GSA-H60N Adapter: 2 ID: 0

Read mode : Secure
Utilize accurate stream : Yes
Defeat audio cache : Yes
Make use of C2 pointers : No

Read offset correction : 667
Overread into Lead-In and Lead-Out : No
Fill up missing offset samples with silence : Yes
Delete leading and trailing silent blocks : No
Null samples used in CRC calculations : Yes
Used interface : Native Win32 interface for Win NT & 2000

Used output format : Internal WAV Routines
Sample format : 44.100 Hz; 16 Bit; Stereo


TOC of the extracted CD

Track | Start | Length | Start sector | End sector
––––––––––––––––––––––––––––-
1 | 0:00.00 | 4:12.64 | 0 | 18963
2 | 4:12.64 | 3:21.68 | 18964 | 34106
3 | 7:34.57 | 6:23.26 | 34107 | 62857
4 | 13:58.08 | 1:31.45 | 62858 | 69727
5 | 15:29.53 | 3:10.51 | 69728 | 84028
6 | 18:40.29 | 4:14.34 | 84029 | 103112
7 | 22:54.63 | 4:15.25 | 103113 | 122262
8 | 27:10.13 | 4:39.23 | 122263 | 143210
9 | 31:49.36 | 5:03.64 | 143211 | 165999
10 | 36:53.25 | 7:29.73 | 166000 | 199747
11 | 44:23.23 | 7:59.46 | 199748 | 235718
12 | 52:22.69 | 5:11.44 | 235719 | 259087


Range status and errors

Selected range

Filename C:\Documents and Settings\Admin\Рабочий стол\ALLexxess\2011 Quadrophenia (4SHM-CD + DVD-A + 7'' Single Box Set Universal Music Japan 2011)\CD4\The Who - Quadrophenia CD4.wav

Peak level 99.9 %
Extraction speed 2.0 X
Range quality 100.0 %
Test CRC A371D0E9
Copy CRC A371D0E9
Copy OK

No errors occurred


AccurateRip summary

Track 1 accurately ripped (confidence 1) [30860B97] (AR v2)
Track 2 accurately ripped (confidence 1) [6CBD0214] (AR v2)
Track 3 accurately ripped (confidence 1) [3B03F39E] (AR v2)
Track 4 accurately ripped (confidence 1) [08E54149] (AR v2)
Track 5 accurately ripped (confidence 1) [F5064BD6] (AR v2)
Track 6 accurately ripped (confidence 1) [DF272880] (AR v2)
Track 7 accurately ripped (confidence 1) [EE28CFD2] (AR v2)
Track 8 accurately ripped (confidence 1) [9D9BB09D] (AR v2)
Track 9 accurately ripped (confidence 1) [0DD3DD2D] (AR v2)
Track 10 accurately ripped (confidence 1) [5A4D1604] (AR v2)
Track 11 accurately ripped (confidence 1) [8805027F] (AR v2)
Track 12 accurately ripped (confidence 1) [85B73203] (AR v2)

All tracks accurately ripped

End of status report

==== Log checksum D2DB8B5D9F70BD9FA37C6E7AED34EBD7D543ACE4C7A4C93BF491C67670623500 ====


[CUETools log; Date: 23.05.2018 20:13:58; Version: 2.1.5]
[CTDB TOCID: e8RaAGcmfjM37IiF5I5naWcMor8-] found.
Track | CTDB Status
1 | (45/45) Accurately ripped
2 | (45/45) Accurately ripped
3 | (45/45) Accurately ripped
4 | (45/45) Accurately ripped
5 | (45/45) Accurately ripped
6 | (45/45) Accurately ripped
7 | (45/45) Accurately ripped
8 | (45/45) Accurately ripped
9 | (45/45) Accurately ripped
10 | (45/45) Accurately ripped
11 | (45/45) Accurately ripped
12 | (44/45) Accurately ripped
[AccurateRip ID: 0016decc-00da01ba-8d0d7e0c] found.
Track [ CRC | V2 ] Status
01 [a1ed6e3f|30860b97] (06+49/55) Accurately ripped
02 [335d9fee|6cbd0214] (06+49/55) Accurately ripped
03 [2880e9c4|3b03f39e] (06+49/55) Accurately ripped
04 [8ba9982b|08e54149] (05+49/54) Accurately ripped
05 [5cfac564|f5064bd6] (06+49/55) Accurately ripped
06 [f7c404bc|df272880] (06+49/55) Accurately ripped
07 [71804229|ee28cfd2] (06+49/55) Accurately ripped
08 [50cd0cfc|9d9bb09d] (06+49/55) Accurately ripped
09 [1cf3a90f|0dd3dd2d] (06+48/54) Accurately ripped
10 [ec80f263|5a4d1604] (06+48/54) Accurately ripped
11 [94b6e2c5|8805027f] (06+49/55) Accurately ripped
12 [dd59b707|85b73203] (06+49/55) Accurately ripped

Track Peak [ CRC32 ] [W/O NULL] [ LOG ]
– 99,9 [A371D0E9] [E6165120] CRC32
01 99,8 [FDBF7051] [D7794FEC]
02 94,0 [45FEC326] [4165505A]
03 99,9 [C3DBDB70] [03CCED77]
04 99,6 [1643C2BF] [DA80F0BF]
05 99,8 [ECC4B01A] [BA13BBF7]
06 99,9 [3CC86637] [5BEC8243]
07 99,9 [A388E9EA] [D60DE8D0]
08 99,8 [E16E4BD1] [041B630B]
09 99,9 [D2ABB07C] [E133A867]
10 99,8 [70A2DC4A] [D6072DCD]
11 99,9 [2CC1797F] [84E5A867]
12 99,8 [888E9EDA] [A04B2984]


The Who - Quadrophenia (1973) [2011, 4CD + DVD Box Set]

Tracklist DVD:
5.1ch surround mix (MLP 96kHz/24bit linear PCM & DTS digital surround)
2ch stereo (MLP 96kHz/24bit linear PCM)


01. I Am The Sea
02. The Real Me
03. Quadrophenia
04. I've Had Enough
05. 5:15
06. Doctor Jimmy
07. The Rock
08. Love, Reign O'er Me

General
Complete name : W:\UP\Mix\The Who - 1973 - Quadrophenia\DVD\AUDIO_TS\ATS_01_0.BUP
File size : 4.00 KiB

General
Complete name : W:\UP\Mix\The Who - 1973 - Quadrophenia\DVD\AUDIO_TS\ATS_01_0.IFO
File size : 4.00 KiB

General
Complete name : W:\UP\Mix\The Who - 1973 - Quadrophenia\DVD\AUDIO_TS\ATS_01_1.AOB
Format : MPEG-PS
File size : 1 024 MiB
Duration : 19mn 44s
Overall bit rate mode : Variable
Overall bit rate : 7 255 Kbps

Audio
ID : 189 (0xBD)-161 (0xA1)
Format : MLP
Muxing mode : DVD-Video
Duration : 19mn 44s
Bit rate mode : Variable
Maximum bit rate : 9 600 Kbps
Channel(s) : 6 channels
Sampling rate : 96.0 KHz
Bit depth : 24 bits

General
Complete name : W:\UP\Mix\The Who - 1973 - Quadrophenia\DVD\AUDIO_TS\ATS_01_2.AOB
Format : MPEG-PS
File size : 1 024 MiB
Duration : 20mn 7s
Overall bit rate mode : Variable
Overall bit rate : 7 116 Kbps

Audio
ID : 189 (0xBD)-161 (0xA1)
Format : MLP
Muxing mode : DVD-Video
Duration : 20mn 7s
Bit rate mode : Variable
Maximum bit rate : 9 600 Kbps
Channel(s) : 6 channels
Sampling rate : 96.0 KHz
Bit depth : 24 bits

General
Complete name : W:\UP\Mix\The Who - 1973 - Quadrophenia\DVD\AUDIO_TS\ATS_01_3.AOB
Format : MPEG-PS
File size : 1 024 MiB
Overall bit rate mode : Variable

Audio
ID : 189 (0xBD)-161 (0xA1)
Format : MLP
Muxing mode : DVD-Video
Bit rate mode : Variable
Maximum bit rate : 9 600 Kbps
Channel(s) : 6 channels
Sampling rate : 96.0 KHz
Bit depth : 24 bits

General
Complete name : W:\UP\Mix\The Who - 1973 - Quadrophenia\DVD\AUDIO_TS\ATS_01_4.AOB
Format : MPEG-PS
File size : 201 MiB
Overall bit rate mode : Variable

Audio
ID : 189 (0xBD)-161 (0xA1)
Format : MLP
Muxing mode : DVD-Video
Bit rate mode : Variable
Maximum bit rate : 9 600 Kbps
Channel(s) : 2 channels
Sampling rate : 96.0 KHz
Bit depth : 24 bits

General
Complete name : W:\UP\Mix\The Who - 1973 - Quadrophenia\DVD\AUDIO_TS\ATS_02_0.BUP
File size : 4.00 KiB

General
Complete name : W:\UP\Mix\The Who - 1973 - Quadrophenia\DVD\AUDIO_TS\ATS_02_0.IFO
File size : 4.00 KiB

General
Complete name : W:\UP\Mix\The Who - 1973 - Quadrophenia\DVD\AUDIO_TS\AUDIO_PP.IFO
File size : 128 KiB

General
Complete name : W:\UP\Mix\The Who - 1973 - Quadrophenia\DVD\AUDIO_TS\AUDIO_SV.BUP
File size : 4.00 KiB

General
Complete name : W:\UP\Mix\The Who - 1973 - Quadrophenia\DVD\AUDIO_TS\AUDIO_SV.IFO
File size : 4.00 KiB

General
Complete name : W:\UP\Mix\The Who - 1973 - Quadrophenia\DVD\AUDIO_TS\AUDIO_SV.VOB
Format : MPEG-PS
File size : 1.81 MiB
Duration : 33ms
Overall bit rate mode : Variable
Overall bit rate : 460 Mbps

Video
ID : 224 (0xE0)
Format : MPEG Video
Format version : Version 2
Format profile : Main@Main
Format settings, BVOP : No
Format settings, Matrix : Custom
Format settings, GOP : N=1
Duration : 33ms
Bit rate mode : Variable
Maximum bit rate : 4 587 Kbps
Width : 720 pixels
Height : 480 pixels
Display aspect ratio : 4:3
Frame rate : 29.970 fps
Standard : NTSC
Color space : YUV
Chroma subsampling : 4:2:0
Bit depth : 8 bits
Scan type : Progressive
Compression mode : Lossy
Color primaries : BT.601 NTSC
Transfer characteristics : BT.601
Matrix coefficients : BT.601

Text
ID : 189 (0xBD)-32 (0x20)
Format : RLE
Format/Info : Run-length encoding
Muxing mode : DVD-Video

Menu

General
Complete name : W:\UP\Mix\The Who - 1973 - Quadrophenia\DVD\AUDIO_TS\AUDIO_TS.BUP
File size : 8.00 KiB

General
Complete name : W:\UP\Mix\The Who - 1973 - Quadrophenia\DVD\AUDIO_TS\AUDIO_TS.IFO
File size : 8.00 KiB

General
Complete name : W:\UP\Mix\The Who - 1973 - Quadrophenia\DVD\AUDIO_TS\AUDIO_TS.VOB
Format : MPEG-PS
File size : 454 KiB
Duration : 33ms
Overall bit rate mode : Variable
Overall bit rate : 113 Mbps

Video
ID : 224 (0xE0)
Format : MPEG Video
Format version : Version 2
Format profile : Main@Main
Format settings, BVOP : No
Format settings, Matrix : Custom
Duration : 33ms
Bit rate mode : Variable
Maximum bit rate : 4 587 Kbps
Width : 720 pixels
Height : 480 pixels
Display aspect ratio : 4:3
Frame rate : 29.970 fps
Standard : NTSC
Color space : YUV
Chroma subsampling : 4:2:0
Bit depth : 8 bits
Scan type : Progressive
Compression mode : Lossy
Color primaries : BT.601 NTSC
Transfer characteristics : BT.601
Matrix coefficients : BT.601

Text
ID : 189 (0xBD)-32 (0x20)
Format : RLE
Format/Info : Run-length encoding
Muxing mode : DVD-Video

Menu

General
Complete name : W:\UP\Mix\The Who - 1973 - Quadrophenia\DVD\VIDEO_TS\VIDEO_TS.BUP
Format : DVD Video
Format profile : Menu
File size : 12.0 KiB
Overall bit rate mode : Variable

Video
ID : 224 (0xE0)
Format : MPEG Video
Format version : Version 2
Bit rate mode : Variable
Width : 720 pixels
Height : 480 pixels
Display aspect ratio : 4:3
Frame rate : 29.970 fps
Standard : NTSC
Compression mode : Lossy

Text
Format : RLE
Format/Info : Run-length encoding
Bit depth : 2 bits

General
Complete name : W:\UP\Mix\The Who - 1973 - Quadrophenia\DVD\VIDEO_TS\VIDEO_TS.IFO
Format : DVD Video
Format profile : Menu
File size : 12.0 KiB
Overall bit rate mode : Variable

Video
ID : 224 (0xE0)
Format : MPEG Video
Format version : Version 2
Bit rate mode : Variable
Width : 720 pixels
Height : 480 pixels
Display aspect ratio : 4:3
Frame rate : 29.970 fps
Standard : NTSC
Compression mode : Lossy

Text
Format : RLE
Format/Info : Run-length encoding
Bit depth : 2 bits

General
Complete name : W:\UP\Mix\The Who - 1973 - Quadrophenia\DVD\VIDEO_TS\VIDEO_TS.VOB
Format : MPEG-PS
File size : 40.0 KiB
Duration : 33ms
Overall bit rate mode : Variable
Overall bit rate : 9 930 Kbps

Video
ID : 224 (0xE0)
Format : MPEG Video
Format version : Version 2
Format profile : Main@Main
Format settings, BVOP : No
Format settings, Matrix : Default
Duration : 33ms
Bit rate mode : Variable
Maximum bit rate : 9 000 Kbps
Width : 720 pixels
Height : 480 pixels
Display aspect ratio : 4:3
Frame rate : 29.970 fps
Standard : NTSC
Color space : YUV
Chroma subsampling : 4:2:0
Bit depth : 8 bits
Scan type : Progressive
Scan order : Top Field First
Compression mode : Lossy
Time code of first frame : 00:00:00;00
Time code source : Group of pictures header
Color primaries : BT.601 NTSC
Transfer characteristics : BT.601
Matrix coefficients : BT.601

Menu

General
Complete name : W:\UP\Mix\The Who - 1973 - Quadrophenia\DVD\VIDEO_TS\VTS_01_0.BUP
Format : DVD Video
Format profile : Program
File size : 42.0 KiB
Duration : 44mn 30s
Overall bit rate mode : Variable
Overall bit rate : 129 bps

Video
ID : 224 (0xE0)
Format : MPEG Video
Format version : Version 2
Duration : 44mn 30s
Bit rate mode : Variable
Width : 720 pixels
Height : 480 pixels
Display aspect ratio : 4:3
Frame rate : 29.970 fps
Standard : NTSC
Compression mode : Lossy

Audio #1
ID : 0 (0x0)
Format : PCM
Channel(s) : 2 channels
Sampling rate : 0 Hz
Language : English

Audio #2
ID : 137 (0x89)
Format : DTS
Format/Info : Digital Theater Systems
Channel(s) : 6 channels
Sampling rate : 0 Hz
Compression mode : Lossy
Language : English

Menu
Duration : 44mn 30s
00:00:00.000 : Chapter 1
00:02:10.000 : Chapter 2
00:05:30.500 : Chapter 3
00:12:14.500 : Chapter 4
00:18:36.000 : Chapter 5
00:23:51.500 : Chapter 6
00:31:55.000 : Chapter 7
00:38:31.500 : Chapter 8
List (Audio) : 0 / 1

General
Complete name : W:\UP\Mix\The Who - 1973 - Quadrophenia\DVD\VIDEO_TS\VTS_01_0.IFO
Format : DVD Video
Format profile : Program
File size : 42.0 KiB
Duration : 44mn 30s
Overall bit rate mode : Variable
Overall bit rate : 129 bps

Video
ID : 224 (0xE0)
Format : MPEG Video
Format version : Version 2
Duration : 44mn 30s
Bit rate mode : Variable
Width : 720 pixels
Height : 480 pixels
Display aspect ratio : 4:3
Frame rate : 29.970 fps
Standard : NTSC
Compression mode : Lossy

Audio #1
ID : 0 (0x0)
Format : PCM
Channel(s) : 2 channels
Sampling rate : 0 Hz
Language : English

Audio #2
ID : 137 (0x89)
Format : DTS
Format/Info : Digital Theater Systems
Channel(s) : 6 channels
Sampling rate : 0 Hz
Compression mode : Lossy
Language : English

Menu
Duration : 44mn 30s
00:00:00.000 : Chapter 1
00:02:10.000 : Chapter 2
00:05:30.500 : Chapter 3
00:12:14.500 : Chapter 4
00:18:36.000 : Chapter 5
00:23:51.500 : Chapter 6
00:31:55.000 : Chapter 7
00:38:31.500 : Chapter 8
List (Audio) : 0 / 1

General
Complete name : W:\UP\Mix\The Who - 1973 - Quadrophenia\DVD\VIDEO_TS\VTS_01_0.VOB
Format : MPEG-PS
File size : 294 KiB
Duration : 33ms
Overall bit rate mode : Variable
Overall bit rate : 73.0 Mbps

Video
ID : 224 (0xE0)
Format : MPEG Video
Format version : Version 2
Format profile : Main@Main
Format settings, BVOP : No
Format settings, Matrix : Default
Duration : 33ms
Bit rate mode : Variable
Maximum bit rate : 9 000 Kbps
Width : 720 pixels
Height : 480 pixels
Display aspect ratio : 4:3
Frame rate : 29.970 fps
Standard : NTSC
Color space : YUV
Chroma subsampling : 4:2:0
Bit depth : 8 bits
Scan type : Progressive
Scan order : Top Field First
Compression mode : Lossy
Color primaries : BT.601 NTSC
Transfer characteristics : BT.601
Matrix coefficients : BT.601

Text
ID : 189 (0xBD)-32 (0x20)
Format : RLE
Format/Info : Run-length encoding
Muxing mode : DVD-Video

Menu

General
Complete name : W:\UP\Mix\The Who - 1973 - Quadrophenia\DVD\VIDEO_TS\VTS_01_1.VOB
Format : MPEG-PS
File size : 1 000 MiB
Duration : 15mn 50s
Overall bit rate : 8 830 Kbps

Video
ID : 224 (0xE0)
Format : MPEG Video
Format version : Version 2
Format profile : Main@Main
Format settings, BVOP : Yes
Format settings, Matrix : Custom
Format settings, GOP : M=3, N=15
Duration : 15mn 50s
Bit rate : 6 120 Kbps
Maximum bit rate : 2 500 Kbps
Width : 720 pixels
Height : 480 pixels
Display aspect ratio : 4:3
Frame rate : 29.970 fps
Standard : NTSC
Color space : YUV
Chroma subsampling : 4:2:0
Bit depth : 8 bits
Scan type : Interlaced
Scan order : Top Field First
Compression mode : Lossy
Bits/(Pixel*Frame) : 0.591
Time code of first frame : 01:00:00:00
Time code source : Group of pictures header
Stream size : 693 MiB (69%)

Audio #1
ID : 189 (0xBD)-137 (0x89)
Format : DTS
Format/Info : Digital Theater Systems
Format profile : 96/24 / Core
Mode : 16
Format settings, Endianness : Big
Muxing mode : DVD-Video
Duration : 15mn 50s
Bit rate mode : Constant
Bit rate : 1 510 Kbps
Channel(s) : 6 channels
Channel positions : Front: L C R, Side: L R, LFE
Sampling rate : 96.0 KHz / 48.0 KHz
Bit depth : 24 bits
Compression mode : Lossy
Stream size : 171 MiB (17%)

Audio #2
ID : 189 (0xBD)-160 (0xA0)
Format : PCM
Format settings, Endianness : Big
Format settings, Sign : Signed
Muxing mode : DVD-Video
Duration : 15mn 50s
Bit rate mode : Constant
Bit rate : 1 024 Kbps
Channel(s) : 2 channels
Sampling rate : 32.0 KHz
Bit depth : 24 bits
Stream size : 116 MiB (12%)

Menu

General
Complete name : W:\UP\Mix\The Who - 1973 - Quadrophenia\DVD\VIDEO_TS\VTS_01_2.VOB
Format : MPEG-PS
File size : 1 000 MiB
Duration : 15mn 49s
Overall bit rate : 8 831 Kbps

Video
ID : 224 (0xE0)
Format : MPEG Video
Format version : Version 2
Format profile : Main@Main
Format settings, BVOP : Yes
Format settings, Matrix : Custom
Format settings, GOP : M=3, N=15
Duration : 15mn 49s
Bit rate : 6 122 Kbps
Maximum bit rate : 2 500 Kbps
Width : 720 pixels
Height : 480 pixels
Display aspect ratio : 4:3
Frame rate : 29.970 fps
Standard : NTSC
Color space : YUV
Chroma subsampling : 4:2:0
Bit depth : 8 bits
Scan type : Interlaced
Scan order : Top Field First
Compression mode : Lossy
Bits/(Pixel*Frame) : 0.591
Time code of first frame : 01:15:49:15
Time code source : Group of pictures header
Stream size : 693 MiB (69%)

Audio #1
ID : 189 (0xBD)-137 (0x89)
Format : DTS
Format/Info : Digital Theater Systems
Format profile : 96/24 / Core
Mode : 16
Format settings, Endianness : Big
Muxing mode : DVD-Video
Duration : 15mn 49s
Bit rate mode : Constant
Bit rate : 1 510 Kbps
Channel(s) : 6 channels
Channel positions : Front: L C R, Side: L R, LFE
Sampling rate : 96.0 KHz / 48.0 KHz
Bit depth : 24 bits
Compression mode : Lossy
Delay relative to video : -287ms
Stream size : 171 MiB (17%)

Audio #2
ID : 189 (0xBD)-160 (0xA0)
Format : PCM
Format settings, Endianness : Big
Format settings, Sign : Signed
Muxing mode : DVD-Video
Duration : 15mn 49s
Bit rate mode : Constant
Bit rate : 1 024 Kbps
Channel(s) : 2 channels
Sampling rate : 32.0 KHz
Bit depth : 24 bits
Delay relative to video : -296ms
Stream size : 116 MiB (12%)

Menu

General
Complete name : W:\UP\Mix\The Who - 1973 - Quadrophenia\DVD\VIDEO_TS\VTS_01_3.VOB
Format : MPEG-PS
File size : 814 MiB
Duration : 12mn 53s
Overall bit rate : 8 831 Kbps

Video
ID : 224 (0xE0)
Format : MPEG Video
Format version : Version 2
Format profile : Main@Main
Format settings, BVOP : Yes
Format settings, Matrix : Custom
Format settings, GOP : M=3, N=15
Duration : 12mn 53s
Bit rate : 6 122 Kbps
Maximum bit rate : 2 500 Kbps
Width : 720 pixels
Height : 480 pixels
Display aspect ratio : 4:3
Frame rate : 29.970 fps
Standard : NTSC
Color space : YUV
Chroma subsampling : 4:2:0
Bit depth : 8 bits
Scan type : Interlaced
Scan order : Top Field First
Compression mode : Lossy
Bits/(Pixel*Frame) : 0.591
Time code of first frame : 01:31:38:15
Time code source : Group of pictures header
Stream size : 564 MiB (69%)

Audio #1
ID : 189 (0xBD)-137 (0x89)
Format : DTS
Format/Info : Digital Theater Systems
Format profile : 96/24 / Core
Mode : 16
Format settings, Endianness : Big
Muxing mode : DVD-Video
Duration : 12mn 53s
Bit rate mode : Constant
Bit rate : 1 510 Kbps
Channel(s) : 6 channels
Channel positions : Front: L C R, Side: L R, LFE
Sampling rate : 96.0 KHz / 48.0 KHz
Bit depth : 24 bits
Compression mode : Lossy
Delay relative to video : -284ms
Stream size : 139 MiB (17%)

Audio #2
ID : 189 (0xBD)-160 (0xA0)
Format : PCM
Format settings, Endianness : Big
Format settings, Sign : Signed
Muxing mode : DVD-Video
Duration : 12mn 53s
Bit rate mode : Constant
Bit rate : 1 024 Kbps
Channel(s) : 2 channels
Sampling rate : 32.0 KHz
Bit depth : 24 bits
Delay relative to video : -297ms
Stream size : 94.4 MiB (12%)

Menu



The Who - Quadrophenia (1973) [2011, 4CD + DVD Box Set]

The Who - Quadrophenia (1973) [2011, 4CD + DVD Box Set]

All thanks go to ALLexxess

The Who or The Who in my Blog

Download The Who - Quadrophenia (1973):