Subcategories

The Who - The Who Sings My Generation (1966)

Posted By: popsakov
The Who - The Who Sings My Generation (1966)

The Who - The Who Sings My Generation (1966)
EAC Rip | FLAC (Img) + Cue + Log ~ 207 Mb | MP3 CBR320 ~ 86 Mb
Scans (JPG, 600 dpi) ~ 22 Mb | RAR 5% Recovery
Pop Rock, Classic Rock, Beat, British Invasion | MCA Records #MCAD-31330

My Generation is the debut studio album by the English rock band The Who, released by Brunswick Records in the United Kingdom in December 1965. In the United States, it was released by Decca Records as The Who Sings My Generation in April 1966, with a different cover and a slightly altered track listing. The album was made immediately after the Who got their first singles on the charts and according to the booklet in the Deluxe Edition, it was later dismissed by the band as something of a rush job that did not accurately represent their stage performance of the time. On the other hand, critics often rate it as one of the best rock albums of all time.
~ Wiki


An explosive debut, and the hardest mod pop recorded by anyone. At the time of its release, it also had the most ferociously powerful guitars and drums yet captured on a rock record. Pete Townshend's exhilarating chord crunches and guitar distortions threaten to leap off the grooves on "My Generation" and "Out in the Street"; Keith Moon attacks the drums with a lightning, ruthless finesse throughout. Some "Maximum R&B" influence lingered in the two James Brown covers, but much of Townshend's original material fused Beatlesque hooks and power chords with anthemic mod lyrics, with "The Good's Gone," "Much Too Much," "La La La Lies," and especially "The Kids Are Alright" being highlights. "A Legal Matter" hinted at more ambitious lyrical concerns, and "The Ox" was instrumental mayhem that pushed the envelope of 1965 amplification with its guitar feedback and nonstop crashing drum rolls. While the execution was sometimes crude, and the songwriting not as sophisticated as it would shortly become, the Who never surpassed the pure energy level of this record.
~ Richie Unterberger, All Music

***************

The Who - The Who Sings My Generation (1966)

Track List:

01. Out In The Street [02:33]
02. I Don't Mind [02:37]
03. The Good's Gone [04:03]
04. La La La Lies [02:18]
05. Much Too Much [02:48]
06. My Generation [03:19]
07. The Kids Are Alright [02:47]
08. Please, Please, Please [02:46]
09. It's Not True [02:32]
10. The Ox [03:51]
11. A Legal Matter [02:49]
12. Instant Party [03:14]

Exact Audio Copy V1.0 beta 1 from 15. November 2010

EAC extraction logfile from 29. April 2016, 15:53

The Who / The Who Sings My Generation

Used drive : MATSHITADVD-RAM UJ8A0AS Adapter: 0 ID: 1

Read mode : Secure
Utilize accurate stream : Yes
Defeat audio cache : Yes
Make use of C2 pointers : No

Read offset correction : 102
Overread into Lead-In and Lead-Out : No
Fill up missing offset samples with silence : Yes
Delete leading and trailing silent blocks : No
Null samples used in CRC calculations : Yes
Used interface : Native Win32 interface for Win NT & 2000

Used output format : Internal WAV Routines
Sample format : 44.100 Hz; 16 Bit; Stereo


TOC of the extracted CD

Track | Start | Length | Start sector | End sector
––––––––––––––––––––––––––––-
1 | 0:00.00 | 2:32.50 | 0 | 11449
2 | 2:32.50 | 2:36.57 | 11450 | 23206
3 | 5:09.32 | 4:02.68 | 23207 | 41424
4 | 9:12.25 | 2:17.10 | 41425 | 51709
5 | 11:29.35 | 2:47.45 | 51710 | 64279
6 | 14:17.05 | 3:18.62 | 64280 | 79191
7 | 17:35.67 | 2:46.55 | 79192 | 91696
8 | 20:22.47 | 2:45.60 | 91697 | 104131
9 | 23:08.32 | 2:31.65 | 104132 | 115521
10 | 25:40.22 | 3:50.20 | 115522 | 132791
11 | 29:30.42 | 2:48.40 | 132792 | 145431
12 | 32:19.07 | 3:13.03 | 145432 | 159909


Range status and errors

Selected range

Filename C:\Users\Alex\Music\Alexharvey\The Who - The Who Sings My Generation.wav

Peak level 100.0 %
Extraction speed 0.1 X
Range quality 100.0 %
Test CRC 225ABE22
Copy CRC 225ABE22
Copy OK

No errors occurred


AccurateRip summary

Track 1 accurately ripped (confidence 2) [069D5BAD]
Track 2 accurately ripped (confidence 2) [4F230B13]
Track 3 accurately ripped (confidence 2) [E486F1DC]
Track 4 accurately ripped (confidence 2) [49E1D95B]
Track 5 accurately ripped (confidence 2) [6415DC11]
Track 6 accurately ripped (confidence 2) [048FC73F]
Track 7 accurately ripped (confidence 2) [3BD07957]
Track 8 accurately ripped (confidence 2) [63AA4735]
Track 9 accurately ripped (confidence 2) [34E33210]
Track 10 accurately ripped (confidence 2) [5F5FA05B]
Track 11 accurately ripped (confidence 2) [99D25792]
Track 12 accurately ripped (confidence 2) [10ED69F6]

All tracks accurately ripped

End of status report

==== Log checksum 7AC2658B61B07267CFFC7E8412A4430144262875AC4F07AC635A3BE66EF8FDEB ====

foobar2000 1.2.6 / Dynamic Range Meter 1.1.1
log date: 2016-04-30 01:16:45

––––––––––––––––––––––––––––––––––––––––
Analyzed: The Who / The Who Sings My Generation
––––––––––––––––––––––––––––––––––––––––

DR Peak RMS Duration Track
––––––––––––––––––––––––––––––––––––––––
DR11 -0.86 dB -14.72 dB 2:33 01-Out In The Street
DR11 0.00 dB -12.67 dB 2:37 02-I Don't Mind
DR11 0.00 dB -11.99 dB 4:03 03-The Good's Gone
DR10 0.00 dB -11.02 dB 2:17 04-La La La Lies
DR9 -0.37 dB -11.33 dB 2:48 05-Much Too Much
DR9 -0.07 dB -11.68 dB 3:19 06-My Generation
DR10 -0.57 dB -11.41 dB 2:47 07-The Kids Are Alright
DR12 0.00 dB -13.22 dB 2:46 08-Please, Please, Please
DR9 0.00 dB -10.82 dB 2:32 09-It's Not True
DR10 0.00 dB -11.46 dB 3:50 10-The Ox
DR11 -0.01 dB -12.78 dB 2:49 11-A Legal Matter
DR8 -0.49 dB -10.62 dB 3:13 12-Instant Party
––––––––––––––––––––––––––––––––––––––––

Number of tracks: 12
Official DR value: DR10

Samplerate: 44100 Hz
Channels: 2
Bits per sample: 16
Bitrate: 776 kbps
Codec: FLAC
================================================================================

[CUETools log; Date: 30.04.2016 1:16:41; Version: 2.1.5]
[CTDB TOCID: OAZW8YKQu25KpSUz9K5l3YcrDdM-] found.
Track | CTDB Status
1 | (2/2) Accurately ripped
2 | (2/2) Accurately ripped
3 | (2/2) Accurately ripped
4 | (2/2) Accurately ripped
5 | (2/2) Accurately ripped
6 | (2/2) Accurately ripped
7 | (2/2) Accurately ripped
8 | (2/2) Accurately ripped
9 | (2/2) Accurately ripped
10 | (2/2) Accurately ripped
11 | (2/2) Accurately ripped
12 | (2/2) Accurately ripped
[AccurateRip ID: 000f934d-0091fd12-9408540c] found.
Track [ CRC | V2 ] Status
01 [069d5bad|5a7b910e] (0+2/2) Accurately ripped
02 [4f230b13|90837298] (0+2/2) Accurately ripped
03 [e486f1dc|222ed389] (0+2/2) Accurately ripped
04 [49e1d95b|4d4e65d1] (0+2/2) Accurately ripped
05 [6415dc11|9f2f2908] (0+2/2) Accurately ripped
06 [048fc73f|2c511a57] (0+2/2) Accurately ripped
07 [3bd07957|88abd7ee] (0+2/2) Accurately ripped
08 [63aa4735|fabb6bfc] (0+2/2) Accurately ripped
09 [34e33210|406d3a04] (0+2/2) Accurately ripped
10 [5f5fa05b|e1b9c8ce] (0+2/2) Accurately ripped
11 [99d25792|684024f8] (0+2/2) Accurately ripped
12 [10ed69f6|c68d197a] (0+2/2) Accurately ripped

Track Peak [ CRC32 ] [W/O NULL] [ LOG ]
– 100,0 [225ABE22] [748F984F] CRC32
01 90,5 [C8C40216] [8683CF58]
02 100,0 [9D27A4F3] [F825B5E6]
03 100,0 [157E6BDD] [2C6B6E3A]
04 100,0 [360A80E7] [3873737F]
05 95,8 [08A92EEA] [C728416E]
06 99,1 [0EE5D5DB] [1DDA80B2]
07 93,6 [EC07F86C] [AB62E781]
08 100,0 [3A00C393] [3DAC203E]
09 100,0 [62E9DD77] [9734F84C]
10 100,0 [A88644DF] [07A24FC6]
11 99,9 [F09B2039] [9A5D910A]
12 94,5 [3E5CF598] [CD7CAAD4]

The Who - The Who Sings My Generation (1966)

The Who - The Who Sings My Generation (1966)

See also:
The Who - A Quick One (1966) [1995, Reissue, Remastered]
The Who - Tommy (1969/1983)
The Who - The Who by Numbers (1975/1987)
Pete Townshend - Psychoderelict (1993) [2006, Japan, TECI-24353]

All thanks go to Alexharvey

Visit my blog!

Download:
Nitroflare: FLAC | Scans | mp3
FileJoker: FLAC | Scans | mp3