Subcategories

VA - The World Of Italo Dance (1995)

Posted By: v3122
VA - The World Of Italo Dance (1995)

VA - The World Of Italo Dance (1995)
EAC | Flac(Image) + Cue + Log & MP3 CBR 320Kbps
2CD | ZYX 11006-2 | ~ 1015 or 354 Mb | Scans(png) -> 161 Mb
Italo-Dance

This Compilation CD of Italo Disco is one of the better CD's on the market. It reflects the diverse appeal that Italo Disco had on the world. The songs are all in extended 12" form and range from the period of 1982-88. It's a perfect addition to your CD collection for the italo dance lover. For the person who is not familiar with Italo Disco from the 80's, you will not be disappointed!

By "carloboy", amazon

VA - The World Of Italo Dance (1995):

VA - The World Of Italo Dance (1995)

Tracklist CD1:

01. Hipnosis - Pulstar (5:55)
02. Fun Fun - Happy Station (5:55)
03. Koto - Jabdah (7:35)
04. Max-Him - Japanese Girl (6:15)
05. J.D. Jaber - Don't Wake Me Up (7:55)
06. Scotch - Disco Band (5:07)
07. Miko Mission - How Old Are You? (7:15)
08. Sandy Marton - People From Ibiza (6:10)
09. Ken Laszlo - Don't Cry (4:13)
10. Valerie Dore - It's So Easy (6:30)
11. Mr. Flagio - Take A Chance (7:56)
12. Albert One - For Your Love (3:55)

Exact Audio Copy V1.0 beta 3 from 29. August 2011

EAC extraction logfile from 12. July 2015, 23:18

Various Artists / The World Of Italo Dance (CD1)

Used drive : SONY DVD RW AD-7260S Adapter: 0 ID: 0

Read mode : Secure
Utilize accurate stream : Yes
Defeat audio cache : Yes
Make use of C2 pointers : No

Read offset correction : 48
Overread into Lead-In and Lead-Out : No
Fill up missing offset samples with silence : Yes
Delete leading and trailing silent blocks : No
Null samples used in CRC calculations : Yes
Used interface : Installed external ASPI interface
Gap handling : Appended to previous track

Used output format : Internal WAV Routines
Sample format : 44.100 Hz; 16 Bit; Stereo


TOC of the extracted CD

Track | Start | Length | Start sector | End sector
––––––––––––––––––––––––––––-
1 | 0:00.00 | 5:51.25 | 0 | 26349
2 | 5:51.25 | 5:53.37 | 26350 | 52861
3 | 11:44.62 | 7:33.13 | 52862 | 86849
4 | 19:18.00 | 6:01.12 | 86850 | 113936
5 | 25:19.12 | 8:02.38 | 113937 | 150124
6 | 33:21.50 | 5:03.00 | 150125 | 172849
7 | 38:24.50 | 7:14.50 | 172850 | 205449
8 | 45:39.25 | 6:10.37 | 205450 | 233236
9 | 51:49.62 | 4:13.25 | 233237 | 252236
10 | 56:03.12 | 6:38.25 | 252237 | 282111
11 | 62:41.37 | 7:51.50 | 282112 | 317486
12 | 70:33.12 | 3:54.00 | 317487 | 335036


Track 1

Filename U:\Torrents To Upload\The World Of Italo Dance (1995) (2CD)\CD1\01. Hipnosis - Pulstar (Edit).wav

Pre-gap length 0:00:02.00

Peak level 99.4 %
Extraction speed 2.7 X
Track quality 100.0 %
Test CRC 6B63E1C5
Copy CRC 6B63E1C5
Accurately ripped (confidence 9) [575581F7] (AR v2)
Copy OK

Track 2

Filename U:\Torrents To Upload\The World Of Italo Dance (1995) (2CD)\CD1\02. Fun Fun - Happy Station (Edit).wav

Pre-gap length 0:00:01.23

Peak level 99.6 %
Extraction speed 3.0 X
Track quality 100.0 %
Test CRC 1C62838E
Copy CRC 1C62838E
Accurately ripped (confidence 9) [C8876963] (AR v2)
Copy OK

Track 3

Filename U:\Torrents To Upload\The World Of Italo Dance (1995) (2CD)\CD1\03. Koto - Jabdah (Long Version).wav

Pre-gap length 0:00:01.20

Peak level 99.7 %
Extraction speed 3.2 X
Track quality 99.9 %
Test CRC 61101631
Copy CRC 61101631
Accurately ripped (confidence 9) [5E2BBEDC] (AR v2)
Copy OK

Track 4

Filename U:\Torrents To Upload\The World Of Italo Dance (1995) (2CD)\CD1\04. Max Him - Japanese Girl (12inch Vocal Version).wav

Pre-gap length 0:00:01.15

Peak level 99.6 %
Extraction speed 3.7 X
Track quality 100.0 %
Test CRC C3BA545D
Copy CRC C3BA545D
Accurately ripped (confidence 9) [B0785893] (AR v2)
Copy OK

Track 5

Filename U:\Torrents To Upload\The World Of Italo Dance (1995) (2CD)\CD1\05. J.D. Jaber - Don't Wake Me Up (Another Mix).wav

Pre-gap length 0:00:01.20

Peak level 100.0 %
Extraction speed 4.1 X
Track quality 100.0 %
Test CRC E3908EF3
Copy CRC E3908EF3
Accurately ripped (confidence 9) [013ED075] (AR v2)
Copy OK

Track 6

Filename U:\Torrents To Upload\The World Of Italo Dance (1995) (2CD)\CD1\06. Scotch - Disco Band (12inch Vocal Version).wav

Pre-gap length 0:00:01.13

Peak level 100.0 %
Extraction speed 4.2 X
Track quality 100.0 %
Test CRC AB5119BD
Copy CRC AB5119BD
Accurately ripped (confidence 9) [315180DB] (AR v2)
Copy OK

Track 7

Filename U:\Torrents To Upload\The World Of Italo Dance (1995) (2CD)\CD1\07. Miko Mission - How Old Are You (12inch Vocal Version).wav

Pre-gap length 0:00:01.13

Peak level 99.7 %
Extraction speed 4.6 X
Track quality 100.0 %
Test CRC B242548B
Copy CRC B242548B
Accurately ripped (confidence 9) [51AF9AAD] (AR v2)
Copy OK

Track 8

Filename U:\Torrents To Upload\The World Of Italo Dance (1995) (2CD)\CD1\08. Sandy Marton - People From Ibiza (12inch Version).wav

Pre-gap length 0:00:01.10

Peak level 99.7 %
Extraction speed 4.4 X
Track quality 99.9 %
Test CRC 080F266E
Copy CRC 080F266E
Accurately ripped (confidence 9) [09FE1AF9] (AR v2)
Copy OK

Track 9

Filename U:\Torrents To Upload\The World Of Italo Dance (1995) (2CD)\CD1\09. Ken Laszlo - Don't Cry (Edit).wav

Pre-gap length 0:00:01.12

Peak level 100.0 %
Extraction speed 4.8 X
Track quality 100.0 %
Test CRC 5A9CFEAC
Copy CRC 5A9CFEAC
Accurately ripped (confidence 9) [A81F0EFC] (AR v2)
Copy OK

Track 10

Filename U:\Torrents To Upload\The World Of Italo Dance (1995) (2CD)\CD1\10. Valerie Dore - It's So Easy (12inch Vocal Version).wav

Pre-gap length 0:00:01.12

Peak level 98.8 %
Extraction speed 5.2 X
Track quality 100.0 %
Test CRC 049A2474
Copy CRC 049A2474
Accurately ripped (confidence 9) [B9BFC25E] (AR v2)
Copy OK

Track 11

Filename U:\Torrents To Upload\The World Of Italo Dance (1995) (2CD)\CD1\11. Mr. Flagio - Take A Chance (12inch Vocal Version).wav

Pre-gap length 0:00:01.10

Peak level 100.0 %
Extraction speed 5.5 X
Track quality 100.0 %
Test CRC E5598231
Copy CRC E5598231
Accurately ripped (confidence 9) [CFFA996F] (AR v2)
Copy OK

Track 12

Filename U:\Torrents To Upload\The World Of Italo Dance (1995) (2CD)\CD1\12. Albert One - For Your Love (Radio Version).wav

Pre-gap length 0:00:01.17

Peak level 99.5 %
Extraction speed 5.3 X
Track quality 100.0 %
Test CRC 5793BA0B
Copy CRC 5793BA0B
Accurately ripped (confidence 9) [29288657] (AR v2)
Copy OK


All tracks accurately ripped

No errors occurred

End of status report

==== Log checksum E927AA92E9985F77B3231D44BB35DF0B0AA4F73DEEC49C31D59E474A2A1B9623 ====

foobar2000 1.2.9 / Dynamic Range Meter 1.1.1
log date: 2015-08-18 01:33:55

––––––––––––––––––––––––––––––––––––––––
Statistics for: 02-Happy Station (Edit)
Number of samples: 15589056
Duration: 5:53
––––––––––––––––––––––––––––––––––––––––

Left Right

Peak Value: -0.03 dB –- -0.21 dB
Avg RMS: -16.64 dB –- -15.64 dB
DR channel: 13.65 dB –- 13.14 dB
––––––––––––––––––––––––––––––––––––––––

Official DR Value: DR13

Samplerate: 44100 Hz
Channels: 2
Bits per sample: 16
Bitrate: 910 kbps
Codec: FLAC
================================================================================
––––––––––––––––––––––––––––––––––––––––
Analyzed: Hipnosis / The World Of Italo Dance (CD1) (1)
J.D. Jaber / The World Of Italo Dance (CD1) (2)
Ken Laszlo / The World Of Italo Dance (CD1) (3)
––––––––––––––––––––––––––––––––––––––––

DR Peak RMS Duration Track
––––––––––––––––––––––––––––––––––––––––
DR14 -0.05 dB -15.61 dB 5:51 01-Pulstar (Edit)
DR14 0.00 dB -15.18 dB 8:03 05-Don't Wake Me Up (Another Mix)
DR13 0.00 dB -14.59 dB 4:13 09-Don't Cry (Edit)
––––––––––––––––––––––––––––––––––––––––

Number of tracks: 3
Official DR value: DR14

Samplerate: 44100 Hz
Channels: 2
Bits per sample: 16
Bitrate: 910 kbps
Codec: FLAC
================================================================================

––––––––––––––––––––––––––––––––––––––––
Analyzed: Koto / The World Of Italo Dance (CD1) (1)
Max Him / The World Of Italo Dance (CD1) (2)
Miko Mission / The World Of Italo Dance (CD1) (3)
Mr. Flagio / The World Of Italo Dance (CD1) (4)
––––––––––––––––––––––––––––––––––––––––

DR Peak RMS Duration Track
––––––––––––––––––––––––––––––––––––––––
DR15 -0.02 dB -16.20 dB 7:33 03-Jabdah (Long Version)
DR13 -0.03 dB -15.09 dB 6:01 04-Japanese Girl (12inch Vocal Version)
DR14 -0.02 dB -17.02 dB 7:15 07-How Old Are You? (12inch Vocal Version)
DR16 0.00 dB -17.52 dB 7:52 11-Take A Chance (12inch Vocal Version)
––––––––––––––––––––––––––––––––––––––––

Number of tracks: 4
Official DR value: DR15

Samplerate: 44100 Hz
Channels: 2
Bits per sample: 16
Bitrate: 910 kbps
Codec: FLAC
================================================================================

––––––––––––––––––––––––––––––––––––––––
Statistics for: 08-People From Ibiza (12inch Version)
Number of samples: 16338756
Duration: 6:10
––––––––––––––––––––––––––––––––––––––––

Left Right

Peak Value: -0.14 dB –- -0.03 dB
Avg RMS: -13.99 dB –- -14.82 dB
DR channel: 12.08 dB –- 13.05 dB
––––––––––––––––––––––––––––––––––––––––

Official DR Value: DR13

Samplerate: 44100 Hz
Channels: 2
Bits per sample: 16
Bitrate: 910 kbps
Codec: FLAC
================================================================================
––––––––––––––––––––––––––––––––––––––––
Analyzed: Scotch / The World Of Italo Dance (CD1) (1)
Valerie Dore / The World Of Italo Dance (CD1) (2)
––––––––––––––––––––––––––––––––––––––––

DR Peak RMS Duration Track
––––––––––––––––––––––––––––––––––––––––
DR16 0.00 dB -18.02 dB 5:03 06-Disco Band (12inch Vocal Version)
DR11 -0.10 dB -13.37 dB 6:38 10-It's So Easy (12inch Vocal Version)
––––––––––––––––––––––––––––––––––––––––

Number of tracks: 2
Official DR value: DR14

Samplerate: 44100 Hz
Channels: 2
Bits per sample: 16
Bitrate: 910 kbps
Codec: FLAC

[CUETools log; Date: 18.08.2015 1:33:57; Version: 2.1.4]
[CTDB TOCID: nhIsaAlMQV9Y.CUCGYOvbdZn7AI-] found.
Track | CTDB Status
1 | (21/21) Accurately ripped
2 | (21/21) Accurately ripped
3 | (21/21) Accurately ripped
4 | (21/21) Accurately ripped
5 | (21/21) Accurately ripped
6 | (21/21) Accurately ripped
7 | (21/21) Accurately ripped
8 | (21/21) Accurately ripped
9 | (21/21) Accurately ripped
10 | (21/21) Accurately ripped
11 | (21/21) Accurately ripped
12 | (20/21) Accurately ripped
[AccurateRip ID: 00220136-013cf77c-8111730c] found.
Track [ CRC | V2 ] Status
01 [9dccfed2|575581f7] (14+09/23) Accurately ripped
02 [2f32430f|c8876963] (14+09/23) Accurately ripped
03 [fc1f3e54|5e2bbedc] (14+09/23) Accurately ripped
04 [6b6c7f3d|b0785893] (15+09/24) Accurately ripped
05 [dd360195|013ed075] (15+09/24) Accurately ripped
06 [0b9fd442|315180db] (14+09/23) Accurately ripped
07 [b214ff93|51af9aad] (15+09/24) Accurately ripped
08 [18be07f2|09fe1af9] (15+09/24) Accurately ripped
09 [5db19483|a81f0efc] (14+09/23) Accurately ripped
10 [e3279ddf|b9bfc25e] (14+09/23) Accurately ripped
11 [192c892d|cffa996f] (15+09/24) Accurately ripped
12 [eb6faa7c|29288657] (15+09/24) Accurately ripped

Track Peak [ CRC32 ] [W/O NULL] [ LOG ]
– 100,0 [2E62E3CE] [D2FBBFD1]
01 99,4 [6B63E1C5] [82197F9E] CRC32
02 99,6 [1C62838E] [9696D0DC] CRC32
03 99,7 [61101631] [58DD0A21] CRC32
04 99,6 [C3BA545D] [3407DEFE] CRC32
05 100,0 [E3908EF3] [31ED145C] CRC32
06 100,0 [AB5119BD] [2746E17D] CRC32
07 99,7 [B242548B] [CBFDC824] CRC32
08 99,7 [080F266E] [DE07355C] CRC32
09 100,0 [5A9CFEAC] [C74709CB] CRC32
10 98,8 [049A2474] [F6615C40] CRC32
11 100,0 [E5598231] [9FE563C4] CRC32
12 99,5 [5793BA0B] [DE1C84B0] CRC32

VA - The World Of Italo Dance (1995)

Tracklist CD2:

01. Koto - Chinese Revenge (6:18)
02. Doctor's Cat - Feel The Drive (6:26)
03. Ken Laszlo - Hey Hey Guy (7:37)
04. Laserdance - Humanoid Invasion (7:12)
05. Valerie Dore - Get Closer (6:15)
06. Cyber People - Void Vision (7:03)
07. Scotch - Delirio Mind (4:35)
08. Kano - Another Life (7:11)
09. Mike Cannon - Voices In The Dark (6:00)
10. Savage - Don't Cry Tonight (6:50)
11. Koto - Visitors (6:12)
12. Carrara - Disco King (3:33)

Exact Audio Copy V1.0 beta 3 from 29. August 2011

EAC extraction logfile from 12. July 2015, 23:56

Various Artists / The World Of Italo Dance (CD2)

Used drive : SONY DVD RW AD-7260S Adapter: 0 ID: 0

Read mode : Secure
Utilize accurate stream : Yes
Defeat audio cache : Yes
Make use of C2 pointers : No

Read offset correction : 48
Overread into Lead-In and Lead-Out : No
Fill up missing offset samples with silence : Yes
Delete leading and trailing silent blocks : No
Null samples used in CRC calculations : Yes
Used interface : Installed external ASPI interface
Gap handling : Appended to previous track

Used output format : Internal WAV Routines
Sample format : 44.100 Hz; 16 Bit; Stereo


TOC of the extracted CD

Track | Start | Length | Start sector | End sector
––––––––––––––––––––––––––––-
1 | 0:00.00 | 6:19.12 | 0 | 28436
2 | 6:19.12 | 6:19.13 | 28437 | 56874
3 | 12:38.25 | 7:36.62 | 56875 | 91136
4 | 20:15.12 | 7:11.00 | 91137 | 123461
5 | 27:26.12 | 6:10.50 | 123462 | 151261
6 | 33:36.62 | 7:05.25 | 151262 | 183161
7 | 40:42.12 | 4:34.50 | 183162 | 203761
8 | 45:16.62 | 7:11.63 | 203762 | 236149
9 | 52:28.50 | 6:07.00 | 236150 | 263674
10 | 58:35.50 | 6:44.12 | 263675 | 293986
11 | 65:19.62 | 6:20.13 | 293987 | 322499
12 | 71:40.00 | 3:50.70 | 322500 | 339819


Track 1

Filename U:\Torrents To Upload\The World Of Italo Dance (1995) (2CD)\CD2\01. Koto - Chinese Revenge (Club Version).wav

Pre-gap length 0:00:02.00

Peak level 100.0 %
Extraction speed 2.7 X
Track quality 100.0 %
Test CRC ED3BB5BF
Copy CRC ED3BB5BF
Accurately ripped (confidence 10) [69E80289] (AR v2)
Copy OK

Track 2

Filename U:\Torrents To Upload\The World Of Italo Dance (1995) (2CD)\CD2\02. Doctor's Cat - Feel The Drive (12inch Vocal Version).wav

Pre-gap length 0:00:01.45

Peak level 100.0 %
Extraction speed 3.1 X
Track quality 100.0 %
Test CRC CEEF5A0E
Copy CRC CEEF5A0E
Accurately ripped (confidence 10) [3617C52B] (AR v2)
Copy OK

Track 3

Filename U:\Torrents To Upload\The World Of Italo Dance (1995) (2CD)\CD2\03. Ken Laszlo - Hey Hey Guy (12inch Vocal Version).wav

Pre-gap length 0:00:01.38

Peak level 100.0 %
Extraction speed 3.3 X
Track quality 99.9 %
Test CRC 0D75055A
Copy CRC 0D75055A
Accurately ripped (confidence 10) [751C824C] (AR v2)
Copy OK

Track 4

Filename U:\Torrents To Upload\The World Of Italo Dance (1995) (2CD)\CD2\04. Laser Dance - Humanoid Invasion (Dance Mix).wav

Pre-gap length 0:00:01.40

Peak level 99.5 %
Extraction speed 3.9 X
Track quality 100.0 %
Test CRC 07253BD9
Copy CRC 07253BD9
Accurately ripped (confidence 9) [25A51FA3] (AR v2)
Copy OK

Track 5

Filename U:\Torrents To Upload\The World Of Italo Dance (1995) (2CD)\CD2\05. Valerie Dore - Get Closer (12inch Vocal Version).wav

Pre-gap length 0:00:01.47

Peak level 100.0 %
Extraction speed 4.1 X
Track quality 100.0 %
Test CRC 0D695058
Copy CRC 0D695058
Accurately ripped (confidence 10) [F7BD342D] (AR v2)
Copy OK

Track 6

Filename U:\Torrents To Upload\The World Of Italo Dance (1995) (2CD)\CD2\06. Cyber People - Void Vision (12inch Version).wav

Pre-gap length 0:00:01.45

Peak level 100.0 %
Extraction speed 4.4 X
Track quality 100.0 %
Test CRC DD82705F
Copy CRC DD82705F
Accurately ripped (confidence 10) [382F8683] (AR v2)
Copy OK

Track 7

Filename U:\Torrents To Upload\The World Of Italo Dance (1995) (2CD)\CD2\07. Scotch - Delirio Mind.wav

Pre-gap length 0:00:01.40

Peak level 100.0 %
Extraction speed 4.5 X
Track quality 100.0 %
Test CRC AD28C709
Copy CRC AD28C709
Accurately ripped (confidence 10) [CE645522] (AR v2)
Copy OK

Track 8

Filename U:\Torrents To Upload\The World Of Italo Dance (1995) (2CD)\CD2\08. Kano - Another Life (12inch Version).wav

Pre-gap length 0:00:01.42

Peak level 100.0 %
Extraction speed 4.9 X
Track quality 100.0 %
Test CRC 053F1821
Copy CRC 053F1821
Accurately ripped (confidence 10) [A59429BF] (AR v2)
Copy OK

Track 9

Filename U:\Torrents To Upload\The World Of Italo Dance (1995) (2CD)\CD2\09. Mike Cannon - Voices In The Dark (12inch Version).wav

Pre-gap length 0:00:01.45

Peak level 100.0 %
Extraction speed 5.1 X
Track quality 100.0 %
Test CRC C44D3FEB
Copy CRC C44D3FEB
Accurately ripped (confidence 10) [096C3B60] (AR v2)
Copy OK

Track 10

Filename U:\Torrents To Upload\The World Of Italo Dance (1995) (2CD)\CD2\10. Savage - Don't Cry Tonight (12inch Version).wav

Pre-gap length 0:00:01.38

Peak level 100.0 %
Extraction speed 5.4 X
Track quality 100.0 %
Test CRC C43D0277
Copy CRC C43D0277
Accurately ripped (confidence 10) [D542C990] (AR v2)
Copy OK

Track 11

Filename U:\Torrents To Upload\The World Of Italo Dance (1995) (2CD)\CD2\11. Koto - Visitors (12inch Version).wav

Pre-gap length 0:00:01.40

Peak level 97.7 %
Extraction speed 5.5 X
Track quality 100.0 %
Test CRC 76EE8A61
Copy CRC 76EE8A61
Accurately ripped (confidence 9) [217C9145] (AR v2)
Copy OK

Track 12

Filename U:\Torrents To Upload\The World Of Italo Dance (1995) (2CD)\CD2\12. Carrara - Disco King (Short Version).wav

Pre-gap length 0:00:01.38

Peak level 100.0 %
Extraction speed 5.4 X
Track quality 100.0 %
Test CRC 4A0E6D2F
Copy CRC 4A0E6D2F
Accurately ripped (confidence 9) [FEF8609D] (AR v2)
Copy OK


All tracks accurately ripped

No errors occurred

End of status report

==== Log checksum F27694BA753331ABFF4153C1DA10C50E4F00BDB4DBF36BC39177068931D9A485 ====

foobar2000 1.2.9 / Dynamic Range Meter 1.1.1
log date: 2015-08-18 01:34:19

––––––––––––––––––––––––––––––––––––––––
Statistics for: 06-Void Vision (12inch Version)
Number of samples: 18757200
Duration: 7:05
––––––––––––––––––––––––––––––––––––––––

Left Right

Peak Value: 0.00 dB –- 0.00 dB
Avg RMS: -14.49 dB –- -15.28 dB
DR channel: 12.94 dB –- 13.07 dB
––––––––––––––––––––––––––––––––––––––––

Official DR Value: DR13

Samplerate: 44100 Hz
Channels: 2
Bits per sample: 16
Bitrate: 884 kbps
Codec: FLAC
================================================================================
––––––––––––––––––––––––––––––––––––––––
Analyzed: Doctor's Cat / The World Of Italo Dance (CD2) (1)
Kano / The World Of Italo Dance (CD2) (2)
––––––––––––––––––––––––––––––––––––––––

DR Peak RMS Duration Track
––––––––––––––––––––––––––––––––––––––––
DR16 0.00 dB -17.70 dB 6:19 02-Feel The Drive (12inch Vocal Version)
DR12 0.00 dB -13.86 dB 7:12 08-Another Life (12inch Version)
––––––––––––––––––––––––––––––––––––––––

Number of tracks: 2
Official DR value: DR14

Samplerate: 44100 Hz
Channels: 2
Bits per sample: 16
Bitrate: 884 kbps
Codec: FLAC
================================================================================

––––––––––––––––––––––––––––––––––––––––
Statistics for: 03-Hey Hey Guy (12inch Vocal Version)
Number of samples: 20146056
Duration: 7:37
––––––––––––––––––––––––––––––––––––––––

Left Right

Peak Value: -0.02 dB –- 0.00 dB
Avg RMS: -16.32 dB –- -16.04 dB
DR channel: 14.75 dB –- 14.94 dB
––––––––––––––––––––––––––––––––––––––––

Official DR Value: DR15

Samplerate: 44100 Hz
Channels: 2
Bits per sample: 16
Bitrate: 884 kbps
Codec: FLAC
================================================================================
––––––––––––––––––––––––––––––––––––––––
Analyzed: Koto / The World Of Italo Dance (CD2)
––––––––––––––––––––––––––––––––––––––––

DR Peak RMS Duration Track
––––––––––––––––––––––––––––––––––––––––
DR12 0.00 dB -14.44 dB 6:19 01-Chinese Revenge (Club Version)
DR14 -0.20 dB -14.97 dB 6:20 11-Visitors (12inch Version)
––––––––––––––––––––––––––––––––––––––––

Number of tracks: 2
Official DR value: DR13

Samplerate: 44100 Hz
Channels: 2
Bits per sample: 16
Bitrate: 884 kbps
Codec: FLAC
================================================================================

––––––––––––––––––––––––––––––––––––––––
Analyzed: Laser Dance / The World Of Italo Dance (CD2) (1)
Mike Cannon / The World Of Italo Dance (CD2) (2)
Savage / The World Of Italo Dance (CD2) (3)
––––––––––––––––––––––––––––––––––––––––

DR Peak RMS Duration Track
––––––––––––––––––––––––––––––––––––––––
DR13 -0.04 dB -14.85 dB 7:11 04-Humanoid Invasion (Dance Mix)
DR16 0.00 dB -17.26 dB 6:07 09-Voices In The Dark (12inch Version)
DR12 0.00 dB -14.06 dB 6:44 10-Don't Cry Tonight (12inch Version)
––––––––––––––––––––––––––––––––––––––––

Number of tracks: 3
Official DR value: DR14

Samplerate: 44100 Hz
Channels: 2
Bits per sample: 16
Bitrate: 884 kbps
Codec: FLAC
================================================================================

––––––––––––––––––––––––––––––––––––––––
Statistics for: 07-Delirio Mind
Number of samples: 12112800
Duration: 4:35
––––––––––––––––––––––––––––––––––––––––

Left Right

Peak Value: 0.00 dB –- -0.15 dB
Avg RMS: -14.69 dB –- -14.05 dB
DR channel: 12.38 dB –- 12.00 dB
––––––––––––––––––––––––––––––––––––––––

Official DR Value: DR12

Samplerate: 44100 Hz
Channels: 2
Bits per sample: 16
Bitrate: 884 kbps
Codec: FLAC
================================================================================
––––––––––––––––––––––––––––––––––––––––
Statistics for: 05-Get Closer (12inch Vocal Version)
Number of samples: 16346400
Duration: 6:11
––––––––––––––––––––––––––––––––––––––––

Left Right

Peak Value: 0.00 dB –- 0.00 dB
Avg RMS: -15.92 dB –- -15.71 dB
DR channel: 14.25 dB –- 14.09 dB
––––––––––––––––––––––––––––––––––––––––

Official DR Value: DR14

Samplerate: 44100 Hz
Channels: 2
Bits per sample: 16
Bitrate: 884 kbps
Codec: FLAC

[CUETools log; Date: 18.08.2015 1:34:16; Version: 2.1.4]
[CTDB TOCID: 8hNyvnuBskF_zTpLr3ocFAolhPQ-] found.
Track | CTDB Status
1 | (22/22) Accurately ripped
2 | (22/22) Accurately ripped
3 | (22/22) Accurately ripped
4 | (22/22) Accurately ripped
5 | (22/22) Accurately ripped
6 | (22/22) Accurately ripped
7 | (22/22) Accurately ripped
8 | (22/22) Accurately ripped
9 | (22/22) Accurately ripped
10 | (22/22) Accurately ripped
11 | (20/22) Accurately ripped
12 | (18/22) Accurately ripped
[AccurateRip ID: 002301d5-01453509-9511b20c] found.
Track [ CRC | V2 ] Status
01 [75592880|69e80289] (12+10/24) Accurately ripped
02 [95a03cec|3617c52b] (13+10/25) Accurately ripped
03 [70a17cec|751c824c] (11+10/23) Accurately ripped
04 [1a9da6c7|25a51fa3] (13+09/24) Accurately ripped
05 [4f9e14ee|f7bd342d] (13+10/25) Accurately ripped
06 [3dff7259|382f8683] (13+10/25) Accurately ripped
07 [beeded24|ce645522] (13+10/25) Accurately ripped
08 [1de378fc|a59429bf] (13+10/25) Accurately ripped
09 [04b66a18|096c3b60] (13+10/25) Accurately ripped
10 [bac4b970|d542c990] (13+10/25) Accurately ripped
11 [d53c4aa2|217c9145] (12+09/23) Accurately ripped
12 [d97e6ed4|fef8609d] (12+09/23) Accurately ripped
Offsetted by -18:
01 [a9efdf52] (02/24) Accurately ripped
02 [65d91cb4] (02/25) Accurately ripped
03 [da8a481e] (02/23) Accurately ripped
04 [6c198665] (02/24) Accurately ripped
05 [f5f013a8] (02/25) Accurately ripped
06 [a34ad2c9] (02/25) Accurately ripped
07 [90f27c38] (02/25) Accurately ripped
08 [fc89655e] (02/25) Accurately ripped
09 [253238b2] (02/25) Accurately ripped
10 [cb977f9c] (02/25) Accurately ripped
11 [d3d03f58] (02/23) Accurately ripped
12 [f512f3da] (02/23) Accurately ripped

Track Peak [ CRC32 ] [W/O NULL] [ LOG ]
– 100,0 [4DA44C7A] [E2DC7630]
01 100,0 [ED3BB5BF] [BAB7D5FD] CRC32
02 100,0 [CEEF5A0E] [A2CC1856] CRC32
03 100,0 [0D75055A] [6893AA21] CRC32
04 99,5 [07253BD9] [FDD53C79] CRC32
05 100,0 [0D695058] [F8763DE5] CRC32
06 100,0 [DD82705F] [DA0EE85A] CRC32
07 100,0 [AD28C709] [58F51ACF] CRC32
08 100,0 [053F1821] [D2D09A28] CRC32
09 100,0 [C44D3FEB] [C1CB6ACA] CRC32
10 100,0 [C43D0277] [380578A8] CRC32
11 97,7 [76EE8A61] [2B38EE95] CRC32
12 100,0 [4A0E6D2F] [6021939A] CRC32

VA - The World Of Italo Dance (1995)

All thanks go to aylaayla

Download VA - The World Of Italo Dance (1995):