Subcategories

VA - Anthology of Traditional Musics: The Yemenite Jews (1978)

Posted By: Designol
VA - Anthology of Traditional Musics: The Yemenite Jews (1978)

VA - Anthology of Traditional Musics: The Yemenite Jews (1978)
XLD | FLAC | Tracks (Cue&Log) ~ 287 Mb | Mp3 (CBR320) ~ 141 Mb | Booklet included | 00:48:55
World, Ethnic Fusion, Jewish Folk, Diwan | Label: Auvidis/UNESCO | # D 8024

After the destruction of the First Temple in Jerusalem in 586 BCE, a group of Jews settled in Yemen. They remained in exile, sometimes prosperous but frequently persecuted, until the 19th century. They then began to return to what is now Israel, first in small numbers and later in an organized wave with the establishment of the Jewish state in 1948. They brought with them a rich heritage of religious, secular, and devotional (diwan) music, the last of which includes both religious and secular subjects. Every Jewish community in Yemen had it's own diwan, consisting of works from the renowned medieval Spanish poets of the Golden Age of Hebrew poetry, as well as original writings from community members. These poems, in the Hebrew, Aramaic, and Arabic languages, were intended to be sung or chanted. According to the album's compiler Avner Bahat of the Jewish Music Research Centre, the Yemenite diwan is "the richest and most valuable of all." Eleven poems are presented in this 1976-77 recording. Structurally, the diwan is divided into three sections: nashid (an improvisational response sung without music or dance accompaniment), shira (the primary singing section featuring dance and rhythmic accompaniment on tin cans or copper plates), and hallel (a song of praise restricted to two or three notes around the tonic).

A diwan is a collection of devotional poetry in Hebrew, Arabic and Aramaic, sung by men only at occasions like weddings, and on the Sabbath. Their subject is the Jewish liturgy. This recording includes various poems, the solos of the Nashid or song of introduction, and various versions of the Shira – the centerpiece of the Diwan, accompanied by percussion and dance.

Review by John Storm Roberts, Allmusic.com

No longer in print, a search for a used copy would be worthwhile because this is a diverse, properly recorded ethnomusicological UNESCO collection from 1978; my AUVIDIS reissue was from 1990. One of the tracks will be familiar to those who own the Ofra Haza excellent album of Yemenite songs. The three forms of songs are represented here: are liturgical, performed by men and boys in Hebrew and Aramaic; secular, the domain of women and sung in Yemenite-Arabo-Jewish dialect; and the diwan, or poetry, derived from various Hebrew, Aramaic, and Arabic from medieval Sefard to Yemen and sung by men on festivals and family celebrations. No instruments are permitted, other than the percussion of metallic cans and trays. Not some field recording, the sessions were done at the Hebrew University, Jerusalem. The music is traditional, with no electronica or arrangements, as handed down from generation to generation. In this fashion, the special Yemenite-Jewish sound, which has been influential in Israeli folk and popular music, is heard in its pure form. Other Yemenite-Jewish recordings were issued in Israel for local distribution and are not readily available, but this album had an international audience in mind.

Review by Dr. Debra Jan Bibel, Amazon.com

Tracklist:

01. Tsadoq Tsubeiri & Joseph Ozeiri - Shadai Emor Na Daile-Galuteinu (02:34)
02. Tsadoq Tsubeiri - Tsur Menati (03:47)
03. The Qiryat Ono Troupe - Ayumati Te'orer Ha-Yesheinim (04:06)
04. Aharon Amram, Menahem Arussi, Aharon & Israel Habshush - Yashqef Elohim Mi-Me'on Qodsho / Yom Ezkera Het'i / Hallel (08:05)
05. Tsadoq Tsubeiri - Sar Ha-Memuneh (02:15)
06. Menahem Arussi - Ahuv Yevarech Ha-Hatan (01:38)
07. Aharon Amram, Menahem Arussi, Aharon & Israel Habshush - Ahuv Mei-Har Ha-Mor Natan Li Morasha (02:57)
08. Tsadoq Tsubeiri & Joseph Ozeiri - Adon Hakol Mehayyeh Kol Neshamah (04:37)
09. Aharon & Israel Habshush, two children from Qiryat Ono - Adon Hakol Mehayyeh Kol Neshamah (04:09)
10. Zecharia Yitshaq & Joseph Obeiri - Yeda'atani Be-Terem Titsreini / 'Ayin Ve-Lev Yahad Merivim / Hallel (09:19)
11. The Qiryat Ono Troupe - Ayyahu Al-Husn El-Musamma (05:34)


X Lossless Decoder version 20141129 (148.1)

XLD extraction logfile from 2015-12-19 11:49:05 +0100

Various Artists / The Yemenite Jews

Used drive : OPTIARC DVD RW AD-5680H (revision 3AHB)
Media type : Pressed CD

Ripper mode : XLD Secure Ripper
Disable audio cache : OK for the drive with a cache less than 1375KiB
Make use of C2 pointers : NO
Read offset correction : 48
Max retry count : 100
Gap status : Analyzed, Appended (except HTOA)

TOC of the extracted CD
Track | Start | Length | Start sector | End sector
––––––––––––––––––––––––––––-
1 | 00:00:32 | 02:33:58 | 32 | 11564
2 | 02:34:15 | 03:46:30 | 11565 | 28544
3 | 06:20:45 | 04:05:30 | 28545 | 46949
4 | 10:26:00 | 08:04:25 | 46950 | 83274
5 | 18:30:25 | 02:14:25 | 83275 | 93349
6 | 20:44:50 | 01:37:07 | 93350 | 100631
7 | 22:21:57 | 02:56:10 | 100632 | 113841
8 | 25:17:67 | 04:36:45 | 113842 | 134586
9 | 29:54:37 | 04:08:50 | 134587 | 153236
10 | 34:03:12 | 09:18:33 | 153237 | 195119
11 | 43:21:45 | 05:33:35 | 195120 | 220129

AccurateRip Summary (DiscID: 00120651-009efe35-850b770b)
Track 01 : OK (v2, confidence 2/2)
Track 02 : OK (v2, confidence 2/2)
Track 03 : OK (v2, confidence 2/2)
Track 04 : OK (v2, confidence 2/2)
Track 05 : OK (v2, confidence 2/2)
Track 06 : OK (v2, confidence 2/2)
Track 07 : OK (v2, confidence 2/2)
Track 08 : OK (v2, confidence 2/2)
Track 09 : OK (v2, confidence 2/2)
Track 10 : OK (v2, confidence 2/2)
Track 11 : OK (v2, confidence 2/2)
->All tracks accurately ripped.

All Tracks
Album gain : -0.79 dB
Peak : 0.964447
Statistics
Read error : 0
Jitter error (maybe fixed) : 0
Retry sector count : 0
Damaged sector count : 0

Track 01
Filename : /Volumes/iMac HD - User/Collaborate/what.cd/Seedbox/Various Artists - The Yemenite Jews (1990) [FLAC]/01 Shadai Emor Na Daile-Galuteinu.flac
Pre-gap length : 00:02:32

Track gain : 0.61 dB
Peak : 0.716949
CRC32 hash (test run) : 0B2BF5B4
CRC32 hash : 0B2BF5B4
CRC32 hash (skip zero) : 989D3CAB
AccurateRip v1 signature : C50F6746
AccurateRip v2 signature : 42EBC2F9
->Accurately ripped (v2, confidence 2/2)
Statistics
Read error : 0
Jitter error (maybe fixed) : 0
Retry sector count : 0
Damaged sector count : 0

Track 02
Filename : /Volumes/iMac HD - User/Collaborate/what.cd/Seedbox/Various Artists - The Yemenite Jews (1990) [FLAC]/02 Tsur Menati.flac
Pre-gap length : 00:03:53

Track gain : 0.04 dB
Peak : 0.540253
CRC32 hash (test run) : 4C8E1001
CRC32 hash : 4C8E1001
CRC32 hash (skip zero) : E58070C6
AccurateRip v1 signature : 7A889A9E
AccurateRip v2 signature : 24A2438C
->Accurately ripped (v2, confidence 2/2)
Statistics
Read error : 0
Jitter error (maybe fixed) : 0
Retry sector count : 0
Damaged sector count : 0

Track 03
Filename : /Volumes/iMac HD - User/Collaborate/what.cd/Seedbox/Various Artists - The Yemenite Jews (1990) [FLAC]/03 Ayumati Te'orer Ha-Yesheinim.flac
Pre-gap length : 00:03:58

Track gain : -1.50 dB
Peak : 0.868591
CRC32 hash (test run) : A7854BF3
CRC32 hash : A7854BF3
CRC32 hash (skip zero) : 5C650F17
AccurateRip v1 signature : D7B99E7A
AccurateRip v2 signature : D57FFA57
->Accurately ripped (v2, confidence 2/2)
Statistics
Read error : 0
Jitter error (maybe fixed) : 0
Retry sector count : 0
Damaged sector count : 0

Track 04
Filename : /Volumes/iMac HD - User/Collaborate/what.cd/Seedbox/Various Artists - The Yemenite Jews (1990) [FLAC]/04 Yashqef Elohim Mi-Me'on Qodsho, Yom Ezkera Het'i, Hallel.flac
Pre-gap length : 00:04:28

Track gain : 1.13 dB
Peak : 0.964447
CRC32 hash (test run) : B547647A
CRC32 hash : B547647A
CRC32 hash (skip zero) : 5C665316
AccurateRip v1 signature : 0C97BD96
AccurateRip v2 signature : 3B710B1A
->Accurately ripped (v2, confidence 2/2)
Statistics
Read error : 0
Jitter error (maybe fixed) : 0
Retry sector count : 0
Damaged sector count : 0

Track 05
Filename : /Volumes/iMac HD - User/Collaborate/what.cd/Seedbox/Various Artists - The Yemenite Jews (1990) [FLAC]/05 Sar Ha-Memuneh.flac
Pre-gap length : 00:03:60

Track gain : -0.66 dB
Peak : 0.684570
CRC32 hash (test run) : D5B1449C
CRC32 hash : D5B1449C
CRC32 hash (skip zero) : D99B06A5
AccurateRip v1 signature : 8EB07786
AccurateRip v2 signature : 9FC5D1F5
->Accurately ripped (v2, confidence 2/2)
Statistics
Read error : 0
Jitter error (maybe fixed) : 0
Retry sector count : 0
Damaged sector count : 0

Track 06
Filename : /Volumes/iMac HD - User/Collaborate/what.cd/Seedbox/Various Artists - The Yemenite Jews (1990) [FLAC]/06 Ahuv Yevarech Ha-Hatan.flac
Pre-gap length : 00:04:00

Track gain : 1.86 dB
Peak : 0.596008
CRC32 hash (test run) : C8A1EBA2
CRC32 hash : C8A1EBA2
CRC32 hash (skip zero) : ED5D0B50
AccurateRip v1 signature : C70F5D73
AccurateRip v2 signature : 1E92E54E
->Accurately ripped (v2, confidence 2/2)
Statistics
Read error : 0
Jitter error (maybe fixed) : 0
Retry sector count : 0
Damaged sector count : 0

Track 07
Filename : /Volumes/iMac HD - User/Collaborate/what.cd/Seedbox/Various Artists - The Yemenite Jews (1990) [FLAC]/07 Ahuv Mei-Har Ha-Mor Natan Li Morasha.flac
Pre-gap length : 00:03:62

Track gain : -0.21 dB
Peak : 0.712891
CRC32 hash (test run) : A4C995A6
CRC32 hash : A4C995A6
CRC32 hash (skip zero) : 1BD55DC3
AccurateRip v1 signature : DC18D379
AccurateRip v2 signature : F87604D9
->Accurately ripped (v2, confidence 2/2)
Statistics
Read error : 0
Jitter error (maybe fixed) : 0
Retry sector count : 0
Damaged sector count : 0

Track 08
Filename : /Volumes/iMac HD - User/Collaborate/what.cd/Seedbox/Various Artists - The Yemenite Jews (1990) [FLAC]/08 Adon Hakol Mehayyeh Kol Neshamah.flac
Pre-gap length : 00:04:55

Track gain : 0.58 dB
Peak : 0.914276
CRC32 hash (test run) : 6B8321EC
CRC32 hash : 6B8321EC
CRC32 hash (skip zero) : A46F3DAB
AccurateRip v1 signature : 65A12767
AccurateRip v2 signature : 373C0DCB
->Accurately ripped (v2, confidence 2/2)
Statistics
Read error : 0
Jitter error (maybe fixed) : 0
Retry sector count : 0
Damaged sector count : 0

Track 09
Filename : /Volumes/iMac HD - User/Collaborate/what.cd/Seedbox/Various Artists - The Yemenite Jews (1990) [FLAC]/09 Adon Hakol Mehayyeh Kol Neshamah.flac
Pre-gap length : 00:04:07

Track gain : 0.15 dB
Peak : 0.728210
CRC32 hash (test run) : 23C758AB
CRC32 hash : 23C758AB
CRC32 hash (skip zero) : 52A947F7
AccurateRip v1 signature : D1471495
AccurateRip v2 signature : AEB3DB01
->Accurately ripped (v2, confidence 2/2)
Statistics
Read error : 0
Jitter error (maybe fixed) : 0
Retry sector count : 0
Damaged sector count : 0

Track 10
Filename : /Volumes/iMac HD - User/Collaborate/what.cd/Seedbox/Various Artists - The Yemenite Jews (1990) [FLAC]/10 Yeda'atani Be-Terem Titsreini, 'Ayin Ve-Lev Yahad Merivim, Hallel.flac
Pre-gap length : 00:05:17

Track gain : -1.19 dB
Peak : 0.852142
CRC32 hash (test run) : 4B884822
CRC32 hash : 4B884822
CRC32 hash (skip zero) : EB56709E
AccurateRip v1 signature : 3C3B953C
AccurateRip v2 signature : 49672505
->Accurately ripped (v2, confidence 2/2)
Statistics
Read error : 0
Jitter error (maybe fixed) : 0
Retry sector count : 0
Damaged sector count : 0

Track 11
Filename : /Volumes/iMac HD - User/Collaborate/what.cd/Seedbox/Various Artists - The Yemenite Jews (1990) [FLAC]/11 Ayyahu Al-Husn El-Musamma.flac
Pre-gap length : 00:05:10

Track gain : -2.70 dB
Peak : 0.894470
CRC32 hash (test run) : 5BBC5434
CRC32 hash : 5BBC5434
CRC32 hash (skip zero) : 6D890723
AccurateRip v1 signature : AF79B7B9
AccurateRip v2 signature : 1B332201
->Accurately ripped (v2, confidence 2/2)
Statistics
Read error : 0
Jitter error (maybe fixed) : 0
Retry sector count : 0
Damaged sector count : 0

No errors occurred

End of status report

––-BEGIN XLD SIGNATURE––-
.xSkDJysc.hJ4HPBjRatzghrb7vjhN4xIz7OTQmcUVuLNGrxm90rM6xbp6Iji9TNt.3Hy0my1R4d82MJC1PPfk9jEFNfv5af2WQ8X2m
––-END XLD SIGNATURE––-

[CUETools log; Date: 01.07.2017 23:49:00; Version: 2.1.4]
Pregap length 00:00:32.
[CTDB TOCID: gz3kHhqROzerEGoBFbsWGKcrF0Y-] disk not present in database.
[AccurateRip ID: 00120651-009efe35-850b770b] found.
Track [ CRC | V2 ] Status
01 [c50f6746|42ebc2f9] (0+2/2) Accurately ripped
02 [7a889a9e|24a2438c] (0+2/2) Accurately ripped
03 [d7b99e7a|d57ffa57] (0+2/2) Accurately ripped
04 [0c97bd96|3b710b1a] (0+2/2) Accurately ripped
05 [8eb07786|9fc5d1f5] (0+2/2) Accurately ripped
06 [c70f5d73|1e92e54e] (0+2/2) Accurately ripped
07 [dc18d379|f87604d9] (0+2/2) Accurately ripped
08 [65a12767|373c0dcb] (0+2/2) Accurately ripped
09 [d1471495|aeb3db01] (0+2/2) Accurately ripped
10 [3c3b953c|49672505] (0+2/2) Accurately ripped
11 [af79b7b9|1b332201] (0+2/2) Accurately ripped

Track Peak [ CRC32 ] [W/O NULL]
– 96,4 [ABF6780F] [1A75B48B]
01 71,6 [0B2BF5B4] [989D3CAB]
02 54,0 [4C8E1001] [E58070C6]
03 86,8 [A7854BF3] [5C650F17]
04 96,4 [B547647A] [5C665316]
05 68,4 [D5B1449C] [D99B06A5]
06 59,6 [C8A1EBA2] [ED5D0B50]
07 71,2 [A4C995A6] [1BD55DC3]
08 91,4 [6B8321EC] [A46F3DAB]
09 72,8 [23C758AB] [52A947F7]
10 85,2 [4B884822] [EB56709E]
11 89,4 [5BBC5434] [6D890723]

foobar2000 1.2 / Dynamic Range Meter 1.1.1
log date: 2017-07-02 00:10:20

––––––––––––––––––––––––––––––––––––––––
Analyzed: Aharon & Israel Habshush, two children from Qiryat Ono / The Yemenite Jews (1)
Aharon Amram, Menahem Arussi, Aharon & Israel Habshush / The Yemenite Jews (2-3)
Menahem Arussi / The Yemenite Jews (4)
The Qiryat Ono Troupe / The Yemenite Jews (5-6)
Tsadoq Tsubeiri & Joseph Ozeiri / The Yemenite Jews (7-8)
Tsadoq Tsubeiri / The Yemenite Jews (9-10)
Zecharia Yitshaq & Joseph Obeiri / The Yemenite Jews (11)
––––––––––––––––––––––––––––––––––––––––

DR Peak RMS Duration Track
––––––––––––––––––––––––––––––––––––––––
DR14 -2.75 dB -20.60 dB 4:09 09-Adon Hakol Mehayyeh Kol Neshamah
DR16 -0.31 dB -20.39 dB 8:04 04-Yashqef Elohim Mi-Me'on Qodsho / Yom Ezkera Het'i / Hallel
DR13 -2.94 dB -19.28 dB 2:56 07-Ahuv Mei-Har Ha-Mor Natan Li Morasha
DR14 -4.49 dB -21.04 dB 1:37 06-Ahuv Yevarech Ha-Hatan
DR13 -1.22 dB -19.34 dB 4:05 03-Ayumati Te'orer Ha-Yesheinim
DR12 -0.97 dB -17.36 dB 5:33 11-Ayyahu Al-Husn El-Musamma
DR12 -2.89 dB -20.57 dB 2:34 01-Shadai Emor Na Daile-Galuteinu
DR13 -0.78 dB -20.45 dB 4:37 08-Adon Hakol Mehayyeh Kol Neshamah
DR10 -5.35 dB -20.94 dB 3:46 02-Tsur Menati
DR13 -3.29 dB -20.82 dB 2:14 05-Sar Ha-Memuneh
DR13 -1.39 dB -18.37 dB 9:18 10-Yeda'atani Be-Terem Titsreini / 'Ayin Ve-Lev Yahad Merivim / Hallel
––––––––––––––––––––––––––––––––––––––––

Number of tracks: 11
Official DR value: DR13

Samplerate: 44100 Hz
Channels: 2
Bits per sample: 16
Bitrate: 741 kbps
Codec: FLAC
================================================================================

VA - Anthology of Traditional Musics: The Yemenite Jews (1978)