Subcategories

The Zombies - The BBC Radio Sessions (2016)

Posted By: v3122
The Zombies - The BBC Radio Sessions (2016)

The Zombies - The BBC Radio Sessions (2016)
EAC | Flac(Image) + Cue + Log & MP3 CBR 320Kbps
2CD | Varèse Sarabande, 302 067 361 8 | ~ 464 or 247 Mb | Scans Included
Classic Rock, Pop Rock, Beat

The Zombies: BBC Radio Sessions: two-CD set is the first complete collection of the Zombies BBC Radio broadcasts ever released on CD. The album includes five previously unreleased tracks that were not included on the limited edition vinyl album issued in 2015…

~ amazon
The Zombies - The BBC Radio Sessions (2016):

The Zombies - The BBC Radio Sessions (2016)

Tracklist CD1:

01. Road Runner (02:09)
02. You Make Me Feel Good (02:24)
03. Wee Baby Blues (01:41)
04. She's Not There (02:17)
05. Interview: The Zombies Find America (00:30)
06. What More Can I Do (02:06)
07. Interview: Before They Were Zombies (01:16)
08. Tell Her No (02:04)
09. I'm Going Home (02:03)
10. For You My Love (02:04)
11. Interview: Different Instruments (00:56)
12. Tell Her No #2 (02:01)
13. Soulville (02:21)
14. Rip It Up (02:31)
15. Interview: The Zombies Return to University (01:06)
16. Can't Nobody Love You (02:17)
17. Tell Her No #3 (02:07)
18. You Must Believe Me (02:30)
19. Interview: Globetrotting Zombies (01:46)
20. Whenever You're Ready (02:37)
21. Just Out of Reach (02:11)
22. Just A Little Bit (02:58)
23. I Must Move (01:44)
24. She's Coming Home (02:52)
25. Pop Profile: Colin Blunstone (09:04)

Converted to Image (CUETools 2.1.4)

Exact Audio Copy V1.1 from 23. June 2015

EAC extraction logfile from 3. June 2016, 18:36

The Zombies / The BBC Radio Sessions

Used drive : ATAPI iHBS212 2 Adapter: 1 ID: 1

Read mode : Secure
Utilize accurate stream : Yes
Defeat audio cache : Yes
Make use of C2 pointers : No

Read offset correction : 6
Overread into Lead-In and Lead-Out : No
Fill up missing offset samples with silence : Yes
Delete leading and trailing silent blocks : No
Null samples used in CRC calculations : Yes
Used interface : Native Win32 interface for Win NT & 2000
Gap handling : Appended to previous track

Used output format : User Defined Encoder
Selected bitrate : 896 kBit/s
Quality : High
Add ID3 tag : No
Command line compressor : C:\Program Files (x86)\Exact Audio Copy\FLAC\FLAC.EXE
Additional command line options : -8 -e -V -T "ARTIST=%artist%" -T "TITLE=%title%" -T "ALBUM=%albumtitle%" -T "DATE=%year%" -T "TRACKNUMBER=%tracknr%" -T "GENRE=%genre%" -T "PERFORMER=%albuminterpret%" -T "COMPOSER=%composer%" %haslyrics%–tag-from-file=LYRICS="%lyricsfile%"%haslyrics% -T "ALBUMARTIST=%albumartist%" -T "DISCNUMBER=%cdnumber%" -T "TOTALDISCS=%totalcds%" -T "TOTALTRACKS=%numtracks%" -T "COMMENT=%comment%" %source% -o %dest%


TOC of the extracted CD

Track | Start | Length | Start sector | End sector
––––––––––––––––––––––––––––-
1 | 0:00.00 | 2:09.46 | 0 | 9720
2 | 2:09.46 | 2:24.47 | 9721 | 20567
3 | 4:34.18 | 1:41.69 | 20568 | 28211
4 | 6:16.12 | 2:17.54 | 28212 | 38540
5 | 8:33.66 | 0:30.40 | 38541 | 40830
6 | 9:04.31 | 2:06.02 | 40831 | 50282
7 | 11:10.33 | 1:16.49 | 50283 | 56031
8 | 12:27.07 | 2:04.21 | 56032 | 65352
9 | 14:31.28 | 2:03.25 | 65353 | 74602
10 | 16:34.53 | 2:04.52 | 74603 | 83954
11 | 18:39.30 | 0:56.52 | 83955 | 88206
12 | 19:36.07 | 2:01.74 | 88207 | 97355
13 | 21:38.06 | 2:21.26 | 97356 | 107956
14 | 23:59.32 | 2:31.68 | 107957 | 119349
15 | 26:31.25 | 1:06.43 | 119350 | 124342
16 | 27:37.68 | 2:17.24 | 124343 | 134641
17 | 29:55.17 | 2:07.55 | 134642 | 144221
18 | 32:02.72 | 2:30.37 | 144222 | 155508
19 | 34:33.34 | 1:46.15 | 155509 | 163473
20 | 36:19.49 | 2:37.36 | 163474 | 175284
21 | 38:57.10 | 2:11.13 | 175285 | 185122
22 | 41:08.23 | 2:58.19 | 185123 | 198491
23 | 44:06.42 | 1:44.66 | 198492 | 206357
24 | 45:51.33 | 2:52.57 | 206358 | 219314
25 | 48:44.15 | 9:04.43 | 219315 | 260157


Track 1

Filename W:\EAC Rips\The Zombies - The BBC Radio Sessions (2016) [FLAC\CD1\01 - Road Runner.wav

Pre-gap length 0:00:02.00

Peak level 89.4 %
Extraction speed 1.7 X
Track quality 100.0 %
Test CRC DF8ED4D8
Copy CRC DF8ED4D8
Accurately ripped (confidence 1) [25BCC783] (AR v2)
Copy OK

Track 2

Filename W:\EAC Rips\The Zombies - The BBC Radio Sessions (2016) [FLAC\CD1\02 - You Make Me Feel Good.wav

Peak level 91.5 %
Extraction speed 1.9 X
Track quality 100.0 %
Test CRC 8124B733
Copy CRC 8124B733
Accurately ripped (confidence 1) [59573669] (AR v2)
Copy OK

Track 3

Filename W:\EAC Rips\The Zombies - The BBC Radio Sessions (2016) [FLAC\CD1\03 - Wee Baby Blues.wav

Pre-gap length 0:00:01.08

Peak level 86.2 %
Extraction speed 1.1 X
Track quality 99.8 %
Test CRC 77332235
Copy CRC 77332235
Accurately ripped (confidence 1) [CCD1BD97] (AR v2)
Copy OK

Track 4

Filename W:\EAC Rips\The Zombies - The BBC Radio Sessions (2016) [FLAC\CD1\04 - She's Not There.wav

Pre-gap length 0:00:01.13

Peak level 82.3 %
Extraction speed 2.0 X
Track quality 100.0 %
Test CRC 8FDE189B
Copy CRC 8FDE189B
Accurately ripped (confidence 1) [46813D50] (AR v2)
Copy OK

Track 5

Filename W:\EAC Rips\The Zombies - The BBC Radio Sessions (2016) [FLAC\CD1\05 - Interview- The Zombies Find America.wav

Pre-gap length 0:00:01.01

Peak level 67.6 %
Extraction speed 0.5 X
Track quality 99.6 %
Test CRC 38C322C6
Copy CRC 38C322C6
Accurately ripped (confidence 1) [B465F2BB] (AR v2)
Copy OK

Track 6

Filename W:\EAC Rips\The Zombies - The BBC Radio Sessions (2016) [FLAC\CD1\06 - What More Can I Do.wav

Peak level 98.8 %
Extraction speed 2.1 X
Track quality 100.0 %
Test CRC 0CF06C24
Copy CRC 0CF06C24
Accurately ripped (confidence 1) [10F928AE] (AR v2)
Copy OK

Track 7

Filename W:\EAC Rips\The Zombies - The BBC Radio Sessions (2016) [FLAC\CD1\07 - Interview- Before They Were Zombies.wav

Peak level 72.2 %
Extraction speed 1.0 X
Track quality 99.8 %
Test CRC DC601D9E
Copy CRC DC601D9E
Accurately ripped (confidence 1) [12F080DD] (AR v2)
Copy OK

Track 8

Filename W:\EAC Rips\The Zombies - The BBC Radio Sessions (2016) [FLAC\CD1\08 - Tell Her No.wav

Peak level 84.6 %
Extraction speed 2.2 X
Track quality 100.0 %
Test CRC D427F962
Copy CRC D427F962
Accurately ripped (confidence 1) [9CE96F88] (AR v2)
Copy OK

Track 9

Filename W:\EAC Rips\The Zombies - The BBC Radio Sessions (2016) [FLAC\CD1\09 - I'm Going Home.wav

Peak level 98.8 %
Extraction speed 2.3 X
Track quality 100.0 %
Test CRC 43AA0224
Copy CRC 43AA0224
Accurately ripped (confidence 1) [E052D8FE] (AR v2)
Copy OK

Track 10

Filename W:\EAC Rips\The Zombies - The BBC Radio Sessions (2016) [FLAC\CD1\10 - For You My Love.wav

Pre-gap length 0:00:01.08

Peak level 91.9 %
Extraction speed 2.4 X
Track quality 100.0 %
Test CRC C06AE5F1
Copy CRC C06AE5F1
Accurately ripped (confidence 1) [022B7FD0] (AR v2)
Copy OK

Track 11

Filename W:\EAC Rips\The Zombies - The BBC Radio Sessions (2016) [FLAC\CD1\11 - Interview- Different Instruments.wav

Peak level 76.6 %
Extraction speed 1.9 X
Track quality 100.0 %
Test CRC 80093D4C
Copy CRC 80093D4C
Accurately ripped (confidence 1) [8F545AD1] (AR v2)
Copy OK

Track 12

Filename W:\EAC Rips\The Zombies - The BBC Radio Sessions (2016) [FLAC\CD1\12 - Tell Her No #2.wav

Peak level 98.8 %
Extraction speed 2.5 X
Track quality 100.0 %
Test CRC 74CABF76
Copy CRC 74CABF76
Accurately ripped (confidence 1) [A7CD6F61] (AR v2)
Copy OK

Track 13

Filename W:\EAC Rips\The Zombies - The BBC Radio Sessions (2016) [FLAC\CD1\13 - Soulville.wav

Peak level 90.2 %
Extraction speed 2.6 X
Track quality 100.0 %
Test CRC ECD58049
Copy CRC ECD58049
Accurately ripped (confidence 1) [B6E07531] (AR v2)
Copy OK

Track 14

Filename W:\EAC Rips\The Zombies - The BBC Radio Sessions (2016) [FLAC\CD1\14 - Rip It Up.wav

Peak level 98.8 %
Extraction speed 2.8 X
Track quality 100.0 %
Test CRC CBB72E48
Copy CRC CBB72E48
Accurately ripped (confidence 1) [883EF643] (AR v2)
Copy OK

Track 15

Filename W:\EAC Rips\The Zombies - The BBC Radio Sessions (2016) [FLAC\CD1\15 - Interview- The Zombies Return to University.wav

Peak level 90.9 %
Extraction speed 2.3 X
Track quality 100.0 %
Test CRC 990B9BC0
Copy CRC 990B9BC0
Accurately ripped (confidence 1) [55359F59] (AR v2)
Copy OK

Track 16

Filename W:\EAC Rips\The Zombies - The BBC Radio Sessions (2016) [FLAC\CD1\16 - Can't Nobody Love You.wav

Peak level 98.8 %
Extraction speed 2.8 X
Track quality 100.0 %
Test CRC 2100176C
Copy CRC 2100176C
Accurately ripped (confidence 1) [FA9CAD79] (AR v2)
Copy OK

Track 17

Filename W:\EAC Rips\The Zombies - The BBC Radio Sessions (2016) [FLAC\CD1\17 - Tell Her No #3.wav

Peak level 98.8 %
Extraction speed 2.8 X
Track quality 100.0 %
Test CRC A2B65530
Copy CRC A2B65530
Accurately ripped (confidence 1) [0D44B569] (AR v2)
Copy OK

Track 18

Filename W:\EAC Rips\The Zombies - The BBC Radio Sessions (2016) [FLAC\CD1\18 - You Must Believe Me.wav

Pre-gap length 0:00:01.09

Peak level 84.3 %
Extraction speed 3.0 X
Track quality 100.0 %
Test CRC 58498DC4
Copy CRC 58498DC4
Accurately ripped (confidence 1) [A91BE24E] (AR v2)
Copy OK

Track 19

Filename W:\EAC Rips\The Zombies - The BBC Radio Sessions (2016) [FLAC\CD1\19 - Interview- Globetrotting Zombies.wav

Peak level 75.2 %
Extraction speed 2.9 X
Track quality 100.0 %
Test CRC 363FF127
Copy CRC 363FF127
Accurately ripped (confidence 1) [DF5407DF] (AR v2)
Copy OK

Track 20

Filename W:\EAC Rips\The Zombies - The BBC Radio Sessions (2016) [FLAC\CD1\20 - Whenever You're Ready.wav

Peak level 84.1 %
Extraction speed 3.2 X
Track quality 100.0 %
Test CRC FBD200A9
Copy CRC FBD200A9
Accurately ripped (confidence 1) [483A5DFD] (AR v2)
Copy OK

Track 21

Filename W:\EAC Rips\The Zombies - The BBC Radio Sessions (2016) [FLAC\CD1\21 - Just Out of Reach.wav

Peak level 80.2 %
Extraction speed 3.1 X
Track quality 100.0 %
Test CRC 31948654
Copy CRC 31948654
Accurately ripped (confidence 1) [EA69B792] (AR v2)
Copy OK

Track 22

Filename W:\EAC Rips\The Zombies - The BBC Radio Sessions (2016) [FLAC\CD1\22 - Just A Little Bit.wav

Peak level 98.8 %
Extraction speed 2.4 X
Track quality 99.9 %
Test CRC 609B72C2
Copy CRC 609B72C2
Accurately ripped (confidence 1) [3C2A851B] (AR v2)
Copy OK

Track 23

Filename W:\EAC Rips\The Zombies - The BBC Radio Sessions (2016) [FLAC\CD1\23 - I Must Move.wav

Peak level 98.8 %
Extraction speed 1.8 X
Track quality 99.8 %
Test CRC E66D0BC5
Copy CRC E66D0BC5
Accurately ripped (confidence 1) [5395143E] (AR v2)
Copy OK

Track 24

Filename W:\EAC Rips\The Zombies - The BBC Radio Sessions (2016) [FLAC\CD1\24 - She's Coming Home.wav

Peak level 98.8 %
Extraction speed 3.5 X
Track quality 100.0 %
Test CRC 57496A3B
Copy CRC 57496A3B
Accurately ripped (confidence 1) [BBFEAB93] (AR v2)
Copy OK

Track 25

Filename W:\EAC Rips\The Zombies - The BBC Radio Sessions (2016) [FLAC\CD1\25 - Pop Profile- Colin Blunstone.wav

Peak level 96.7 %
Extraction speed 4.2 X
Track quality 100.0 %
Test CRC D51CD2D3
Copy CRC D51CD2D3
Accurately ripped (confidence 1) [9CF452BE] (AR v2)
Copy OK


All tracks accurately ripped

No errors occurred

End of status report

–– CUETools DB Plugin V2.1.6

[CTDB TOCID: ljLYd1RZNF9u2LhIdabu5ZN8TDg-] disk not present in database
Submit result: ljLYd1RZNF9u2LhIdabu5ZN8TDg- has been uploaded


==== Log checksum 8FFA676681794668CEB0873CA5C9F0C66231C80D47907182C1E7E692AC704EC2 ====

foobar2000 1.2.9 / Dynamic Range Meter 1.1.1
log date: 2017-02-22 19:11:30

––––––––––––––––––––––––––––––––––––––––
Analyzed: The Zombies / The BBC Radio Sessions
––––––––––––––––––––––––––––––––––––––––

DR Peak RMS Duration Track
––––––––––––––––––––––––––––––––––––––––
DR9 -0.97 dB -12.24 dB 2:10 01-Road Runner
DR9 -0.77 dB -11.66 dB 2:25 02-You Make Me Feel Good
DR10 -1.29 dB -12.97 dB 1:42 03-Wee Baby Blues
DR9 -1.69 dB -12.45 dB 2:18 04-She's Not There
DR10 -3.40 dB -16.12 dB 0:31 05-Interview: The Zombies Find America
DR9 -0.10 dB -10.53 dB 2:06 06-What More Can I Do
DR10 -2.82 dB -17.98 dB 1:17 07-Interview: Before They Were Zombies
DR9 -1.44 dB -12.28 dB 2:04 08-Tell Her No
DR9 -0.10 dB -10.89 dB 2:03 09-I'm Going Home
DR10 -0.73 dB -12.85 dB 2:05 10-For You My Love
DR14 -2.31 dB -20.81 dB 0:57 11-Interview: Different Instruments
DR9 -0.10 dB -11.16 dB 2:02 12-Tell Her No #2
DR10 -0.89 dB -12.01 dB 2:21 13-Soulville
DR10 -0.10 dB -11.75 dB 2:32 14-Rip It Up
DR12 -0.82 dB -17.94 dB 1:07 15-Interview: The Zombies Return to University
DR10 -0.10 dB -11.88 dB 2:17 16-Can't Nobody Love You
DR9 -0.10 dB -10.26 dB 2:08 17-Tell Her No #3
DR9 -1.48 dB -11.95 dB 2:30 18-You Must Believe Me
DR13 -2.47 dB -17.80 dB 1:46 19-Interview: Globetrotting Zombies
DR8 -1.49 dB -11.24 dB 2:37 20-Whenever You're Ready
DR7 -1.91 dB -10.96 dB 2:11 21-Just Out of Reach
DR9 -0.10 dB -10.80 dB 2:58 22-Just A Little Bit
DR9 -0.10 dB -10.42 dB 1:45 23-I Must Move
DR8 -0.10 dB -11.67 dB 2:53 24-She's Coming Home
DR13 -0.29 dB -16.84 dB 9:05 25-Pop Profile: Colin Blunstone
––––––––––––––––––––––––––––––––––––––––

Number of tracks: 25
Official DR value: DR10

Samplerate: 44100 Hz
Channels: 2
Bits per sample: 16
Bitrate: 592 kbps
Codec: FLAC

[CUETools log; Date: 22.02.2017 19:11:35; Version: 2.1.4]
[CTDB TOCID: ljLYd1RZNF9u2LhIdabu5ZN8TDg-] found.
Track | CTDB Status
1 | (4/4) Accurately ripped
2 | (4/4) Accurately ripped
3 | (4/4) Accurately ripped
4 | (4/4) Accurately ripped
5 | (4/4) Accurately ripped
6 | (4/4) Accurately ripped
7 | (4/4) Accurately ripped
8 | (4/4) Accurately ripped
9 | (4/4) Accurately ripped
10 | (4/4) Accurately ripped
11 | (4/4) Accurately ripped
12 | (4/4) Accurately ripped
13 | (4/4) Accurately ripped
14 | (4/4) Accurately ripped
15 | (4/4) Accurately ripped
16 | (4/4) Accurately ripped
17 | (4/4) Accurately ripped
18 | (4/4) Accurately ripped
19 | (4/4) Accurately ripped
20 | (4/4) Accurately ripped
21 | (4/4) Accurately ripped
22 | (4/4) Accurately ripped
23 | (4/4) Accurately ripped
24 | (4/4) Accurately ripped
25 | (4/4) Accurately ripped
[AccurateRip ID: 002b7492-03186d6e-730d8c19] found.
Track [ CRC | V2 ] Status
01 [480bc24d|25bcc783] (0+2/2) Accurately ripped
02 [d955fb83|59573669] (0+2/2) Accurately ripped
03 [4e46a5ca|ccd1bd97] (0+2/2) Accurately ripped
04 [72ba2089|46813d50] (0+2/2) Accurately ripped
05 [29292ad1|b465f2bb] (0+2/2) Accurately ripped
06 [469fee3e|10f928ae] (0+2/2) Accurately ripped
07 [ab8fb78d|12f080dd] (0+2/2) Accurately ripped
08 [4ddc9afe|9ce96f88] (0+2/2) Accurately ripped
09 [c13777bf|e052d8fe] (0+2/2) Accurately ripped
10 [63ae8f09|022b7fd0] (0+2/2) Accurately ripped
11 [e7572832|8f545ad1] (0+2/2) Accurately ripped
12 [c2ceb806|a7cd6f61] (0+2/2) Accurately ripped
13 [81a9a8a1|b6e07531] (0+2/2) Accurately ripped
14 [d45c5662|883ef643] (0+2/2) Accurately ripped
15 [511d87ad|55359f59] (0+2/2) Accurately ripped
16 [4eeb4974|fa9cad79] (0+2/2) Accurately ripped
17 [79584cf6|0d44b569] (0+2/2) Accurately ripped
18 [e53a6371|a91be24e] (0+2/2) Accurately ripped
19 [c9ca2b8e|df5407df] (0+2/2) Accurately ripped
20 [33552fbc|483a5dfd] (0+2/2) Accurately ripped
21 [bb367ce0|ea69b792] (0+2/2) Accurately ripped
22 [7d1fe23a|3c2a851b] (0+2/2) Accurately ripped
23 [06097fe0|5395143e] (0+2/2) Accurately ripped
24 [7431a1a3|bbfeab93] (0+2/2) Accurately ripped
25 [4012c796|9cf452be] (0+2/2) Accurately ripped

Track Peak [ CRC32 ] [W/O NULL] [ LOG ]
– 98,8 [1B1ED6DA] [91DC7017]
01 89,4 [DF8ED4D8] [D6D9916F] CRC32
02 91,5 [8124B733] [A4CD8EA8] CRC32
03 86,2 [77332235] [DB660DC5] CRC32
04 82,3 [8FDE189B] [07138F01] CRC32
05 67,6 [38C322C6] [9B3E8EE1] CRC32
06 98,8 [0CF06C24] [E80CC00F] CRC32
07 72,2 [DC601D9E] [1F87672E] CRC32
08 84,6 [D427F962] [878092B1] CRC32
09 98,8 [43AA0224] [E923547B] CRC32
10 91,9 [C06AE5F1] [0C565E43] CRC32
11 76,6 [80093D4C] [6C45D219] CRC32
12 98,8 [74CABF76] [F78D8514] CRC32
13 90,2 [ECD58049] [09D34328] CRC32
14 98,8 [CBB72E48] [206B7271] CRC32
15 90,9 [990B9BC0] [AA327974] CRC32
16 98,8 [2100176C] [A9C58F84] CRC32
17 98,8 [A2B65530] [1C193980] CRC32
18 84,3 [58498DC4] [A18993E1] CRC32
19 75,2 [363FF127] [5245BB01] CRC32
20 84,1 [FBD200A9] [93FD9982] CRC32
21 80,2 [31948654] [15A52DB0] CRC32
22 98,8 [609B72C2] [3F2761F8] CRC32
23 98,8 [E66D0BC5] [B8A48D13] CRC32
24 98,8 [57496A3B] [D499332A] CRC32
25 96,7 [D51CD2D3] [96DDF086] CRC32

The Zombies - The BBC Radio Sessions (2016)

Tracklist CD2:

01. It's Alright (02:40)
02. Interview: The Zombies Talk About America (01:11)
03. Will You Love Me Tomorrow (02:44)
04. When the Lovelight Starts Shining Through Her Eyes (02:28)
05. If It Don't Work Out (02:27)
06. Just A Little Bit (02:53)
07. Will You Love Me Tomorrow (02:36)
08. You Must Believe Me (02:16)
09. Sitting In the Park (02:21)
10. Gotta Get A Hold of Myself (02:44)
11. Interview: Colin Talks About the Continent (01:16)
12. Goin' Out of My Head (02:29)
13. This Old Heart of Mine (02:57)
14. Loving You Is Sweeter Than Ever (02:20)
15. This Old Heart of Mine (02:26)
16. Friends of Mine (02:14)
17. The Look of Love (02:24)
18. Kenney Everett Interview and Jingle Medley (04:49)

Converted to Image (CUETools 2.1.4)

Exact Audio Copy V1.1 from 23. June 2015

EAC extraction logfile from 3. June 2016, 19:38

The Zombies / The BBC Radio Sessions

Used drive : ATAPI iHBS212 2 Adapter: 1 ID: 1

Read mode : Secure
Utilize accurate stream : Yes
Defeat audio cache : Yes
Make use of C2 pointers : No

Read offset correction : 6
Overread into Lead-In and Lead-Out : No
Fill up missing offset samples with silence : Yes
Delete leading and trailing silent blocks : No
Null samples used in CRC calculations : Yes
Used interface : Native Win32 interface for Win NT & 2000
Gap handling : Appended to previous track

Used output format : User Defined Encoder
Selected bitrate : 896 kBit/s
Quality : High
Add ID3 tag : No
Command line compressor : C:\Program Files (x86)\Exact Audio Copy\FLAC\FLAC.EXE
Additional command line options : -8 -e -V -T "ARTIST=%artist%" -T "TITLE=%title%" -T "ALBUM=%albumtitle%" -T "DATE=%year%" -T "TRACKNUMBER=%tracknr%" -T "GENRE=%genre%" -T "PERFORMER=%albuminterpret%" -T "COMPOSER=%composer%" %haslyrics%–tag-from-file=LYRICS="%lyricsfile%"%haslyrics% -T "ALBUMARTIST=%albumartist%" -T "DISCNUMBER=%cdnumber%" -T "TOTALDISCS=%totalcds%" -T "TOTALTRACKS=%numtracks%" -T "COMMENT=%comment%" %source% -o %dest%


TOC of the extracted CD

Track | Start | Length | Start sector | End sector
––––––––––––––––––––––––––––-
1 | 0:00.00 | 2:40.14 | 0 | 12013
2 | 2:40.14 | 1:11.71 | 12014 | 17409
3 | 3:52.10 | 2:44.13 | 17410 | 29722
4 | 6:36.23 | 2:28.51 | 29723 | 40873
5 | 9:04.74 | 2:27.22 | 40874 | 51920
6 | 11:32.21 | 2:53.27 | 51921 | 64922
7 | 14:25.48 | 2:36.65 | 64923 | 76687
8 | 17:02.38 | 2:16.23 | 76688 | 86910
9 | 19:18.61 | 2:21.34 | 86911 | 97519
10 | 21:40.20 | 2:44.02 | 97520 | 109821
11 | 24:24.22 | 1:16.51 | 109822 | 115572
12 | 25:40.73 | 2:29.48 | 115573 | 126795
13 | 28:10.46 | 2:57.11 | 126796 | 140081
14 | 31:07.57 | 2:20.13 | 140082 | 150594
15 | 33:27.70 | 2:26.07 | 150595 | 161551
16 | 35:54.02 | 2:14.65 | 161552 | 171666
17 | 38:08.67 | 2:24.41 | 171667 | 182507
18 | 40:33.33 | 4:49.69 | 182508 | 204251


Track 1

Filename W:\EAC Rips\The Zombies - The BBC Radio Sessions (2016) [FLAC\CD2\01 - It's Alright.wav

Pre-gap length 0:00:02.00

Peak level 77.5 %
Extraction speed 1.8 X
Track quality 100.0 %
Test CRC 8066E879
Copy CRC 8066E879
Accurately ripped (confidence 1) [38EF7AF1] (AR v2)
Copy OK

Track 2

Filename W:\EAC Rips\The Zombies - The BBC Radio Sessions (2016) [FLAC\CD2\02 - Interview- The Zombies Talk About America.wav

Peak level 81.2 %
Extraction speed 1.5 X
Track quality 100.0 %
Test CRC AE14E1A3
Copy CRC AE14E1A3
Accurately ripped (confidence 1) [C92E9306] (AR v2)
Copy OK

Track 3

Filename W:\EAC Rips\The Zombies - The BBC Radio Sessions (2016) [FLAC\CD2\03 - Will You Love Me Tomorrow.wav

Peak level 73.8 %
Extraction speed 2.0 X
Track quality 100.0 %
Test CRC 42EEC88C
Copy CRC 42EEC88C
Accurately ripped (confidence 1) [995A6494] (AR v2)
Copy OK

Track 4

Filename W:\EAC Rips\The Zombies - The BBC Radio Sessions (2016) [FLAC\CD2\04 - When the Lovelight Starts Shining Through Her Eyes.wav

Peak level 74.6 %
Extraction speed 2.1 X
Track quality 100.0 %
Test CRC C92822FB
Copy CRC C92822FB
Accurately ripped (confidence 1) [AC77A9BF] (AR v2)
Copy OK

Track 5

Filename W:\EAC Rips\The Zombies - The BBC Radio Sessions (2016) [FLAC\CD2\05 - If It Don't Work Out.wav

Peak level 88.0 %
Extraction speed 2.2 X
Track quality 100.0 %
Test CRC B0C1E4FC
Copy CRC B0C1E4FC
Accurately ripped (confidence 1) [B908AA00] (AR v2)
Copy OK

Track 6

Filename W:\EAC Rips\The Zombies - The BBC Radio Sessions (2016) [FLAC\CD2\06 - Just A Little Bit.wav

Peak level 83.1 %
Extraction speed 2.4 X
Track quality 100.0 %
Test CRC 73BD6755
Copy CRC 73BD6755
Accurately ripped (confidence 1) [D7AB9051] (AR v2)
Copy OK

Track 7

Filename W:\EAC Rips\The Zombies - The BBC Radio Sessions (2016) [FLAC\CD2\07 - Will You Love Me Tomorrow.wav

Peak level 74.0 %
Extraction speed 2.5 X
Track quality 100.0 %
Test CRC 2ECADF3B
Copy CRC 2ECADF3B
Accurately ripped (confidence 1) [7491010F] (AR v2)
Copy OK

Track 8

Filename W:\EAC Rips\The Zombies - The BBC Radio Sessions (2016) [FLAC\CD2\08 - You Must Believe Me.wav

Peak level 83.1 %
Extraction speed 2.5 X
Track quality 100.0 %
Test CRC 67E3DA2E
Copy CRC 67E3DA2E
Accurately ripped (confidence 1) [5801E347] (AR v2)
Copy OK

Track 9

Filename W:\EAC Rips\The Zombies - The BBC Radio Sessions (2016) [FLAC\CD2\09 - Sitting In the Park.wav

Peak level 82.4 %
Extraction speed 2.5 X
Track quality 100.0 %
Test CRC 8E4414D2
Copy CRC 8E4414D2
Accurately ripped (confidence 1) [8F19B238] (AR v2)
Copy OK

Track 10

Filename W:\EAC Rips\The Zombies - The BBC Radio Sessions (2016) [FLAC\CD2\10 - Gotta Get A Hold of Myself.wav

Peak level 83.1 %
Extraction speed 1.9 X
Track quality 99.9 %
Test CRC BF191E19
Copy CRC BF191E19
Accurately ripped (confidence 1) [B13CECD6] (AR v2)
Copy OK

Track 11

Filename W:\EAC Rips\The Zombies - The BBC Radio Sessions (2016) [FLAC\CD2\11 - Interview- Colin Talks About the Continent.wav

Peak level 82.0 %
Extraction speed 1.2 X
Track quality 99.8 %
Test CRC 37771910
Copy CRC 37771910
Accurately ripped (confidence 1) [9C266307] (AR v2)
Copy OK

Track 12

Filename W:\EAC Rips\The Zombies - The BBC Radio Sessions (2016) [FLAC\CD2\12 - Goin' Out of My Head.wav

Peak level 81.0 %
Extraction speed 2.8 X
Track quality 100.0 %
Test CRC D3EE4D28
Copy CRC D3EE4D28
Accurately ripped (confidence 1) [2412E9C0] (AR v2)
Copy OK

Track 13

Filename W:\EAC Rips\The Zombies - The BBC Radio Sessions (2016) [FLAC\CD2\13 - This Old Heart of Mine.wav

Peak level 78.4 %
Extraction speed 3.0 X
Track quality 100.0 %
Test CRC 1C8C50DF
Copy CRC 1C8C50DF
Accurately ripped (confidence 1) [02F7FACF] (AR v2)
Copy OK

Track 14

Filename W:\EAC Rips\The Zombies - The BBC Radio Sessions (2016) [FLAC\CD2\14 - Loving You Is Sweeter Than Ever.wav

Peak level 84.4 %
Extraction speed 2.9 X
Track quality 100.0 %
Test CRC 3F848BF3
Copy CRC 3F848BF3
Accurately ripped (confidence 1) [DBB97372] (AR v2)
Copy OK

Track 15

Filename W:\EAC Rips\The Zombies - The BBC Radio Sessions (2016) [FLAC\CD2\15 - This Old Heart of Mine.wav

Peak level 91.2 %
Extraction speed 2.0 X
Track quality 99.9 %
Test CRC DA23AC81
Copy CRC DA23AC81
Accurately ripped (confidence 1) [C42BCAC5] (AR v2)
Copy OK

Track 16

Filename W:\EAC Rips\The Zombies - The BBC Radio Sessions (2016) [FLAC\CD2\16 - Friends of Mine.wav

Peak level 90.0 %
Extraction speed 3.1 X
Track quality 100.0 %
Test CRC 429FF1D6
Copy CRC 429FF1D6
Accurately ripped (confidence 1) [BE3CF881] (AR v2)
Copy OK

Track 17

Filename W:\EAC Rips\The Zombies - The BBC Radio Sessions (2016) [FLAC\CD2\17 - The Look of Love.wav

Peak level 80.5 %
Extraction speed 3.2 X
Track quality 100.0 %
Test CRC 8E884C81
Copy CRC 8E884C81
Accurately ripped (confidence 1) [C3FEAF29] (AR v2)
Copy OK

Track 18

Filename W:\EAC Rips\The Zombies - The BBC Radio Sessions (2016) [FLAC\CD2\18 - Kenney Everett Interview and Jingle Medley.wav

Pre-gap length 0:00:01.42

Peak level 78.1 %
Extraction speed 3.7 X
Track quality 100.0 %
Test CRC B7C63B1B
Copy CRC B7C63B1B
Accurately ripped (confidence 1) [3CD351C0] (AR v2)
Copy OK


All tracks accurately ripped

No errors occurred

End of status report

–– CUETools DB Plugin V2.1.6

[CTDB TOCID: _VBXp03s1iu.88GpO_S8LYxOyTM-] disk not present in database
Submit result: _VBXp03s1iu.88GpO_S8LYxOyTM- has been uploaded


==== Log checksum 374C20D7AF3CD8815BBD043A225310567ED7AEDAE25B33752F8458AB0F5E6FF7 ====

foobar2000 1.2.9 / Dynamic Range Meter 1.1.1
log date: 2017-02-22 19:11:11

––––––––––––––––––––––––––––––––––––––––
Analyzed: The Zombies / The BBC Radio Sessions
––––––––––––––––––––––––––––––––––––––––

DR Peak RMS Duration Track
––––––––––––––––––––––––––––––––––––––––
DR9 -2.21 dB -12.96 dB 2:40 01-It's Alright
DR11 -1.81 dB -15.70 dB 1:12 02-Interview: The Zombies Talk About America
DR6 -2.63 dB -10.41 dB 2:44 03-Will You Love Me Tomorrow
DR7 -2.54 dB -11.93 dB 2:29 04- When the Lovelight Starts Shining Through Her Eyes
DR7 -1.10 dB -10.33 dB 2:27 05-If It Don't Work Out
DR7 -1.61 dB -11.03 dB 2:53 06-Just A Little Bit
DR7 -2.61 dB -10.99 dB 2:37 07-Will You Love Me Tomorrow
DR8 -1.61 dB -11.09 dB 2:16 08-You Must Believe Me
DR9 -1.68 dB -13.04 dB 2:21 09-Sitting In the Park
DR8 -1.61 dB -10.80 dB 2:44 10-Gotta Get A Hold of Myself
DR12 -1.72 dB -16.46 dB 1:17 11-Interview: Colin Talks About the Continent
DR9 -1.83 dB -11.85 dB 2:30 12-Goin' Out of My Head
DR9 -2.11 dB -12.19 dB 2:57 13-This Old Heart of Mine
DR8 -1.47 dB -10.28 dB 2:20 14-Loving You Is Sweeter Than Ever
DR7 -0.79 dB -9.98 dB 2:26 15-This Old Heart of Mine
DR10 -0.91 dB -11.61 dB 2:15 16-Friends of Mine
DR9 -1.88 dB -12.93 dB 2:25 17-The Look of Love
DR9 -2.14 dB -13.98 dB 4:50 18-Kenney Everett Interview and Jingle Medley
––––––––––––––––––––––––––––––––––––––––

Number of tracks: 18
Official DR value: DR8

Samplerate: 44100 Hz
Channels: 2
Bits per sample: 16
Bitrate: 625 kbps
Codec: FLAC

[CUETools log; Date: 22.02.2017 19:11:15; Version: 2.1.4]
[CTDB TOCID: _VBXp03s1iu.88GpO_S8LYxOyTM-] found.
Track | CTDB Status
1 | (4/4) Accurately ripped
2 | (4/4) Accurately ripped
3 | (4/4) Accurately ripped
4 | (4/4) Accurately ripped
5 | (4/4) Accurately ripped
6 | (4/4) Accurately ripped
7 | (4/4) Accurately ripped
8 | (4/4) Accurately ripped
9 | (4/4) Accurately ripped
10 | (4/4) Accurately ripped
11 | (4/4) Accurately ripped
12 | (4/4) Accurately ripped
13 | (4/4) Accurately ripped
14 | (4/4) Accurately ripped
15 | (4/4) Accurately ripped
16 | (4/4) Accurately ripped
17 | (4/4) Accurately ripped
18 | (4/4) Accurately ripped
[AccurateRip ID: 001c16bf-01786ab5-ef0aa312] found.
Track [ CRC | V2 ] Status
01 [6f2cb81d|38ef7af1] (0+2/2) Accurately ripped
02 [dbda4545|c92e9306] (0+2/2) Accurately ripped
03 [84eebaa3|995a6494] (0+2/2) Accurately ripped
04 [bbb3cf8e|ac77a9bf] (0+2/2) Accurately ripped
05 [2a99ecf1|b908aa00] (0+2/2) Accurately ripped
06 [6eeb1eb3|d7ab9051] (0+2/2) Accurately ripped
07 [8966f07a|7491010f] (0+2/2) Accurately ripped
08 [2322b919|5801e347] (0+2/2) Accurately ripped
09 [1b645449|8f19b238] (0+2/2) Accurately ripped
10 [2e72db15|b13cecd6] (0+2/2) Accurately ripped
11 [b83df7d3|9c266307] (0+2/2) Accurately ripped
12 [3eb63ace|2412e9c0] (0+2/2) Accurately ripped
13 [c68dfb82|02f7facf] (0+2/2) Accurately ripped
14 [c37b777f|dbb97372] (0+2/2) Accurately ripped
15 [05022378|c42bcac5] (0+2/2) Accurately ripped
16 [c83070b3|be3cf881] (0+2/2) Accurately ripped
17 [ddcb3fa7|c3feaf29] (0+2/2) Accurately ripped
18 [95dc8015|3cd351c0] (0+2/2) Accurately ripped

Track Peak [ CRC32 ] [W/O NULL] [ LOG ]
– 91,2 [056ECC3D] [D4C648C3]
01 77,5 [8066E879] [0EE3B9CD] CRC32
02 81,2 [AE14E1A3] [697C446D] CRC32
03 73,8 [42EEC88C] [0F7E0011] CRC32
04 74,6 [C92822FB] [CABDD302] CRC32
05 88,0 [B0C1E4FC] [97EAE8BA] CRC32
06 83,1 [73BD6755] [B6C284F6] CRC32
07 74,0 [2ECADF3B] [DF9B19BB] CRC32
08 83,1 [67E3DA2E] [AFCBCAE8] CRC32
09 82,4 [8E4414D2] [F6484E2A] CRC32
10 83,1 [BF191E19] [D045C1EE] CRC32
11 82,0 [37771910] [7BA286DF] CRC32
12 81,0 [D3EE4D28] [6DD5BC24] CRC32
13 78,4 [1C8C50DF] [FA9E3DE6] CRC32
14 84,4 [3F848BF3] [D567781B] CRC32
15 91,2 [DA23AC81] [C345A9BF] CRC32
16 90,0 [429FF1D6] [259AF0F3] CRC32
17 80,5 [8E884C81] [2A8442C4] CRC32
18 78,1 [B7C63B1B] [596ECD29] CRC32

The Zombies - The BBC Radio Sessions (2016)

All thanks go to the original releaser

The Zombies in my Blog

Download The Zombies - The BBC Radio Sessions (2016):