The Zoo Duet - Michael Nyman: Music For Two Pianos (2004) [Repost]

Posted By: Designol
The Zoo Duet - Michael Nyman: Music For Two Pianos (2004) [Repost]

The Zoo Duet - Michael Nyman: Music For Two Pianos (2004)
EAC | FLAC | Image (Cue&Log) ~ 186 Mb | Mp3 (CBR320) ~ 131 Mb | Artwork included
Classical, Minimalism | Label: Signum Classics | # SIGCD506 | 00:56:40

Released shortly after the composer's 60th birthday, this album from The Zoo Duet presents works that deserve to be better known. Taking a line for a second walk is vintage Nyman, conceived originally as an orchestral work for Houston Ballet in 1966 and transcribed for two amplified pianos without any loss of its hypnotic intensity. Water Dances began life as music for Peter Greenaway's film Making A Splash and receives its premiere recording in its five-movement form on this disc.

Review by Music Week

Alongside Ludovico Einaudi, Nyman is the world's foremost composer for contemporary piano. But unlike his Italian compadre, Nyman delights in pushing back the frontiers of new compostion. His music is romantic, at times chaotic and always inventive. This collection features three pieces, an orchestral work, a five-movement piece for film and a delightful five-minute interlude.

Review by The Shropshire Star

Perhaps the most important aspect of Michael Nyman’s music is that it requires little in the way of explanation. It may be interesting to note that Taking a line for a second walk began life in 1986 as an orchestral work from the Houston Ballet, or that Water Dances—originally written for Peter Greenaway’s film Making a splash and appearing here in its five-movement form for the first time—is in part derived from a chord progression taken from a Monteverdi madrigal. Like the best classical , jazz or pop music, Nyman’s output does stand up to closer analysis, but the secret of its appeal lies not in the field of the academic, but rather in its ability to speak to a large and culturally diverse audience.

Nyman is one of the key figures in a nameless movement which has revolutionised contemporary classical music over the last twenty years. ‘Art music’ has undergone a seachange and composers have emerged with the technical ability and the self-confidence to demonstrate that it is possible to write progressive and challenging new music without alienating a large part of the classical audience, while attracting an even broader rock-and poporientated public.

This group of composers has effectively dismantled the barriers which were perceived to have existed between the worlds of classical and popular music, but no-one has played a greater role in bridging this divide than Michael Nyman. He has combined Purcell and Mozart, 1950s rock ‘n’ roll, ancient Sumerian quasi-feminist texts, Queens Park Rangers Football Club and innumerable other diverse musical and cultural sources to produce a style of composition which is romantic, eclectic, occasionally chaotic, but uniquely his own.

Nick Kimberley © 2003

The Zoo Duet - Michael Nyman: Music For Two Pianos (2004) [Repost]



Recording details: March 1994
Floating Earth Studios, United Kingdom

Tracklist:

01. Taking A Line For A Second Walk (11:53)
02. (untitled) (5:46)
03. (untitled) (5:33)
04. Lady In The Red Hat (5:29)

05. Water Dances I (4:04)
06. Water Dances II (5:17)
07. Water Dances III (5:50)
08. Water Dances IV (5:15)
09. Water Dances V (7:34)


Exact Audio Copy V0.99 prebeta 5 from 4. May 2009

Отчёт EAC об извлечении, выполненном 16. ноября 2009, 1:13

Michael Nyman / Music For Two Pianos

Дисковод: Optiarc DVD RW AD-7203A Adapter: 4 ID: 1

Режим чтения : Достоверность
Использование точного потока : Да
Отключение кэша аудио : Да
Использование указателей C2 : Нет

Коррекция смещения при чтении : 48
Способность читать области Lead-in и Lead-out : Нет
Заполнение пропущенных сэмплов тишиной : Да
Удаление блоков с тишиной в начале и конце : Нет
При вычислениях CRC использовались нулевые сэмплы : Да
Интерфейс : Встроенный Win32-интерфейс для Win NT/2000

Выходной формат : Пользовательский кодировщик
Выбранный битрейт : 128 kBit/s
Качество : Высокий
Добавление ID3-тэга : Нет
Утилита сжатия : C:\Program Files\FLAC\flac.exe
Дополнительные параметры : -5 -V %s


TOC извлечённого CD

Трек | Старт | Длительность | Начальный сектор | Конечный сектор
––––––––––––––––––––––––––––––––––-
1 | 0:00.00 | 11:52.40 | 0 | 53439
2 | 11:52.40 | 5:45.50 | 53440 | 79364
3 | 17:38.15 | 5:33.07 | 79365 | 104346
4 | 23:11.22 | 5:29.35 | 104347 | 129056
5 | 28:40.57 | 4:03.53 | 129057 | 147334
6 | 32:44.35 | 5:16.67 | 147335 | 171101
7 | 38:01.27 | 5:49.53 | 171102 | 197329
8 | 43:51.05 | 5:15.27 | 197330 | 220981
9 | 49:06.32 | 7:33.50 | 220982 | 255006


Характеристики диапазона извлечения и сообщения об ошибках

Выбранный диапазон

Имя файла D:\EAC\Michael Nyman - Music For Two Pianos.wav

Пиковый уровень 86.3 %
Качество диапазона 100.0 %
CRC теста 858C5B62
CRC копии 858C5B62
Копирование… OK

Ошибок не произошло


AccurateRip: сводка

Трек 1 точность не определена (достоверность 2) [2908A1F2], AccurateRip вернул [9950AD83]
Трек 2 точность не определена (достоверность 2) [F56280F2], AccurateRip вернул [4527228B]
Трек 3 точность не определена (достоверность 2) [E56E45F9], AccurateRip вернул [254BD813]
Трек 4 точность не определена (достоверность 2) [780F6B0E], AccurateRip вернул [0216C6C9]
Трек 5 точность не определена (достоверность 2) [08D49CF1], AccurateRip вернул [9FD3BD21]
Трек 6 точность не определена (достоверность 2) [E724B68F], AccurateRip вернул [0F714142]
Трек 7 точность не определена (достоверность 2) [4DE29A46], AccurateRip вернул [7971939B]
Трек 8 точность не определена (достоверность 2) [B4B873C2], AccurateRip вернул [9FB135C2]
Трек 9 точность не определена (достоверность 2) [4938E135], AccurateRip вернул [D60E716B]

Ни один трек не прошёл проверки на точность
В вашей базе может быть иной вариант штамповки диска

Конец отчёта

[CUETools log; Date: 08.07.2017 20:47:51; Version: 2.1.4]
[CTDB TOCID: aZJxqRi4792Z5P22KjivW0f4VbI-] found.
Track | CTDB Status
1 | (14/14) Accurately ripped
2 | (14/14) Accurately ripped
3 | (14/14) Accurately ripped
4 | (14/14) Accurately ripped
5 | (14/14) Accurately ripped
6 | (14/14) Accurately ripped
7 | (14/14) Accurately ripped
8 | (14/14) Accurately ripped
9 | (14/14) Accurately ripped
[AccurateRip ID: 0014b88d-00929709-7b0d4809] found.
Track [ CRC | V2 ] Status
01 [2908a1f2|607340d1] (0+0/8) No match
02 [f56280f2|5ba47802] (0+0/8) No match
03 [e56e45f9|eee27cc1] (0+0/6) No match
04 [780f6b0e|06f103d9] (0+0/8) No match
05 [08d49cf1|1aebf480] (0+0/8) No match
06 [e724b68f|566ee72e] (0+0/8) No match
07 [4de29a46|c058f4cc] (0+0/6) No match
08 [b4b873c2|6220c6d2] (0+0/6) No match
09 [4938e135|021ee275] (0+0/6) No match
Offsetted by 664:
01 [01ebb114] (2/8) Accurately ripped
02 [905f6903] (2/8) Accurately ripped
03 [a502d4e4] (2/6) Accurately ripped
04 [e61e2d7e] (2/8) Accurately ripped
05 [db27d727] (2/8) Accurately ripped
06 [5ee57051] (2/8) Accurately ripped
07 [7e7b1504] (2/6) Accurately ripped
08 [6716704f] (2/6) Accurately ripped
09 [5a8bf3cd] (2/6) Accurately ripped
Offsetted by 786:
01 [9950ad83] (2/8) Accurately ripped
02 [4527228b] (2/8) Accurately ripped
03 [254bd813] (2/6) Accurately ripped
04 [0216c6c9] (2/8) Accurately ripped
05 [9fd3bd21] (2/8) Accurately ripped
06 [0f714142] (2/8) Accurately ripped
07 [7971939b] (2/6) Accurately ripped
08 [9fb135c2] (2/6) Accurately ripped
09 [d60e716b] (2/6) Accurately ripped

Track Peak [ CRC32 ] [W/O NULL] [ LOG ]
– 86,3 [858C5B62] [6070B34F] CRC32
01 66,3 [5CA40D20] [3141AF5C]
02 49,8 [FE3B022D] [4F581E66]
03 55,6 [01D88DD8] [68416BB3]
04 44,1 [328055A9] [AB9D2543]
05 50,4 [5D8B8C8F] [0AFD058F]
06 51,5 [540F60C3] [E4B4A6CA]
07 56,5 [0F809BEF] [30D31A52]
08 58,8 [516752D8] [2326ECD5]
09 86,3 [20E69E9D] [7ABF2929]

foobar2000 1.2 / Dynamic Range Meter 1.1.1
log date: 2017-07-08 20:55:24

––––––––––––––––––––––––––––––––––––––––
Analyzed: Michael Nyman / Music For Two Pianos
––––––––––––––––––––––––––––––––––––––––

DR Peak RMS Duration Track
––––––––––––––––––––––––––––––––––––––––
DR14 -3.56 dB -21.52 dB 11:53 01-Taking a line for a second walk
DR13 -6.05 dB -23.61 dB 5:46 02-(untitled)
DR13 -5.09 dB -22.82 dB 5:33 03-(untitled)
DR14 -7.10 dB -26.27 dB 5:29 04-Lady in the red hat
DR14 -5.94 dB -24.48 dB 4:04 05-Water Dances I
DR12 -5.75 dB -20.39 dB 5:17 06-Water Dances II
DR14 -4.95 dB -25.29 dB 5:50 07-Water Dances III
DR16 -4.61 dB -25.68 dB 5:15 08-Water Dances IV
DR14 -1.27 dB -19.84 dB 7:34 09-Water Dances V
––––––––––––––––––––––––––––––––––––––––

Number of tracks: 9
Official DR value: DR14

Samplerate: 44100 Hz
Channels: 2
Bits per sample: 16
Bitrate: 456 kbps
Codec: FLAC
================================================================================

The Zoo Duet - Michael Nyman: Music For Two Pianos (2004) [Repost]

All thanks to original releaser - GFox

More Michael Nyman music in My Blog