Subcategories

The Cars - Shake It Up (1981) (MFSL)

Posted By: uff
The Cars - Shake It Up (1981) (MFSL)

The Cars - Shake It Up (1981) (MFSL)
New Wave | 1cd | EAC Rip | Flac + Cue + Log | covers
MFSL UDCD 788 | rem: 2009 | 288Mb

By augmenting their sound with more synthesizers, electronics, and drum machines, the Cars' fourth release, Shake It Up, helped bridge their hard rock-based early work (1978's The Cars) with the futuristic-pop direction of 1984's Heartbeat City. The band's sound may have been evolving with each succeeding album, but Ric Ocasek was still writing compelling new wave compositions despite all the change, many of which would ultimately become rock & roll standards. The up-tempo title track remains a party favorite to this day (reaching number four on the singles charts), while the melancholic "Since You're Gone" remains one of Ocasek's best-ever tales of heartbreak. Intriguing videos were made for both songs, officially introducing the band to the MTV age. Like its predecessor, 1980's Panorama, filler is present ("This Could Be Love," "Maybe Baby"), but many lesser-known album tracks prove to be highlights: the almost entirely synth-oriented tracks "Think It Over" and "A Dream Away," the rocking "Cruiser," plus the more pop-oriented "I'm Not the One" and "Victim of Love." Although Shake It Up was another resounding commercial success, their next album would be the one that made the Cars one of rock's quintessential acts of the '80s. ~Allmusic

Track listing
01. Since You're Gone (3:31)
02. Shake It Up (3:31)
03. I'm Not The One (4:15)
04. Victim of Love (4:23)
05. Cruiser (4:55)
06. A Dream Away (5:40)
07. This Could Be Love (4:25)
08. Think It Over (4:54)
09. Maybe Baby (5:07)

Personnel
- Ric Ocasek – rhythm guitar, lead vocals
- Elliot Easton – lead guitar, backing vocals
- Greg Hawkes – keyboards, backing vocals
- Benjamin Orr – bass, lead vocals
- David Robinson – drums, percussion


Exact Audio Copy V0.99 prebeta 5 from 4. May 2009

EAC extraction logfile from 2. December 2009, 14:54

The Cars / Shake It Up [MFSL UDCD-788]

Used drive : PLEXTOR DVDR PX-760A Adapter: 4 ID: 0

Read mode : Secure
Utilize accurate stream : Yes
Defeat audio cache : Yes
Make use of C2 pointers : No

Read offset correction : 30
Overread into Lead-In and Lead-Out : No
Fill up missing offset samples with silence : Yes
Delete leading and trailing silent blocks : No
Null samples used in CRC calculations : No
Used interface : Native Win32 interface for Win NT & 2000

Used output format : User Defined Encoder
Selected bitrate : 768 kBit/s
Quality : High
Add ID3 tag : No
Command line compressor : C:\Program Files (x86)\Exact Audio Copy\FLAC\FLAC.EXE
Additional command line options : -6 -V -T "ARTIST=%a" -T "TITLE=%t" -T "ALBUM=%g" -T "DATE=%y" -T "TRACKNUMBER=%n" -T "GENRE=%m" -T "COMMENT=%e" %s -o %d


TOC of the extracted CD

Track | Start | Length | Start sector | End sector
––––––––––––––––––––––––––––-
1 | 0:00.00 | 3:31.39 | 0 | 15863
2 | 3:31.39 | 3:31.63 | 15864 | 31751
3 | 7:03.27 | 4:15.48 | 31752 | 50924
4 | 11:19.00 | 4:23.44 | 50925 | 70693
5 | 15:42.44 | 4:59.67 | 70694 | 93185
6 | 20:42.36 | 5:40.71 | 93186 | 118756
7 | 26:23.32 | 4:25.33 | 118757 | 138664
8 | 30:48.65 | 4:54.66 | 138665 | 160780
9 | 35:43.56 | 5:07.46 | 160781 | 183851


Range status and errors

Selected range

Filename C:\MUSIC\The Cars - Shake It Up [MFSL UDCD-788]\The Cars - Shake It Up [MFSL UDCD-788].wav

Peak level 98.9 %
Range quality 100.0 %
Copy CRC AD2ACAF8
Copy OK

No errors occurred

End of status report



[CUETools log; Date: 2017. 08. 15. 8:19:23; Version: 2.1.6]
[CTDB TOCID: vFrDT1N6rTsLKHHnwVp0kSnHB.M-] found.
Track | CTDB Status
1 | (33/33) Accurately ripped
2 | (33/33) Accurately ripped
3 | (33/33) Accurately ripped
4 | (33/33) Accurately ripped
5 | (33/33) Accurately ripped
6 | (33/33) Accurately ripped
7 | (33/33) Accurately ripped
8 | (33/33) Accurately ripped
9 | (33/33) Accurately ripped
[AccurateRip ID: 000d30dc-0062b73f-6b099309] found.
Track [ CRC | V2 ] Status
01 [5bacd805|f4d18b70] (17+39/60) Accurately ripped
02 [3b327c24|a11aa998] (17+40/62) Accurately ripped
03 [0ca93f97|e79e3a94] (17+40/62) Accurately ripped
04 [4bd1cee3|65f434ef] (17+39/60) Accurately ripped
05 [3184c8d2|d68cf00b] (17+39/60) Accurately ripped
06 [4ac62ebf|50007d5e] (17+40/61) Accurately ripped
07 [0f11876f|d2effffd] (17+40/61) Accurately ripped
08 [00b46e66|40c2f470] (17+40/61) Accurately ripped
09 [d65fb2f7|9da49319] (17+39/60) Accurately ripped
Offsetted by -18:
01 [d3b557e7] (02/60) Accurately ripped
02 [debadf62] (02/62) Accurately ripped
03 [28659697] (02/62) Accurately ripped
04 [7ca59684] (02/60) Accurately ripped
05 [415760e5] (02/60) Accurately ripped
06 [05301c36] (02/61) Accurately ripped
07 [bd4c6b92] (02/61) Accurately ripped
08 [5196dace] (02/61) Accurately ripped
09 [e7ac1af1] (02/60) Accurately ripped
Offsetted by 6:
01 [c6e8ad8f] (02/60) Accurately ripped
02 [64973441] (03/62) Accurately ripped
03 [abc820b0] (03/62) Accurately ripped
04 [078fd923] (02/60) Accurately ripped
05 [2b40409a] (02/60) Accurately ripped
06 [c7fe050d] (02/61) Accurately ripped
07 [5f55095d] (02/61) Accurately ripped
08 [300f6317] (02/61) Accurately ripped
09 [6fba2ac2] (02/60) Accurately ripped

Track Peak [ CRC32 ] [W/O NULL] [ LOG ]
– 98,9 [46758689] [AD2ACAF8] W/O NULL
01 98,6 [24A37D0B] [A6E4DA49]
02 98,2 [B9A5B21E] [C01D5DD2]
03 97,6 [EDB86142] [5B8B67C1]
04 98,7 [5DE13822] [C479A584]
05 98,9 [82F0298B] [147624E6]
06 96,5 [6FADD279] [67BF66CF]
07 97,3 [E8778EA2] [FAAEB1B9]
08 97,0 [4A342C14] [6497344A]
09 78,8 [C2F49D0F] [7AC3189B]



Original uploader unknown