Subcategories

Sam Amidon - The Following Mountain (2017)

Posted By: SERTiL
Sam Amidon - The Following Mountain (2017)

Sam Amidon - The Following Mountain
EAC Rip | FLAC (tracks)+cue, log, m3u, d. booklet | 41:21 min | 253 MB
Label: Nonesuch ‎– 559638-2 | Tracks: 09 | Rls.date: 2017
Folk, Singer-Songwriter

The Following Mountain, the newest solo album by experimental folk artist, singer, and multi-instrumentalist Sam Amidon. Created with producer Leo Abrahams (Brian Eno, Regina Spektor) and Amidon's frequent collaborator Shahzad Ismaily, it represents a new approach for Amidon, who shifts here from his previous norm of re-working traditional folk songs and presents nine wholly original compositions, with some lyrics drawing on traditional sources. The album features a rare guest appearance by drummer Milford Graves, known initially for his work in the 1960s with free jazz legends Albert Ayler and Sonny Sharrock.

The Following Mountain was made during two distinct recording sessions: an initial weekend in Brooklyn where Ismaily and Amidon brought in Graves, percussionist Juma Sultan (Jimi Hendrix), and saxophonist Sam Gendel for a heavily improvised session; followed by time in the studio over the summer in London, where Amidon worked with Leo Abrahams to shape and develop the songs. "The Following Mountain is a walk through the thickets of the imagination," Amidon said, "a personal mythology of sounds and visions and characters. It is my first album of original music, but is still linked to the Appalachian music I love, as well as improvisation, beats, Don Cherry, Vermont, London." The Following Mountain is Amidon's sixth album and follows Lily-O, his 2014 Nonesuch Records collaboration with guitarist Bill Frisell.

TRACKLIST
1. Fortune (02:21)
2. Ghosts (02:04)
3. Juma Mountain (03:38)
4. Another Story Told (04:38)
5. Gendel In 5 (04:28)
6. Blackbird (02:48)
7. Trouble in Mind (05:04)
8. Warren (04:33)
9. April (feat. Milford Graves) (11:47)

Exact Audio Copy V1.1 from 23. June 2015

EAC extraction logfile from 1. June 2017, 16:48

Sam Amidon / The Following Mountain

Used drive : HL-DT-STDVD-RAM GH70N Adapter: 1 ID: 0

Read mode : Secure
Utilize accurate stream : Yes
Defeat audio cache : Yes
Make use of C2 pointers : No

Read offset correction : 667
Overread into Lead-In and Lead-Out : No
Fill up missing offset samples with silence : Yes
Delete leading and trailing silent blocks : No
Null samples used in CRC calculations : Yes
Used interface : Native Win32 interface for Win NT & 2000
Gap handling : Appended to previous track

Used output format : User Defined Encoder
Selected bitrate : 128 kBit/s
Quality : High
Add ID3 tag : No
Command line compressor : C:\Program Files (x86)\Exact Audio Copy\Flac\flac.exe
Additional command line options : -8 -e -V -T "ARTIST=%artist%" -T "TITLE=%title%" -T "ALBUM=%albumtitle%" -T "DATE=%year%" -T "TRACKNUMBER=%tracknr%" -T "GENRE=%genre%" -T "PERFORMER=%albuminterpret%" -T "COMPOSER=%composer%" %haslyrics%–tag-from-file=LYRICS="%lyricsfile%"%haslyrics% -T "ALBUMARTIST=%albumartist%" -T "DISCNUMBER=%cdnumber%" -T "TOTALDISCS=%totalcds%" -T "TOTALTRACKS=%numtracks%" -T "COMMENT=%comment%" %source% -o %dest%


TOC of the extracted CD

Track | Start | Length | Start sector | End sector
––––––––––––––––––––––––––––-
1 | 0:00.00 | 2:21.06 | 0 | 10580
2 | 2:21.06 | 2:04.38 | 10581 | 19918
3 | 4:25.44 | 3:38.16 | 19919 | 36284
4 | 8:03.60 | 4:38.29 | 36285 | 57163
5 | 12:42.14 | 4:28.45 | 57164 | 77308
6 | 17:10.59 | 2:48.29 | 77309 | 89937
7 | 19:59.13 | 5:04.22 | 89938 | 112759
8 | 25:03.35 | 4:33.65 | 112760 | 133299
9 | 29:37.25 | 11:47.14 | 133300 | 186338


Track 1

Filename O:\My Music\Sam Amidon\01 Fortune.wav

Pre-gap length 0:00:02.00

Peak level 97.7 %
Extraction speed 1.9 X
Track quality 99.9 %
Test CRC 10AD00AB
Copy CRC 10AD00AB
Track not present in AccurateRip database
Copy OK

Track 2

Filename O:\My Music\Sam Amidon\02 Ghosts.wav

Pre-gap length 0:00:01.12

Peak level 96.0 %
Extraction speed 1.9 X
Track quality 99.9 %
Test CRC 8C87C6FF
Copy CRC 8C87C6FF
Track not present in AccurateRip database
Copy OK

Track 3

Filename O:\My Music\Sam Amidon\03 Juma Mountain.wav

Pre-gap length 0:00:02.17

Peak level 97.7 %
Extraction speed 2.9 X
Track quality 100.0 %
Test CRC 84889F2D
Copy CRC 84889F2D
Track not present in AccurateRip database
Copy OK

Track 4

Filename O:\My Music\Sam Amidon\04 Another Story Told.wav

Peak level 96.0 %
Extraction speed 3.4 X
Track quality 100.0 %
Test CRC 83872EB9
Copy CRC 83872EB9
Track not present in AccurateRip database
Copy OK

Track 5

Filename O:\My Music\Sam Amidon\05 Gendel In 5.wav

Peak level 97.7 %
Extraction speed 3.0 X
Track quality 99.9 %
Test CRC ED7C6C19
Copy CRC ED7C6C19
Track not present in AccurateRip database
Copy OK

Track 6

Filename O:\My Music\Sam Amidon\06 Blackbird.wav

Pre-gap length 0:00:01.04

Peak level 95.9 %
Extraction speed 3.6 X
Track quality 100.0 %
Test CRC 79027DCE
Copy CRC 79027DCE
Track not present in AccurateRip database
Copy OK

Track 7

Filename O:\My Music\Sam Amidon\07 Trouble in Mind.wav

Pre-gap length 0:00:02.09

Peak level 96.0 %
Extraction speed 4.1 X
Track quality 100.0 %
Test CRC 191E9A22
Copy CRC 191E9A22
Track not present in AccurateRip database
Copy OK

Track 8

Filename O:\My Music\Sam Amidon\08 Warren.wav

Pre-gap length 0:00:02.93

Peak level 95.9 %
Extraction speed 3.9 X
Track quality 99.9 %
Test CRC E9754FCB
Copy CRC E9754FCB
Track not present in AccurateRip database
Copy OK

Track 9

Filename O:\My Music\Sam Amidon\09 April (feat. Milford Graves).wav

Pre-gap length 0:00:01.53

Peak level 95.9 %
Extraction speed 4.9 X
Track quality 99.9 %
Test CRC EB689E60
Copy CRC EB689E60
Track not present in AccurateRip database
Copy OK


None of the tracks are present in the AccurateRip database

No errors occurred

End of status report

–– CUETools DB Plugin V2.1.6

[CTDB TOCID: SU_cqJnMMSDa4f4t2gdp3ramRoI-] found
Submit result: SU_cqJnMMSDa4f4t2gdp3ramRoI- has been confirmed
Track | CTDB Status
1 | (2/2) Accurately ripped
2 | (2/2) Accurately ripped
3 | (2/2) Accurately ripped
4 | (2/2) Accurately ripped
5 | (2/2) Accurately ripped
6 | (2/2) Accurately ripped
7 | (2/2) Accurately ripped
8 | (2/2) Accurately ripped
9 | (2/2) Accurately ripped


==== Log checksum C7F6BF53E530971B1F4464FE0832D5A0EDBA1FDA91437551AEF218AD6A711146 ====


Thanks to the Original customer.