Subcategories

Kirill Gerstein - The Gershwin Moment: Rhapsody in Blue & Concerto (2018)

Posted By: SERTiL
Kirill Gerstein - The Gershwin Moment: Rhapsody in Blue & Concerto (2018)

Kirill Gerstein - The Gershwin Moment: Rhapsody in Blue & Concerto (2018)
XLD Rip | FLAC (tracks)+cue, log, d. booklet | 307 MB
Label: Myrios Classics – MYR022 | Tracks: 09 | Time: 73:38 min
Classical, Modern Era, Classical Crossover, Orchestral

A Gershwin Moment is upon us: Rhapsody in Blue and the Concerto in F — not so long ago marginalized repertoire in limbo between classical and popular genres — are now, unapologetically, concert staples. George Gershwin is finally recognized as an early harbinger of musical synergies that we now take for granted. No longer viewed as an „inspired dilettante,” betwixt and between, the new Gershwin is a confident master, versatile and visionary.

In this album recorded live, pianist Kirill Gerstein explores the music of George Gershwin. Together with conductor David Robertson and the St. Louis Symphony he plays the Concerto in F as well as the original jazz band version of the Rhapsody in Blue. Program also includes a selection of Gershwin songs in solo piano arrangements by the American pianist Earl Wild. The album features Gerstein’s collaboration with two special guests: vocalist Storm Large sings Gershwin’s “Summertime”. Together with the legendary jazz vibraphonist, Gary Burton, Gerstein plays a jazz standard “Blame It on My Youth” written by Gershwin’s close friend, Oscar Levant.



Tracklist:
1. Kirill Gerstein, Saint Louis Symphony Orchestra & David Robertson – Rhapsody in Blue (Original 1924 Jazz Band Version) [Orch. F. Grofé] [Live] (17:34)
2. Kirill Gerstein – 7 Virtuoso Etudes after Gershwin: No. 2, Somebody Loves Me (Live) (03:32)
3. Kirill Gerstein – 7 Virtuoso Etudes after Gershwin: No. 6, I Got Rhythm (Live) (02:26)
4. Kirill Gerstein & Gary Burton – Blame It on My Youth (Arr. for Piano & Vibraphone) [Live] (07:21)
5. Kirill Gerstein & Storm Large – Porgy and Bess: Summertime (Arr. for Voice & Piano) [Live] (05:38)
6. Kirill Gerstein, Saint Louis Symphony Orchestra & David Robertson – Piano Concerto in F Major: I. Allegro (Live) (13:31)
7. Kirill Gerstein, Saint Louis Symphony Orchestra & David Robertson – Piano Concerto in F Major: II. Adagio (Live) (12:39)
8. Kirill Gerstein, Saint Louis Symphony Orchestra & David Robertson – Piano Concerto in F Major: III. Allegro agitato (Live) (07:22)
9. Kirill Gerstein – 7 Virtuoso Etudes after Gershwin: No. 4, Embraceable You (Live) (03:35)

Composers:
Gershwin, George (1898-1937)
Levant, Oscar (1906-72)
Wild, Earl (1915-2010)

Personnel:
Kirill Gerstein (piano)
Storm Large (vocals)
Gary Burton (vibraphone)
St. Louis Symphony Orchestra
David Robertson (conductor)

X Lossless Decoder version 20170729 (150.3)

XLD extraction logfile from 2018-03-26 11:02:18 -0700

Kirill Gerstein & St. Louis Symphony Orchestra / The Gershwin Moment

Used drive : Apple SuperDrive (revision 2.03)
Media type : Pressed CD

Ripper mode : XLD Secure Ripper
Disable audio cache : OK for the drive with a cache less than 1375KiB
Make use of C2 pointers : NO
Read offset correction : 6
Max retry count : 100
Gap status : Analyzed, Appended (except HTOA)

TOC of the extracted CD
Track | Start | Length | Start sector | End sector
––––––––––––––––––––––––––––-
1 | 00:00:00 | 17:34:55 | 0 | 79104
2 | 17:34:55 | 03:32:20 | 79105 | 95024
3 | 21:07:00 | 02:26:49 | 95025 | 106023
4 | 23:33:49 | 07:21:63 | 106024 | 139161
5 | 30:55:37 | 05:38:05 | 139162 | 164516
6 | 36:33:42 | 13:31:61 | 164517 | 225402
7 | 50:05:28 | 12:39:30 | 225403 | 282357
8 | 62:44:58 | 07:22:39 | 282358 | 315546
9 | 70:07:22 | 03:35:67 | 315547 | 331738

AccurateRip Summary
Disc not found in AccurateRip DB.

All Tracks
Album gain : -3.00 dB
Peak : 0.893951
Statistics
Read error : 0
Jitter error (maybe fixed) : 0
Retry sector count : 0
Damaged sector count : 0

Track 01
Filename : /Volumes/500GB HD/mp3s/mp3s/Kirill Gerstein & St. Louis Symphony Orchestra - The Gershwin Moment (2018) [FLAC]/01 Rhapsody in Blue (Jazz Band Version).flac
/Volumes/500GB HD/mp3s/mp3s/Kirill Gerstein & St. Louis Symphony Orchestra - The Gershwin Moment (2018) [320 log]/01 Rhapsody in Blue (Jazz Band Version).mp3
Pre-gap length : 00:02:00

Track gain : -2.98 dB
Peak : 0.888916
CRC32 hash (test run) : D9CD7B34
CRC32 hash : D9CD7B34
CRC32 hash (skip zero) : 0AC00A2D
AccurateRip v1 signature : 82FB92E7
AccurateRip v2 signature : E066E0D0
->Track not present in AccurateRip database.
Statistics
Read error : 0
Jitter error (maybe fixed) : 0
Retry sector count : 0
Damaged sector count : 0

Track 02
Filename : /Volumes/500GB HD/mp3s/mp3s/Kirill Gerstein & St. Louis Symphony Orchestra - The Gershwin Moment (2018) [FLAC]/02 Somebody Loves Me.flac
/Volumes/500GB HD/mp3s/mp3s/Kirill Gerstein & St. Louis Symphony Orchestra - The Gershwin Moment (2018) [320 log]/02 Somebody Loves Me.mp3

Track gain : -4.19 dB
Peak : 0.715790
CRC32 hash (test run) : A4892AAD
CRC32 hash : A4892AAD
CRC32 hash (skip zero) : 2EE240F2
AccurateRip v1 signature : 3965A489
AccurateRip v2 signature : EC961B31
->Track not present in AccurateRip database.
Statistics
Read error : 0
Jitter error (maybe fixed) : 0
Retry sector count : 0
Damaged sector count : 0

Track 03
Filename : /Volumes/500GB HD/mp3s/mp3s/Kirill Gerstein & St. Louis Symphony Orchestra - The Gershwin Moment (2018) [FLAC]/03 I Got Rhythm.flac
/Volumes/500GB HD/mp3s/mp3s/Kirill Gerstein & St. Louis Symphony Orchestra - The Gershwin Moment (2018) [320 log]/03 I Got Rhythm.mp3

Track gain : -2.23 dB
Peak : 0.793823
CRC32 hash (test run) : 663FDEFB
CRC32 hash : 663FDEFB
CRC32 hash (skip zero) : 418402FD
AccurateRip v1 signature : 57EAFE48
AccurateRip v2 signature : C128DDEB
->Track not present in AccurateRip database.
Statistics
Read error : 0
Jitter error (maybe fixed) : 0
Retry sector count : 0
Damaged sector count : 0

Track 04
Filename : /Volumes/500GB HD/mp3s/mp3s/Kirill Gerstein & St. Louis Symphony Orchestra - The Gershwin Moment (2018) [FLAC]/04 Blame It on My Youth (feat. Gary Burton).flac
/Volumes/500GB HD/mp3s/mp3s/Kirill Gerstein & St. Louis Symphony Orchestra - The Gershwin Moment (2018) [320 log]/04 Blame It on My Youth (feat. Gary Burton).mp3
Pre-gap length : 00:03:45

Track gain : -1.14 dB
Peak : 0.846436
CRC32 hash (test run) : 2E9381E8
CRC32 hash : 2E9381E8
CRC32 hash (skip zero) : A6476687
AccurateRip v1 signature : 315C3C7B
AccurateRip v2 signature : DF9D7BFC
->Track not present in AccurateRip database.
Statistics
Read error : 0
Jitter error (maybe fixed) : 0
Retry sector count : 0
Damaged sector count : 0

Track 05
Filename : /Volumes/500GB HD/mp3s/mp3s/Kirill Gerstein & St. Louis Symphony Orchestra - The Gershwin Moment (2018) [FLAC]/05 Summertime (feat. Storm Large).flac
/Volumes/500GB HD/mp3s/mp3s/Kirill Gerstein & St. Louis Symphony Orchestra - The Gershwin Moment (2018) [320 log]/05 Summertime (feat. Storm Large).mp3
Pre-gap length : 00:03:55

Track gain : 1.36 dB
Peak : 0.779022
CRC32 hash (test run) : 88D6212F
CRC32 hash : 88D6212F
CRC32 hash (skip zero) : 13A49724
AccurateRip v1 signature : DA350DA7
AccurateRip v2 signature : CC25127D
->Track not present in AccurateRip database.
Statistics
Read error : 0
Jitter error (maybe fixed) : 0
Retry sector count : 0
Damaged sector count : 0

Track 06
Filename : /Volumes/500GB HD/mp3s/mp3s/Kirill Gerstein & St. Louis Symphony Orchestra - The Gershwin Moment (2018) [FLAC]/06 Piano Concerto in F - 1. Allegro.flac
/Volumes/500GB HD/mp3s/mp3s/Kirill Gerstein & St. Louis Symphony Orchestra - The Gershwin Moment (2018) [320 log]/06 Piano Concerto in F - 1. Allegro.mp3
Pre-gap length : 00:02:56

Track gain : -3.63 dB
Peak : 0.890320
CRC32 hash (test run) : F31ECE11
CRC32 hash : F31ECE11
CRC32 hash (skip zero) : 1FE276FF
AccurateRip v1 signature : 6FF26E98
AccurateRip v2 signature : 32C6E588
->Track not present in AccurateRip database.
Statistics
Read error : 0
Jitter error (maybe fixed) : 0
Retry sector count : 0
Damaged sector count : 0

Track 07
Filename : /Volumes/500GB HD/mp3s/mp3s/Kirill Gerstein & St. Louis Symphony Orchestra - The Gershwin Moment (2018) [FLAC]/07 Piano Concerto in F - 2. Adagio.flac
/Volumes/500GB HD/mp3s/mp3s/Kirill Gerstein & St. Louis Symphony Orchestra - The Gershwin Moment (2018) [320 log]/07 Piano Concerto in F - 2. Adagio.mp3

Track gain : 0.10 dB
Peak : 0.893951
CRC32 hash (test run) : 708A6BED
CRC32 hash : 708A6BED
CRC32 hash (skip zero) : 5A19AF13
AccurateRip v1 signature : 56663E90
AccurateRip v2 signature : 5BA5077D
->Track not present in AccurateRip database.
Statistics
Read error : 0
Jitter error (maybe fixed) : 0
Retry sector count : 0
Damaged sector count : 0

Track 08
Filename : /Volumes/500GB HD/mp3s/mp3s/Kirill Gerstein & St. Louis Symphony Orchestra - The Gershwin Moment (2018) [FLAC]/08 Piano Concerto in F - 3. Allegro agitato.flac
/Volumes/500GB HD/mp3s/mp3s/Kirill Gerstein & St. Louis Symphony Orchestra - The Gershwin Moment (2018) [320 log]/08 Piano Concerto in F - 3. Allegro agitato.mp3

Track gain : -4.95 dB
Peak : 0.890839
CRC32 hash (test run) : 7D192642
CRC32 hash : 7D192642
CRC32 hash (skip zero) : 8EB552A7
AccurateRip v1 signature : DC2C8EF3
AccurateRip v2 signature : F8BF83C9
->Track not present in AccurateRip database.
Statistics
Read error : 0
Jitter error (maybe fixed) : 0
Retry sector count : 0
Damaged sector count : 0

Track 09
Filename : /Volumes/500GB HD/mp3s/mp3s/Kirill Gerstein & St. Louis Symphony Orchestra - The Gershwin Moment (2018) [FLAC]/09 Embraceable You.flac
/Volumes/500GB HD/mp3s/mp3s/Kirill Gerstein & St. Louis Symphony Orchestra - The Gershwin Moment (2018) [320 log]/09 Embraceable You.mp3

Track gain : -3.67 dB
Peak : 0.891357
CRC32 hash (test run) : 2B2C959A
CRC32 hash : 2B2C959A
CRC32 hash (skip zero) : 4BC9065F
AccurateRip v1 signature : 3C7626F4
AccurateRip v2 signature : 83C9C108
->Track not present in AccurateRip database.
Statistics
Read error : 0
Jitter error (maybe fixed) : 0
Retry sector count : 0
Damaged sector count : 0

No errors occurred

End of status report

––-BEGIN XLD SIGNATURE––-
kSeg8ScC3dSmrOj08d0bTEsywTU2dTmPOYQCaE7uYs.GatFO1.eB9BxXb_FWsl_R4U14cLvtjyL.oaw95uXbE.XEEDbRRvPg5IhnLuW
––-END XLD SIGNATURE––-


Kirill Gerstein - The Gershwin Moment: Rhapsody in Blue & Concerto (2018)


Thanks to the Original customer.