Subcategories

Barbra Streisand - The Music...The Mem'ries...The Magic! (2017)

Posted By: SERTiL
Barbra Streisand - The Music...The Mem'ries...The Magic! (2017)

Barbra Streisand - The Music…The Mem'ries…The Magic! (2017)
EAC Rip | FLAC (tracks)+cue, log, m3u, artwork | 521 MB
Label: Columbia – 19075803502 | Tracks: 19 | Time: 78:14 min
Pop

The Music…The Mem'ries…The Magic! is the album of record for Barbra Streisand s triumphant concert tour of the same name in 2016. This collection captures the iconic songstress culminating her 13 city tour in Miami, Florida on December 5th, 2016. The Music…The Mem'ries…The Magic! is available in two versions: a single disc album of concert highlights, and a deluxe 2 disc set featuring the entire concert performance and all of Barbra's dialogue including her reflections on making some of this music, her film career, and what it was like to make her most recent # 1 album, ENCORE Movie Partners Sing Broadway (with Alec Baldwin, Chris Pine, Jamie Foxx, Antonio Banderas, Anne Hathaway, Hugh Jackman, Patrick Wilson, Melissa McCarthy, Daisy Ridley). Both versions of this album are also available digitally. This career spanning collection also includes a performance of "Climb Ev'ry Mountain" with special guest, Jamie Foxx.

The Music…The Mem'ries…The Magic! tour reviews were consistently stunning. The New York Times wrote that Barbra "continues to make the finale of "Don't Rain on My Parade sound like a space shuttle leaving Earth." The Miami Herald raved, "Streisand phrases masterfully. She instinctively knows just when to place emphasis on a portion of a song so she can still achieve the stratospheric money note. When she sang softly, her pristine vibrato melted sustained lines seamlessly one into the other, stitching notes like a master tailor on a solo "You Don t Bring Me Flowers" or on Stephen Sondheim's "Losing My Mind." The Baltimore Sun lauded, "Considering how superbly Streisand sounded, she could have owned the place singing the alphabet. Few pop vocalists achieve that consistency, let alone back up the vocal steadiness with so much interpretive power."

This collection impresses from the moment she begins to sing, and is a must for every Barbra Streisand fan. The release of The Music…The Mem'ries…The Magic! album accompanies the airing of the filmed version of this concert, that premiered on Netflix on Wednesday, November 22nd, 2017.

Barbra Streisand is the only recording artist in history to achieve a # 1 Album in six consecutive decades. She has recorded 52 gold, 31 platinum and 13 multi-platinum albums in her career. She is the only woman to make the All-Time Top 10 Best Selling Artists list. Streisand has had 34 albums make the Top 10 on the US charts. She is the only female artist to have achieved this milestone, tying her with Frank Sinatra. Streisand is the female artist with the most number one albums in Billboard's history. Streisand has attained unprecedented achievements as a recording artist, actor, concert performer, producer, director, author and songwriter. She has been awarded two Oscars, five Emmys, ten Gold Globes and eight Grammys.

Barbra Streisand - The Music...The Mem'ries...The Magic! (2017)


Tracklist:
01. Barbra Streisand – People (Overture - live 2016) (01:30)
02. Barbra Streisand – The Way We Were (live 2016) (03:55)
03. Barbra Streisand – Everything (live 2016) (04:07)
04. Barbra Streisand – Being at War With Each Other (live 2016) (03:33)
05. Barbra Streisand – No More Tears (Enough Is Enough) (02:14)
06. Barbra Streisand – Evergreen (live 2016) (05:06)
07. Barbra Streisand – You Don't Bring Me Flowers (live 2016) (03:29)
08. Barbra Streisand – Being Alive (live 2016) (03:19)
09. Barbra Streisand – Papa, Can You Hear Me? (live 2016) (05:18)
10. Barbra Streisand – Pure Imagination (live 2016) (06:12)
11. Barbra Streisand & Anthony Newley – Who Can I Turn To (When Nobody Needs Me) (03:50)
12. Barbra Streisand – Losing My Mind (live 2016) (04:03)
13. Barbra Streisand – Isn't This Better (live 2016) (02:39)
14. Barbra Streisand – How Lucky Can You Get (live 2016) (04:15)
15. Barbra Streisand – Don't Rain on My Parade (live 2016) (03:45)
16. Barbra Streisand – People (live 2016) (04:23)
17. Barbra Streisand & Jamie Foxx – Climb Ev'ry Mountain (06:22)
18. Barbra Streisand – Happy Days Are Here Again (live 2016) (04:17)
19. Barbra Streisand – I Didn't Know What Time It Was (live 2016) (06:05)

Exact Audio Copy V1.3 from 2. September 2016

EAC extraction logfile from 6. January 2018, 21:51

Barbra Streisand / The Music… The Mem'ries… The Magic!

Used drive : PLEXTOR DVDR PX-891SAF Adapter: 1 ID: 0

Read mode : Secure
Utilize accurate stream : Yes
Defeat audio cache : Yes
Make use of C2 pointers : No

Read offset correction : 6
Overread into Lead-In and Lead-Out : No
Fill up missing offset samples with silence : Yes
Delete leading and trailing silent blocks : No
Null samples used in CRC calculations : Yes
Used interface : Native Win32 interface for Win NT & 2000
Gap handling : Appended to previous track

Used output format : User Defined Encoder
Selected bitrate : 1024 kBit/s
Quality : High
Add ID3 tag : No
Command line compressor : C:\Program Files (x86)\Exact Audio Copy\Flac\flac.exe
Additional command line options : -0 -V -T "ARTIST=%artist%" -T "TITLE=%title%" -T "ALBUM=%albumtitle%" -T "DATE=%year%" -T "TRACKNUMBER=%tracknr%" -T "TOTALTRACKS=%numtracks%" -T "GENRE=%genre%" -T "COMMENT=Naftamusic Release!" %source%


TOC of the extracted CD

Track | Start | Length | Start sector | End sector
––––––––––––––––––––––––––––-
1 | 0:00.00 | 1:31.22 | 0 | 6846
2 | 1:31.22 | 3:54.60 | 6847 | 24456
3 | 5:26.07 | 4:06.49 | 24457 | 42955
4 | 9:32.56 | 3:33.12 | 42956 | 58942
5 | 13:05.68 | 2:14.27 | 58943 | 69019
6 | 15:20.20 | 5:06.15 | 69020 | 91984
7 | 20:26.35 | 3:28.47 | 91985 | 107631
8 | 23:55.07 | 3:18.60 | 107632 | 122541
9 | 27:13.67 | 5:17.53 | 122542 | 146369
10 | 32:31.45 | 6:11.55 | 146370 | 174249
11 | 38:43.25 | 3:50.30 | 174250 | 191529
12 | 42:33.55 | 4:02.56 | 191530 | 209735
13 | 46:36.36 | 2:38.56 | 209736 | 221641
14 | 49:15.17 | 4:15.25 | 221642 | 240791
15 | 53:30.42 | 3:45.21 | 240792 | 257687
16 | 57:15.63 | 4:22.44 | 257688 | 277381
17 | 61:38.32 | 6:22.21 | 277382 | 306052
18 | 68:00.53 | 4:16.39 | 306053 | 325291
19 | 72:17.17 | 6:06.52 | 325292 | 352793


Track 1

Filename E:\Nafta Releases\Barbra Streisand - The Music…The Mem'ries…The Magic! (2017)[FLAC] - Naftamusic\01 - People.wav

Pre-gap length 0:00:02.00

Peak level 97.7 %
Extraction speed 1.5 X
Track quality 99.8 %
Test CRC 3AEB2F18
Copy CRC 3AEB2F18
Track not present in AccurateRip database
Copy OK

Track 2

Filename E:\Nafta Releases\Barbra Streisand - The Music…The Mem'ries…The Magic! (2017)[FLAC] - Naftamusic\02 - The Way We Were.wav

Peak level 99.7 %
Extraction speed 3.1 X
Track quality 100.0 %
Test CRC 36BBEDDF
Copy CRC 36BBEDDF
Track not present in AccurateRip database
Copy OK

Track 3

Filename E:\Nafta Releases\Barbra Streisand - The Music…The Mem'ries…The Magic! (2017)[FLAC] - Naftamusic\03 - Everything.wav

Peak level 99.7 %
Extraction speed 2.7 X
Track quality 99.9 %
Test CRC B04E669F
Copy CRC B04E669F
Track not present in AccurateRip database
Copy OK

Track 4

Filename E:\Nafta Releases\Barbra Streisand - The Music…The Mem'ries…The Magic! (2017)[FLAC] - Naftamusic\04 - Being at War With Each Other.wav

Peak level 99.7 %
Extraction speed 3.5 X
Track quality 100.0 %
Test CRC 75687E7F
Copy CRC 75687E7F
Track not present in AccurateRip database
Copy OK

Track 5

Filename E:\Nafta Releases\Barbra Streisand - The Music…The Mem'ries…The Magic! (2017)[FLAC] - Naftamusic\05 - No More Tears (Enough Is Enough).wav

Peak level 99.7 %
Extraction speed 3.4 X
Track quality 100.0 %
Test CRC 07A110A5
Copy CRC 07A110A5
Track not present in AccurateRip database
Copy OK

Track 6

Filename E:\Nafta Releases\Barbra Streisand - The Music…The Mem'ries…The Magic! (2017)[FLAC] - Naftamusic\06 - Evergreen.wav

Peak level 99.7 %
Extraction speed 4.1 X
Track quality 100.0 %
Test CRC 3C30B200
Copy CRC 3C30B200
Track not present in AccurateRip database
Copy OK

Track 7

Filename E:\Nafta Releases\Barbra Streisand - The Music…The Mem'ries…The Magic! (2017)[FLAC] - Naftamusic\07 - You Don't Bring Me Flowers.wav

Peak level 99.7 %
Extraction speed 4.1 X
Track quality 100.0 %
Test CRC 5644FD6F
Copy CRC 5644FD6F
Track not present in AccurateRip database
Copy OK

Track 8

Filename E:\Nafta Releases\Barbra Streisand - The Music…The Mem'ries…The Magic! (2017)[FLAC] - Naftamusic\08 - Being Alive.wav

Peak level 99.7 %
Extraction speed 4.2 X
Track quality 100.0 %
Test CRC 890C3732
Copy CRC 890C3732
Track not present in AccurateRip database
Copy OK

Track 9

Filename E:\Nafta Releases\Barbra Streisand - The Music…The Mem'ries…The Magic! (2017)[FLAC] - Naftamusic\09 - Papa, Can You Hear Me.wav

Peak level 99.7 %
Extraction speed 3.9 X
Track quality 99.9 %
Test CRC 6ED7598C
Copy CRC 6ED7598C
Track not present in AccurateRip database
Copy OK

Track 10

Filename E:\Nafta Releases\Barbra Streisand - The Music…The Mem'ries…The Magic! (2017)[FLAC] - Naftamusic\10 - Pure Imagination.wav

Peak level 99.7 %
Extraction speed 5.0 X
Track quality 100.0 %
Test CRC 191F91B6
Copy CRC 191F91B6
Track not present in AccurateRip database
Copy OK

Track 11

Filename E:\Nafta Releases\Barbra Streisand - The Music…The Mem'ries…The Magic! (2017)[FLAC] - Naftamusic\11 - Who Can I Turn To (When Nobody Needs Me).wav

Peak level 99.7 %
Extraction speed 3.9 X
Track quality 99.9 %
Test CRC DC00F7E7
Copy CRC DC00F7E7
Track not present in AccurateRip database
Copy OK

Track 12

Filename E:\Nafta Releases\Barbra Streisand - The Music…The Mem'ries…The Magic! (2017)[FLAC] - Naftamusic\12 - Losing My Mind.wav

Peak level 99.7 %
Extraction speed 5.1 X
Track quality 100.0 %
Test CRC 1759C83C
Copy CRC 1759C83C
Track not present in AccurateRip database
Copy OK

Track 13

Filename E:\Nafta Releases\Barbra Streisand - The Music…The Mem'ries…The Magic! (2017)[FLAC] - Naftamusic\13 - Isn't This Better.wav

Peak level 99.7 %
Extraction speed 5.0 X
Track quality 100.0 %
Test CRC A3A05318
Copy CRC A3A05318
Track not present in AccurateRip database
Copy OK

Track 14

Filename E:\Nafta Releases\Barbra Streisand - The Music…The Mem'ries…The Magic! (2017)[FLAC] - Naftamusic\14 - How Lucky Can You Get.wav

Peak level 99.7 %
Extraction speed 5.4 X
Track quality 100.0 %
Test CRC 32B35CE1
Copy CRC 32B35CE1
Track not present in AccurateRip database
Copy OK

Track 15

Filename E:\Nafta Releases\Barbra Streisand - The Music…The Mem'ries…The Magic! (2017)[FLAC] - Naftamusic\15 - Don't Rain on My Parade.wav

Peak level 99.7 %
Extraction speed 5.5 X
Track quality 100.0 %
Test CRC E3C0B3D2
Copy CRC E3C0B3D2
Track not present in AccurateRip database
Copy OK

Track 16

Filename E:\Nafta Releases\Barbra Streisand - The Music…The Mem'ries…The Magic! (2017)[FLAC] - Naftamusic\16 - People.wav

Peak level 99.7 %
Extraction speed 4.6 X
Track quality 99.9 %
Test CRC FA054BAE
Copy CRC FA054BAE
Track not present in AccurateRip database
Copy OK

Track 17

Filename E:\Nafta Releases\Barbra Streisand - The Music…The Mem'ries…The Magic! (2017)[FLAC] - Naftamusic\17 - Climb Ev'ry Mountain.wav

Peak level 99.7 %
Extraction speed 6.3 X
Track quality 100.0 %
Test CRC 790F8917
Copy CRC 790F8917
Track not present in AccurateRip database
Copy OK

Track 18

Filename E:\Nafta Releases\Barbra Streisand - The Music…The Mem'ries…The Magic! (2017)[FLAC] - Naftamusic\18 - Happy Days Are Here Again.wav

Peak level 99.7 %
Extraction speed 6.0 X
Track quality 100.0 %
Test CRC A040BF65
Copy CRC A040BF65
Track not present in AccurateRip database
Copy OK

Track 19

Filename E:\Nafta Releases\Barbra Streisand - The Music…The Mem'ries…The Magic! (2017)[FLAC] - Naftamusic\19 - I Didn't Know What Time It Was.wav

Peak level 99.7 %
Extraction speed 6.5 X
Track quality 100.0 %
Test CRC FB1B06F3
Copy CRC FB1B06F3
Track not present in AccurateRip database
Copy OK


None of the tracks are present in the AccurateRip database

No errors occurred

End of status report

==== Log checksum 6349E357E4B745DC997C36F94BDADBBC1425B34B20AD0C4DC6504004BCF19B3E ====


Barbra Streisand - The Music...The Mem'ries...The Magic! (2017)


Thanks to the Original customer.