Subcategories

The Alan Parsons Project - The Turn Of A Friendly Card (1980) [2015, 35th Anniversary Edition]

Posted By: popsakov
The Alan Parsons Project - The Turn Of A Friendly Card (1980) [2015, 35th Anniversary Edition]

The Alan Parsons Project - The Turn Of A Friendly Card (1980/2015)
2CD | EAC Rip | FLAC (Img) + Cue + Log ~ 888 Mb | MP3 CBR320 ~ 389 Mb
Scans Included (JPG, 600 dpi) | RAR 5% Recovery
Art Rock, Prog Rock | Sony BMG Music/Arista/Legacy #88875143712

The 35th anniversary milestone for this classic and essential concept album, is being celebrated with a deluxe 2CD package featuring compelling and extensive unreleased and rare material. Digitally remastered and expanded two CD Legacy edition includes the original album, 17 previously unreleased bonus tracks (including Eric Woolfson's songwriting diary home demos) plus 10 bonus tracks and new booklet with lyrics, notes on the making of the album and rare photos. The Turn of a Friendly Card is the fifth album by progressive rock band The Alan Parsons Project, released in 1980. The album has a 16-minute title piece, which was broken up into five tracks. The Turn of a Friendly Card spawned the hits "Games People Play" and "Time", the latter of which was Eric Woolfson's first lead vocal appearance.
~ Amazon

***************

The Alan Parsons Project - The Turn Of A Friendly Card (1980) [2015, 35th Anniversary Edition]

Track List CD1 (Original Album):

01. May Be a Price to Pay [05:00]
02. Games People Play [04:26]
03. Time [05:15]
04. I Don't Wanna Go Home [04:53]
05. The Gold Bug [04:35]
The Turn of a Friendly Card
06.(I.) The Turn of a Friendly Card (Part One) [02:45]
07.(II.) Snake Eyes [03:16]
08.(III.) The Ace of Swords [02:58]
09.(IV.) Nothing Left to Lose [04:08]
10.(V.) The Turn of a Friendly Card (Part Two) [03:33]
Bonus Tracks
11. May Be A Price to Pay [Intro - Demo] [01:33]
12. Nothing Left to Lose [Basic Backing Track] [04:37]
13. Nothing Left to Lose [Chris Rainbow Overdub Vocal Compilation] [02:03]
14. Nothing Left to Lose [Early Studio Version with Eric's Guide Vocal] [03:12]
15. Time [Early Studio Attempt] [04:43]
16. Games People Play [Rough Mix] [04:33]
17. The Gold Bug [Demo] [02:51]

Exact Audio Copy V0.99 prebeta 5 from 4. May 2009

EAC extraction logfile from 2. December 2015, 18:09

The Alan Parsons Project / The Turn Of A Friendly Card [CD1]

Used drive : ATAPI iHAS122 C Adapter: 1 ID: 1

Read mode : Secure
Utilize accurate stream : Yes
Defeat audio cache : Yes
Make use of C2 pointers : No

Read offset correction : 6
Overread into Lead-In and Lead-Out : No
Fill up missing offset samples with silence : Yes
Delete leading and trailing silent blocks : No
Null samples used in CRC calculations : Yes
Used interface : Native Win32 interface for Win NT & 2000

Used output format : Internal WAV Routines
Sample format : 44.100 Hz; 16 Bit; Stereo


TOC of the extracted CD

Track | Start | Length | Start sector | End sector
––––––––––––––––––––––––––––-
1 | 0:00.00 | 4:59.66 | 0 | 22490
2 | 4:59.66 | 4:25.62 | 22491 | 42427
3 | 9:25.53 | 5:14.62 | 42428 | 66039
4 | 14:40.40 | 4:52.27 | 66040 | 87966
5 | 19:32.67 | 4:34.62 | 87967 | 108578
6 | 24:07.54 | 2:44.27 | 108579 | 120905
7 | 26:52.06 | 3:15.36 | 120906 | 135566
8 | 30:07.42 | 2:57.72 | 135567 | 148913
9 | 33:05.39 | 4:07.19 | 148914 | 167457
10 | 37:12.58 | 3:32.37 | 167458 | 183394
11 | 40:45.20 | 1:32.18 | 183395 | 190312
12 | 42:17.38 | 4:36.22 | 190313 | 211034
13 | 46:53.60 | 2:02.14 | 211035 | 220198
14 | 48:55.74 | 3:11.62 | 220199 | 234585
15 | 52:07.61 | 4:42.49 | 234586 | 255784
16 | 56:50.35 | 4:33.00 | 255785 | 276259
17 | 61:23.35 | 2:50.01 | 276260 | 289010


Range status and errors

Selected range

Filename C:\Users\arthu\Desktop\The Alan Parsons Project - The Turn Of A Friendly Card [CD1].wav

Peak level 100.0 %
Range quality 100.0 %
Test CRC BD183B97
Copy CRC BD183B97
Copy OK

No errors occurred


AccurateRip summary

Track 1 not present in database
Track 2 not present in database
Track 3 not present in database
Track 4 not present in database
Track 5 not present in database
Track 6 not present in database
Track 7 not present in database
Track 8 not present in database
Track 9 not present in database
Track 10 not present in database
Track 11 not present in database
Track 12 not present in database
Track 13 not present in database
Track 14 not present in database
Track 15 not present in database
Track 16 not present in database
Track 17 not present in database

None of the tracks are present in the AccurateRip database

End of status report

foobar2000 1.2.6 / Dynamic Range Meter 1.1.1
log date: 2015-12-03 11:11:46

––––––––––––––––––––––––––––––––––––––––
Analyzed: The Alan Parsons Project / The Turn Of A Friendly Card [CD1]
––––––––––––––––––––––––––––––––––––––––

DR Peak RMS Duration Track
––––––––––––––––––––––––––––––––––––––––
DR11 -0.03 dB -13.71 dB 5:00 01-May Be a Price to Pay
DR13 -0.03 dB -15.03 dB 4:26 02-Games People Play
DR13 -0.03 dB -15.85 dB 5:15 03-Time
DR12 -0.03 dB -14.57 dB 4:52 04-I Don't Wanna Go Home
DR11 -1.04 dB -14.74 dB 4:35 05-The Gold Bug
DR12 -0.03 dB -15.89 dB 2:44 06-The Turn of a Friendly Card (Part One)
DR13 -0.04 dB -14.95 dB 3:15 07-Snake Eyes
DR12 -0.03 dB -14.76 dB 2:58 08-The Ace of Swords
DR11 -1.04 dB -14.36 dB 4:07 09-Nothing Left to Lose
DR11 -1.16 dB -15.37 dB 3:32 10-The Turn of a Friendly Card (Part Two)
DR10 -3.05 dB -16.71 dB 1:32 11-May Be A Price to Pay [Intro - Demo]
DR14 -1.08 dB -16.97 dB 4:36 12-Nothing Left to Lose [Basic Backing Track]
DR10 -1.63 dB -17.24 dB 2:02 13-Nothing Left to Lose [Chris Rainbow Overdub Vocal Compilation]
DR13 0.00 dB -15.85 dB 3:12 14-Nothing Left to Lose [Early Studio Version with Eric's Guide Vocal]
DR15 0.00 dB -17.80 dB 4:43 15-Time [Early Studio Attempt]
DR14 0.00 dB -16.56 dB 4:33 16-Games People Play [Rough Mix]
DR13 -3.73 dB -18.27 dB 2:50 17-The Gold Bug [Demo]
––––––––––––––––––––––––––––––––––––––––

Number of tracks: 17
Official DR value: DR12

Samplerate: 44100 Hz
Channels: 2
Bits per sample: 16
Bitrate: 833 kbps
Codec: FLAC
================================================================================

[CUETools log; Date: 03.12.2015 11:11:44; Version: 2.1.5]
[CTDB TOCID: q6dEqFYMsCqYcz8CUEf6YsNAS9w-] found.
Track | CTDB Status
1 | (5/5) Accurately ripped
2 | (5/5) Accurately ripped
3 | (5/5) Accurately ripped
4 | (5/5) Accurately ripped
5 | (5/5) Accurately ripped
6 | (5/5) Accurately ripped
7 | (5/5) Accurately ripped
8 | (5/5) Accurately ripped
9 | (5/5) Accurately ripped
10 | (5/5) Accurately ripped
11 | (5/5) Accurately ripped
12 | (5/5) Accurately ripped
13 | (5/5) Accurately ripped
14 | (5/5) Accurately ripped
15 | (5/5) Accurately ripped
16 | (5/5) Accurately ripped
17 | (5/5) Accurately ripped
[AccurateRip ID: 002a20e6-02087d0a-040f0d11] disk not present in database.

Track Peak [ CRC32 ] [W/O NULL] [ LOG ]
– 100,0 [BD183B97] [F4BCEFD2] CRC32
01 99,6 [B3FA8AAA] [EFCD8731]
02 99,6 [D01A9836] [7D7D5C10]
03 99,6 [970FEFA5] [D5410F55]
04 99,6 [33CC762F] [53FF0463]
05 88,7 [0E70EBAA] [0205F877]
06 99,6 [7D0A14A6] [D95645E6]
07 99,5 [BA17E092] [8FA6B906]
08 99,6 [802E9FFD] [E12BE7A5]
09 88,7 [5BC1B4E4] [D5F84B92]
10 87,4 [AA93F209] [1BCD4DD5]
11 70,3 [99F0972A] [BF866577]
12 88,2 [23952967] [8BA5FF24]
13 82,9 [0ECE399B] [9F9B467F]
14 100,0 [0771F9FF] [34C3EA5F]
15 100,0 [AA395CB5] [24D691E2]
16 100,0 [5359C881] [F207FED2]
17 65,0 [FA2FA825] [55C907CB]

The Alan Parsons Project - The Turn Of A Friendly Card (1980) [2015, 35th Anniversary Edition]

Track List CD2 (Eric's Songwriting Diaries):

01. May Be a Price to Pay [Eric's Songwriting Diary] [03:27]
02. Games People Play [Eric's Songwriting Diary] [03:07]
03. Time [Eric's Songwriting Diary] [04:07]
04. I Don't Wanna Go Home [Eric's Songwriting Diary] [02:13]
05. The Turn of a Friendly Card [Eric's Songwriting Diary] [03:20]
06. Snake Eyes [Eric's Songwriting Diary] [03:14]
07. Nothing Left to Lose [Eric's Songwriting Diary] [02:47]
08. TOFC \ Snake Eyes \ I Don't Wanna Go Home [Eric's Songwriting Diary] [04:33]
Extra Bonus Tracks
09. May Be a Price to Pay [Early Version, Eric Guide Vocals & Unused Guitar Solo] [05:04]
10. Games People Play [Early Version, Eric Guide Vocal] [04:33]
11. Time [Orchestra & Chris Rainbow Backing Vocals] [04:20]
12. The Gold Bug [Early Reference Version] [05:09]
13. The Turn of a Friendly Card (Part One) [Early Backing Track] [02:19]
14. Snake Eyes [Early Version, Eric Guide Vocal] [03:21]
15. The Ace of Swords [Early Version with Synch 'Orchestration'] [03:04]
16. The Ace of Swords [Early Version with Piano on Melody] [02:41]
17. The Turn of a Friendly Card (Part Two) [Eric Guide Vocal and Extended Guitar … [03:33]
Single Edits
18. Games People Play [Single Edit] [03:36]
19. The Turn of a Friendly Card [Single Edit] [03:45]
20. Snake Eyes [Single Edit] [02:27]

Exact Audio Copy V0.99 prebeta 5 from 4. May 2009

EAC extraction logfile from 2. December 2015, 18:38

The Alan Parsons Project / The Turn Of A Friendly Card [CD2]

Used drive : ATAPI iHAS122 C Adapter: 1 ID: 1

Read mode : Secure
Utilize accurate stream : Yes
Defeat audio cache : Yes
Make use of C2 pointers : No

Read offset correction : 6
Overread into Lead-In and Lead-Out : No
Fill up missing offset samples with silence : Yes
Delete leading and trailing silent blocks : No
Null samples used in CRC calculations : Yes
Used interface : Native Win32 interface for Win NT & 2000

Used output format : Internal WAV Routines
Sample format : 44.100 Hz; 16 Bit; Stereo


TOC of the extracted CD

Track | Start | Length | Start sector | End sector
––––––––––––––––––––––––––––-
1 | 0:00.00 | 3:26.02 | 0 | 15451
2 | 3:26.02 | 3:06.11 | 15452 | 29412
3 | 6:32.13 | 4:06.64 | 29413 | 47926
4 | 10:39.02 | 2:12.52 | 47927 | 57878
5 | 12:51.54 | 3:19.19 | 57879 | 72822
6 | 16:10.73 | 3:13.54 | 72823 | 87351
7 | 19:24.52 | 2:46.22 | 87352 | 99823
8 | 22:10.74 | 4:32.46 | 99824 | 120269
9 | 26:43.45 | 5:03.37 | 120270 | 143031
10 | 31:47.07 | 4:32.59 | 143032 | 163490
11 | 36:19.66 | 4:19.09 | 163491 | 182924
12 | 40:39.00 | 5:08.48 | 182925 | 206072
13 | 45:47.48 | 2:18.44 | 206073 | 216466
14 | 48:06.17 | 3:20.47 | 216467 | 231513
15 | 51:26.64 | 3:03.05 | 231514 | 245243
16 | 54:29.69 | 2:40.10 | 245244 | 257253
17 | 57:10.04 | 3:32.08 | 257254 | 273161
18 | 60:42.12 | 3:35.16 | 273162 | 289302
19 | 64:17.28 | 3:44.60 | 289303 | 306162
20 | 68:02.13 | 2:26.33 | 306163 | 317145


Range status and errors

Selected range

Filename C:\Users\arthu\Desktop\The Alan Parsons Project - The Turn Of A Friendly Card [CD2].wav

Peak level 96.1 %
Range quality 100.0 %
Test CRC 6EAB69A4
Copy CRC 6EAB69A4
Copy OK

No errors occurred


AccurateRip summary

Track 1 not present in database
Track 2 not present in database
Track 3 not present in database
Track 4 not present in database
Track 5 not present in database
Track 6 not present in database
Track 7 not present in database
Track 8 not present in database
Track 9 not present in database
Track 10 not present in database
Track 11 not present in database
Track 12 not present in database
Track 13 not present in database
Track 14 not present in database
Track 15 not present in database
Track 16 not present in database
Track 17 not present in database
Track 18 not present in database
Track 19 not present in database
Track 20 not present in database

None of the tracks are present in the AccurateRip database

End of status report

foobar2000 1.2.6 / Dynamic Range Meter 1.1.1
log date: 2015-12-03 11:13:56

––––––––––––––––––––––––––––––––––––––––
Analyzed: The Alan Parsons Project / The Turn Of A Friendly Card [CD2]
––––––––––––––––––––––––––––––––––––––––

DR Peak RMS Duration Track
––––––––––––––––––––––––––––––––––––––––
DR10 -1.82 dB -13.49 dB 3:26 01-May Be a Price to Pay [Eric's Songwriting Diary]
DR11 -0.37 dB -14.86 dB 3:06 02-Games People Play [Eric's Songwriting Diary]
DR12 -2.00 dB -15.49 dB 4:07 03-Time [Eric's Songwriting Diary]
DR12 -1.57 dB -14.56 dB 2:13 04-I Don't Wanna Go Home [Eric's Songwriting Diary]
DR12 -1.04 dB -15.06 dB 3:19 05-The Turn of a Friendly Card [Eric's Songwriting Diary]
DR11 -1.58 dB -14.37 dB 3:14 06-Snake Eyes [Eric's Songwriting Diary]
DR10 -2.56 dB -14.68 dB 2:46 07-Nothing Left to Lose [Eric's Songwriting Diary]
DR12 -0.34 dB -14.04 dB 4:33 08-TOFC \ Snake Eyes \ I Don't Wanna Go Home [Eric's Songwriting Diary]
DR12 -0.40 dB -14.43 dB 5:03 09-May Be a Price to Pay [Early Version, Eric Guide Vocals & Unused Guitar Solo]
DR12 -0.40 dB -15.35 dB 4:33 10-Games People Play [Early Version, Eric Guide Vocal]
DR13 -2.53 dB -19.82 dB 4:19 11-Time [Orchestra & Chris Rainbow Backing Vocals]
DR14 -0.40 dB -16.63 dB 5:09 12-The Gold Bug [Early Reference Version]
DR14 -0.40 dB -18.34 dB 2:19 13-The Turn of a Friendly Card (Part One) [Early Backing Track]
DR12 -0.90 dB -14.78 dB 3:21 14-Snake Eyes [Early Version, Eric Guide Vocal]
DR13 -0.40 dB -15.92 dB 3:03 15-The Ace of Swords [Early Version with Synch 'Orchestration']
DR15 -0.40 dB -18.44 dB 2:40 16-The Ace of Swords [Early Version with Piano on Melody]
DR13 -0.40 dB -15.18 dB 3:32 17-The Turn of a Friendly Card (Part Two) [Eric Guide Vocal and Extended Guitar …
DR12 -0.40 dB -14.54 dB 3:35 18-Games People Play [Single Edit]
DR12 -0.60 dB -16.14 dB 3:45 19-The Turn of a Friendly Card [Single Edit]
DR12 -0.40 dB -14.57 dB 2:26 20-Snake Eyes [Single Edit]
––––––––––––––––––––––––––––––––––––––––

Number of tracks: 20
Official DR value: DR12

Samplerate: 44100 Hz
Channels: 2
Bits per sample: 16
Bitrate: 794 kbps
Codec: FLAC
================================================================================

[CUETools log; Date: 03.12.2015 11:13:58; Version: 2.1.5]
[CTDB TOCID: .tFc1yHKqktVCuaI4wyXJQ5.gDY-] found.
Track | CTDB Status
1 | (6/6) Accurately ripped
2 | (6/6) Accurately ripped
3 | (6/6) Accurately ripped
4 | (6/6) Accurately ripped
5 | (6/6) Accurately ripped
6 | (6/6) Accurately ripped
7 | (6/6) Accurately ripped
8 | (6/6) Accurately ripped
9 | (6/6) Accurately ripped
10 | (6/6) Accurately ripped
11 | (6/6) Accurately ripped
12 | (6/6) Accurately ripped
13 | (6/6) Accurately ripped
14 | (6/6) Accurately ripped
15 | (6/6) Accurately ripped
16 | (6/6) Accurately ripped
17 | (6/6) Accurately ripped
18 | (6/6) Accurately ripped
19 | (6/6) Accurately ripped
20 | (6/6) Accurately ripped
[AccurateRip ID: 00334f9a-02f54ad6-2e108414] disk not present in database.

Track Peak [ CRC32 ] [W/O NULL] [ LOG ]
– 96,1 [6EAB69A4] [2928CED5] CRC32
01 81,0 [52266EB0] [0B75A560]
02 95,7 [5F87E36D] [781C0B7F]
03 79,4 [A72633A4] [6FD8DE84]
04 83,4 [E7D11F0F] [5B648485]
05 88,7 [FD3501BF] [E2A31BBE]
06 83,4 [1635DB48] [AB245976]
07 74,4 [EC51EDCE] [CBE14843]
08 96,1 [5BDCA4C7] [BC3822B2]
09 95,5 [4C85EF57] [4A3DE6AB]
10 95,5 [8F2173BB] [DD286298]
11 74,7 [64B2952B] [03C7EB8F]
12 95,5 [9C2DFC4A] [B93136E2]
13 95,5 [A89C8341] [06CD35C8]
14 90,1 [A9204744] [5E3D3A09]
15 95,5 [2822BEF7] [B65CC76A]
16 95,5 [5259DEFF] [DB883A85]
17 95,5 [894DF29F] [F6678F23]
18 95,5 [6B5150A3] [51B0AD89]
19 93,2 [EEF09E5B] [6AB7637E]
20 95,5 [20AE594B] [03868ADC]

The Alan Parsons Project - The Turn Of A Friendly Card (1980) [2015, 35th Anniversary Edition]

The Alan Parsons Project - The Turn Of A Friendly Card (1980) [2015, 35th Anniversary Edition]

All thanks go to London

Visit my blog!

No mirrors, please!

Download: