Subcategories

The Barracudas - Drop Out (1980) {EMI}

Posted By: tiburon
The Barracudas - Drop Out (1980) {EMI}

The Barracudas - Drop Out (1980) {EMI}
EAC 1.3 | FLAC tracks level 8 | Cue+Log+M3U | Full Scans 400dpi | 585MB + 5% Recovery
MP3 CBR 320 Kbps | 177MB + 5% Recovery
Genre: Surf, Garage Rock, Power Pop
The Barracudas - Drop Out (1980) {EMI}

On CD for the first time, this album has been digitally re-mastered and includes bonus tracks and previously unreleased material 'Chevy Baby', 'Barracuda Waver', Surfers Are Back', 'Rendevous', 'The K.G.B. (Made A Man Out Of Me)', 'Ballad Of A Liar', Gotta Get A Gun', Grammar Of Misery', 'I Can't Sleep', 'On A Sunday', 'Shades Of Today' & Summer Fun' (Alternate Version). Also includes original artwork plus booklet featuring extensive sleeve notes from the band and rare memorabilia. Drop Out with The Barracudas is the debut studio album by English rock band The Barracudas, released in 1980 by record label Zonophone.
Track List
1. I Can't Pretend (02:37)
2. We're Living In Violent Times (02:50)
3. Don't Let Go (03:29)
4. Codeine (03:40)
5. This Ain't My Time (03:06)
6. I Saw My Death In A Dream Last Night (03:34)
7. Somewhere Outside (03:15)
8. Summer Fun (03:15)
9. His Last Summer (03:34)
10. Somebody (03:09)
11. Campus Tramp (02:53)
12. On The Strip (02:43)
13. California Lament (03:42)
14. (I Wish It Could Be) 1965 Again (03:26)
15. Chevy Baby (02:19)
16. Barracuda Waver (01:57)
17. Surfers Are Back! (02:17)
18. Rendezvous (01:56)
19. The K.G.B (Made A Man Out Of Me) (02:12)
20. Ballad Of A Liar (03:33)
21. Gotta Get A Gun (02:29)
22. Grammar Of Misery (03:35)
23. I Can't Sleep (02:21)
24. On A Sunday (03:27)
25. Shades Of Today (03:02)
26. Summer Fun (Alternative Version) (02:43)


Exact Audio Copy V1.3 from 2. September 2016

EAC extraction logfile from 4. March 2017, 19:12

The Barracudas / Drop Out

Used drive : TSSTcorpCDDVDW SN-208FB Adapter: 1 ID: 0

Read mode : Secure
Utilize accurate stream : Yes
Defeat audio cache : Yes
Make use of C2 pointers : No

Read offset correction : 6
Overread into Lead-In and Lead-Out : No
Fill up missing offset samples with silence : Yes
Delete leading and trailing silent blocks : No
Null samples used in CRC calculations : Yes
Used interface : Native Win32 interface for Win NT & 2000
Gap handling : Appended to previous track

Used output format : User Defined Encoder
Selected bitrate : 768 kBit/s
Quality : High
Add ID3 tag : No
Command line compressor : C:\Program Files (x86)\Exact Audio Copy\FLAC\FLAC.EXE
Additional command line options : -8 -V -T "ARTIST=%artist%" -T "TITLE=%title%" -T "ALBUM=%albumtitle%" -T "DATE=%year%" -T "TRACKNUMBER=%tracknr%" -T "GENRE=%genre%" -T "PERFORMER=%albuminterpret%" -T "COMPOSER=%composer%" %haslyrics%–tag-from-file=LYRICS="%lyricsfile%"%haslyrics% -T "ALBUMARTIST=%albumartist%" -T "DISCNUMBER=%cdnumber%" -T "TOTALDISCS=%totalcds%" -T "TOTALTRACKS=%numtracks%" -T "COMMENT=%comment%" %source% -o %dest%


TOC of the extracted CD

Track | Start | Length | Start sector | End sector
––––––––––––––––––––––––––––-
1 | 0:00.00 | 2:37.57 | 0 | 11831
2 | 2:37.57 | 2:50.30 | 11832 | 24611
3 | 5:28.12 | 3:29.35 | 24612 | 40321
4 | 8:57.47 | 3:40.30 | 40322 | 56851
5 | 12:38.02 | 3:06.23 | 56852 | 70824
6 | 15:44.25 | 3:34.12 | 70825 | 86886
7 | 19:18.37 | 3:15.00 | 86887 | 101511
8 | 22:33.37 | 3:15.48 | 101512 | 116184
9 | 25:49.10 | 3:34.07 | 116185 | 132241
10 | 29:23.17 | 3:09.38 | 132242 | 146454
11 | 32:32.55 | 2:53.70 | 146455 | 159499
12 | 35:26.50 | 2:43.27 | 159500 | 171751
13 | 38:10.02 | 3:42.38 | 171752 | 188439
14 | 41:52.40 | 3:26.65 | 188440 | 203954
15 | 45:19.30 | 2:19.47 | 203955 | 214426
16 | 47:39.02 | 1:57.35 | 214427 | 223236
17 | 49:36.37 | 2:17.40 | 223237 | 233551
18 | 51:54.02 | 1:56.23 | 233552 | 242274
19 | 53:50.25 | 2:12.00 | 242275 | 252174
20 | 56:02.25 | 3:33.30 | 252175 | 268179
21 | 59:35.55 | 2:29.32 | 268180 | 279386
22 | 62:05.12 | 3:35.05 | 279387 | 295516
23 | 65:40.17 | 2:21.73 | 295517 | 306164
24 | 68:02.15 | 3:27.17 | 306165 | 321706
25 | 71:29.32 | 3:02.33 | 321707 | 335389
26 | 74:31.65 | 2:43.50 | 335390 | 347664


Track 1

Filename E:\Video\Incoming Folder\EAC\[01] I Can't Pretend.wav

Pre-gap length 0:00:02.00

Peak level 99.1 %
Extraction speed 1.1 X
Track quality 100.0 %
Test CRC C348ED3E
Copy CRC C348ED3E
Accurately ripped (confidence 3) [10FE740F] (AR v2)
Copy OK

Track 2

Filename E:\Video\Incoming Folder\EAC\[02] We're Living In Violent Times.wav

Pre-gap length 0:00:03.36

Peak level 99.1 %
Extraction speed 1.2 X
Track quality 100.0 %
Test CRC 37A012E5
Copy CRC 37A012E5
Accurately ripped (confidence 3) [394880C1] (AR v2)
Copy OK

Track 3

Filename E:\Video\Incoming Folder\EAC\[03] Don't Let Go.wav

Pre-gap length 0:00:02.26

Peak level 99.1 %
Extraction speed 1.1 X
Track quality 99.9 %
Test CRC 660041DA
Copy CRC 660041DA
Accurately ripped (confidence 3) [52CD6433] (AR v2)
Copy OK

Track 4

Filename E:\Video\Incoming Folder\EAC\[04] Codeine.wav

Pre-gap length 0:00:02.82

Peak level 99.1 %
Extraction speed 1.2 X
Track quality 99.9 %
Test CRC 6330CFB2
Copy CRC 6330CFB2
Accurately ripped (confidence 3) [6D1837AB] (AR v2)
Copy OK

Track 5

Filename E:\Video\Incoming Folder\EAC\[05] This Ain't My Time.wav

Pre-gap length 0:00:01.69

Peak level 99.1 %
Extraction speed 1.4 X
Track quality 100.0 %
Test CRC AF5FDEE3
Copy CRC AF5FDEE3
Accurately ripped (confidence 3) [28CD17E6] (AR v2)
Copy OK

Track 6

Filename E:\Video\Incoming Folder\EAC\[06] I Saw My Death In A Dream Last Night.wav

Pre-gap length 0:00:01.06

Peak level 99.1 %
Extraction speed 1.5 X
Track quality 100.0 %
Test CRC 26D816B4
Copy CRC 26D816B4
Accurately ripped (confidence 3) [DB10B900] (AR v2)
Copy OK

Track 7

Filename E:\Video\Incoming Folder\EAC\[07] Somewhere Outside.wav

Pre-gap length 0:00:01.73

Peak level 99.2 %
Extraction speed 1.6 X
Track quality 100.0 %
Test CRC CAE057BF
Copy CRC CAE057BF
Accurately ripped (confidence 3) [E494A490] (AR v2)
Copy OK

Track 8

Filename E:\Video\Incoming Folder\EAC\[08] Summer Fun.wav

Pre-gap length 0:00:03.00

Peak level 98.9 %
Extraction speed 1.7 X
Track quality 100.0 %
Test CRC 402C19D0
Copy CRC 402C19D0
Accurately ripped (confidence 3) [936651E5] (AR v2)
Copy OK

Track 9

Filename E:\Video\Incoming Folder\EAC\[09] His Last Summer.wav

Pre-gap length 0:00:01.93

Peak level 98.0 %
Extraction speed 1.5 X
Track quality 99.9 %
Test CRC 20D54E66
Copy CRC 20D54E66
Accurately ripped (confidence 3) [130BDD31] (AR v2)
Copy OK

Track 10

Filename E:\Video\Incoming Folder\EAC\[10] Somebody.wav

Pre-gap length 0:00:01.76

Peak level 99.2 %
Extraction speed 1.8 X
Track quality 100.0 %
Test CRC 9743E735
Copy CRC 9743E735
Accurately ripped (confidence 3) [7784B89D] (AR v2)
Copy OK

Track 11

Filename E:\Video\Incoming Folder\EAC\[11] Campus Tramp.wav

Pre-gap length 0:00:01.40

Peak level 99.2 %
Extraction speed 1.5 X
Track quality 99.9 %
Test CRC 523059A5
Copy CRC 523059A5
Accurately ripped (confidence 3) [85E579B8] (AR v2)
Copy OK

Track 12

Filename E:\Video\Incoming Folder\EAC\[12] On The Strip.wav

Pre-gap length 0:00:01.04

Peak level 99.1 %
Extraction speed 1.5 X
Track quality 99.9 %
Test CRC 2089789B
Copy CRC 2089789B
Accurately ripped (confidence 3) [7A57622F] (AR v2)
Copy OK

Track 13

Filename E:\Video\Incoming Folder\EAC\[13] California Lament.wav

Pre-gap length 0:00:01.33

Peak level 98.9 %
Extraction speed 1.9 X
Track quality 100.0 %
Test CRC 42FBFDFF
Copy CRC 42FBFDFF
Accurately ripped (confidence 3) [EECB283A] (AR v2)
Copy OK

Track 14

Filename E:\Video\Incoming Folder\EAC\[14] (I Wish It Could Be) 1965 Again.wav

Pre-gap length 0:00:02.04

Peak level 99.1 %
Extraction speed 2.0 X
Track quality 100.0 %
Test CRC A9850B39
Copy CRC A9850B39
Accurately ripped (confidence 3) [BAAEED44] (AR v2)
Copy OK

Track 15

Filename E:\Video\Incoming Folder\EAC\[15] Chevy Baby (B Sides).wav

Pre-gap length 0:00:05.64

Peak level 99.1 %
Extraction speed 1.9 X
Track quality 100.0 %
Test CRC CA3DCE48
Copy CRC CA3DCE48
Accurately ripped (confidence 3) [AED75918] (AR v2)
Copy OK

Track 16

Filename E:\Video\Incoming Folder\EAC\[16] Barracuda Waver (B Sides).wav

Pre-gap length 0:00:02.26

Peak level 99.2 %
Extraction speed 1.8 X
Track quality 100.0 %
Test CRC 0899A41B
Copy CRC 0899A41B
Accurately ripped (confidence 3) [CA3E7924] (AR v2)
Copy OK

Track 17

Filename E:\Video\Incoming Folder\EAC\[17] Surfers Are Back! (B Sides).wav

Pre-gap length 0:00:02.06

Peak level 98.2 %
Extraction speed 1.9 X
Track quality 100.0 %
Test CRC 6645C87F
Copy CRC 6645C87F
Accurately ripped (confidence 3) [C75411C4] (AR v2)
Copy OK

Track 18

Filename E:\Video\Incoming Folder\EAC\[18] Rendezvous (B Sides).wav

Pre-gap length 0:00:02.46

Peak level 98.5 %
Extraction speed 1.9 X
Track quality 100.0 %
Test CRC 897DA521
Copy CRC 897DA521
Accurately ripped (confidence 3) [7CCCF44D] (AR v2)
Copy OK

Track 19

Filename E:\Video\Incoming Folder\EAC\[19] The KGB (Made A Man Out Of Me) (B Sides).wav

Pre-gap length 0:00:02.24

Peak level 99.1 %
Extraction speed 2.0 X
Track quality 100.0 %
Test CRC 8E0815C6
Copy CRC 8E0815C6
Accurately ripped (confidence 2) [D1ADA69D] (AR v2)
Copy OK

Track 20

Filename E:\Video\Incoming Folder\EAC\[20] Ballad Of A Liar (Unreleased, 1981).wav

Pre-gap length 0:00:02.93

Peak level 93.6 %
Extraction speed 2.2 X
Track quality 100.0 %
Test CRC AB1D4B4D
Copy CRC AB1D4B4D
Accurately ripped (confidence 2) [163DE426] (AR v2)
Copy OK

Track 21

Filename E:\Video\Incoming Folder\EAC\[21] Gotta Get A Gun (Unreleased, 1981).wav

Pre-gap length 0:00:01.46

Peak level 93.6 %
Extraction speed 2.1 X
Track quality 100.0 %
Test CRC 5B432A27
Copy CRC 5B432A27
Accurately ripped (confidence 2) [355356B6] (AR v2)
Copy OK

Track 22

Filename E:\Video\Incoming Folder\EAC\[22] Grammar Of Misery (Unreleased, 1981).wav

Pre-gap length 0:00:01.20

Peak level 93.6 %
Extraction speed 2.3 X
Track quality 100.0 %
Test CRC 46011404
Copy CRC 46011404
Accurately ripped (confidence 2) [A2E57C0E] (AR v2)
Copy OK

Track 23

Filename E:\Video\Incoming Folder\EAC\[23] I Can't Sleep (Unreleased, 1981).wav

Pre-gap length 0:00:00.86

Peak level 93.6 %
Extraction speed 2.1 X
Track quality 100.0 %
Test CRC 60B3B938
Copy CRC 60B3B938
Accurately ripped (confidence 2) [2BD90B16] (AR v2)
Copy OK

Track 24

Filename E:\Video\Incoming Folder\EAC\[24] On A Sunday (Unreleased, 1981).wav

Pre-gap length 0:00:00.76

Peak level 93.6 %
Extraction speed 2.3 X
Track quality 100.0 %
Test CRC 0CF0453E
Copy CRC 0CF0453E
Accurately ripped (confidence 2) [D9849A3E] (AR v2)
Copy OK

Track 25

Filename E:\Video\Incoming Folder\EAC\[25] Shades Of Today (Unreleased, 1981).wav

Pre-gap length 0:00:01.06

Peak level 93.6 %
Extraction speed 2.3 X
Track quality 100.0 %
Test CRC DE2D9DDC
Copy CRC DE2D9DDC
Accurately ripped (confidence 2) [AC02BDC6] (AR v2)
Copy OK

Track 26

Filename E:\Video\Incoming Folder\EAC\[26] Summer Fun (Alternate Version) (Unreleased, 1981).wav

Pre-gap length 0:00:01.66

Peak level 99.2 %
Extraction speed 1.9 X
Track quality 99.9 %
Test CRC F1148214
Copy CRC F1148214
Accurately ripped (confidence 3) [FAB3C0AA] (AR v2)
Copy OK


All tracks accurately ripped

No errors occurred

End of status report

–– CUETools DB Plugin V2.1.6

[CTDB TOCID: daqVef9v8q7USrEcShZ_pEpR65k-] found
Submit result: daqVef9v8q7USrEcShZ_pEpR65k- has been confirmed
Track | CTDB Status
1 | (4/4) Accurately ripped
2 | (4/4) Accurately ripped
3 | (4/4) Accurately ripped
4 | (4/4) Accurately ripped
5 | (4/4) Accurately ripped
6 | (4/4) Accurately ripped
7 | (4/4) Accurately ripped
8 | (4/4) Accurately ripped
9 | (4/4) Accurately ripped
10 | (4/4) Accurately ripped
11 | (4/4) Accurately ripped
12 | (4/4) Accurately ripped
13 | (4/4) Accurately ripped
14 | (4/4) Accurately ripped
15 | (4/4) Accurately ripped
16 | (4/4) Accurately ripped
17 | (4/4) Accurately ripped
18 | (4/4) Accurately ripped
19 | (4/4) Accurately ripped
20 | (4/4) Accurately ripped
21 | (4/4) Accurately ripped
22 | (3/4) Accurately ripped
23 | (4/4) Accurately ripped
24 | (4/4) Accurately ripped
25 | (4/4) Accurately ripped
26 | (4/4) Accurately ripped


==== Log checksum 2A182F3CE5A55EC2E844BE7F8BF3E880B12B407A34EA644EAF2A129F14E1A28A ====

The Barracudas - Drop Out (1980) {EMI}
The Barracudas - Drop Out (1980) {EMI}


Thanks to the original ripper