Subcategories

The Bill Smith Quartet - Folk Jazz (1961) [Reissue 2003]

Posted By: gribovar
The Bill Smith Quartet - Folk Jazz (1961) [Reissue 2003]

The Bill Smith Quartet - Folk Jazz (1961) [Reissue 2003]
EAC Rip | FLAC (tracks+.cue+log) - 323 MB | MP3 CBR 320 kbps (LAME 3.93) - 134 MB | Covers (8 MB) included
Genre: Jazz | RAR 3% Rec. | Label: Contemporary Records/Fantasy (OJCCD-1956-2/S-7591)

A record that could only have been made in the late '50s, 1959's Folk Jazz is a meeting of the two great collegiate crazes of the period, post-bebop modern jazz and traditional folk music. Clarinetist Bill Smith and a low-key piano-less trio? Jim Hall on guitar, Monty Budwig on bass and the great Shelly Manne on drums? take 10 songs from the folk tradition, strip them down to the bare essentials of melody and chord progressions and turn them into a Kind of Blue-like experiment in cool-toned modal jazz. Familiar standards like "Black Is the Color of My True Love's Hair" (which opens with an extended unaccompanied solo by Smith that's a marvel of economy) are presented in entirely new and fresh settings. Perhaps the best of the lot is an extended meditation on the spiritual "Go Down Moses" that turns the song from a gospel shout to an intimate whisper. The 2003 CD reissue adds two tracks, alternate takes of "Reuben, Reuben" and "Nobody Knows the Trouble I've Seen."
Tracklist:
01. A-Roving
02. Greensleeves
03. Nobody Knows the Trouble I've Seen
04. John Henry
05. Wayfaring Stranger
06. Three Blind Mice
07. Go Down, Moses
08. Blow the Man Down
09. Black Is the Color of My True Love's Hair
10. Reuben, Reuben
11. Nobody Knows the Trouble I've Seen (alt. take 1) (Bonus track)
12. Reuben, Reuben (alt. take 14) (Bonus track)

Total time: 53:19

Exact Audio Copy V1.0 beta 3 from 29. August 2011

EAC extraction logfile from 14. July 2012, 2:43

The Bill Smith Quartet / Folk Jazz

Used drive : HL-DT-STDVDRAM GT33N Adapter: 1 ID: 0

Read mode : Secure
Utilize accurate stream : Yes
Defeat audio cache : Yes
Make use of C2 pointers : No

Read offset correction : 103
Overread into Lead-In and Lead-Out : No
Fill up missing offset samples with silence : Yes
Delete leading and trailing silent blocks : No
Null samples used in CRC calculations : Yes
Used interface : Installed external ASPI interface
Gap handling : Appended to previous track

Used output format : User Defined Encoder
Selected bitrate : 768 kBit/s
Quality : High
Add ID3 tag : No
Command line compressor : C:\Program Files (x86)\Exact Audio Copy\FLAC\FLAC.EXE
Additional command line options : -8 -V -T "ARTIST=%artist%" -T "TITLE=%title%" -T "ALBUM=%albumtitle%" -T "DATE=%year%" -T "TRACKNUMBER=%tracknr%" -T "GENRE=%genre%" -T "PERFORMER=%albuminterpret%" -T "COMPOSER=%composer%" %haslyrics%–tag-from-file=LYRICS="%lyricsfile%"%haslyrics% -T "ALBUMARTIST=%albumartist%" -T "DISCNUMBER=%cdnumber%" -T "TOTALDISCS=%totalcds%" -T "TOTALTRACKS=%numtracks%" -T "COMMENT=%comment%" %source% -o %dest%


TOC of the extracted CD

Track | Start | Length | Start sector | End sector
––––––––––––––––––––––––––––-
1 | 0:00.00 | 4:16.40 | 0 | 19239
2 | 4:16.40 | 5:03.52 | 19240 | 42016
3 | 9:20.17 | 3:39.68 | 42017 | 58509
4 | 13:00.10 | 4:22.07 | 58510 | 78166
5 | 17:22.17 | 4:24.50 | 78167 | 98016
6 | 21:46.67 | 3:30.50 | 98017 | 113816
7 | 25:17.42 | 6:47.20 | 113817 | 144361
8 | 32:04.62 | 3:38.28 | 144362 | 160739
9 | 35:43.15 | 4:14.32 | 160740 | 179821
10 | 39:57.47 | 3:35.50 | 179822 | 195996
11 | 43:33.22 | 5:55.70 | 195997 | 222691
12 | 49:29.17 | 3:49.30 | 222692 | 239896


Track 1

Filename C:\EAC\The Bill Smith Quartet - Folk Jazz\01 - A-Roving.wav

Pre-gap length 0:00:02.00

Peak level 99.7 %
Extraction speed 1.3 X
Track quality 100.0 %
Test CRC 61F16370
Copy CRC 61F16370
Track not present in AccurateRip database
Copy OK

Track 2

Filename C:\EAC\The Bill Smith Quartet - Folk Jazz\02 - Greensleeves.wav

Pre-gap length 0:00:03.10

Peak level 98.6 %
Extraction speed 1.5 X
Track quality 100.0 %
Test CRC 861C8D1C
Copy CRC 861C8D1C
Track not present in AccurateRip database
Copy OK

Track 3

Filename C:\EAC\The Bill Smith Quartet - Folk Jazz\03 - Nobody Knows The Trouble I've Seen.wav

Pre-gap length 0:00:03.06

Peak level 100.0 %
Extraction speed 1.6 X
Track quality 100.0 %
Test CRC 9BF2237F
Copy CRC 9BF2237F
Track not present in AccurateRip database
Copy OK

Track 4

Filename C:\EAC\The Bill Smith Quartet - Folk Jazz\04 - John Henry.wav

Pre-gap length 0:00:03.04

Peak level 98.6 %
Extraction speed 1.7 X
Track quality 100.0 %
Test CRC 4DA20DDB
Copy CRC 4DA20DDB
Track not present in AccurateRip database
Copy OK

Track 5

Filename C:\EAC\The Bill Smith Quartet - Folk Jazz\05 - Wayfaring Stranger.wav

Pre-gap length 0:00:03.53

Peak level 100.0 %
Extraction speed 1.9 X
Track quality 100.0 %
Test CRC 3E272A2E
Copy CRC 3E272A2E
Track not present in AccurateRip database
Copy OK

Track 6

Filename C:\EAC\The Bill Smith Quartet - Folk Jazz\06 - Three Blind Mice.wav

Pre-gap length 0:00:04.20

Peak level 99.9 %
Extraction speed 1.9 X
Track quality 100.0 %
Test CRC 12EB139F
Copy CRC 12EB139F
Track not present in AccurateRip database
Copy OK

Track 7

Filename C:\EAC\The Bill Smith Quartet - Folk Jazz\07 - Go Down, Moses.wav

Pre-gap length 0:00:03.06

Peak level 98.3 %
Extraction speed 2.2 X
Track quality 100.0 %
Test CRC C51F8A04
Copy CRC C51F8A04
Track not present in AccurateRip database
Copy OK

Track 8

Filename C:\EAC\The Bill Smith Quartet - Folk Jazz\08 - Blow The Man Down.wav

Pre-gap length 0:00:03.22

Peak level 100.0 %
Extraction speed 2.1 X
Track quality 100.0 %
Test CRC 1745292E
Copy CRC 1745292E
Track not present in AccurateRip database
Copy OK

Track 9

Filename C:\EAC\The Bill Smith Quartet - Folk Jazz\09 - Black Is The Color Of My True Love's Hair.wav

Pre-gap length 0:00:04.30

Peak level 98.4 %
Extraction speed 2.3 X
Track quality 100.0 %
Test CRC 9FE44AE7
Copy CRC 9FE44AE7
Track not present in AccurateRip database
Copy OK

Track 10

Filename C:\EAC\The Bill Smith Quartet - Folk Jazz\10 - Reuben, Reuben.wav

Pre-gap length 0:00:03.46

Peak level 100.0 %
Extraction speed 2.3 X
Track quality 100.0 %
Test CRC 46F034C4
Copy CRC 46F034C4
Track not present in AccurateRip database
Copy OK

Track 11

Filename C:\EAC\The Bill Smith Quartet - Folk Jazz\11 - Nobody Knows The Trouble I've Seen (Alt. Take 1).wav

Pre-gap length 0:00:04.80

Peak level 100.0 %
Extraction speed 2.6 X
Track quality 100.0 %
Test CRC 5A91FC55
Copy CRC 5A91FC55
Track not present in AccurateRip database
Copy OK

Track 12

Filename C:\EAC\The Bill Smith Quartet - Folk Jazz\12 - Reuben, Reuben (Alt. Take 14).wav

Pre-gap length 0:00:03.53

Peak level 100.0 %
Extraction speed 2.2 X
Track quality 99.9 %
Test CRC 9A55CCEE
Copy CRC 9A55CCEE
Track not present in AccurateRip database
Copy OK


None of the tracks are present in the AccurateRip database

No errors occurred

End of status report

==== Log checksum C0F5925DA51E826861FCDC2352E634DAE0594B5AF8C8CE455BB703424E0290FA ====

[CUETools log; Date: 13.02.2018 16:20:51; Version: 2.1.4]
[CTDB TOCID: 9cE9Ar0LLFj04ichtsQ8_daIj9M-] found.
Track | CTDB Status
1 | (6/6) Accurately ripped
2 | (6/6) Accurately ripped
3 | (6/6) Accurately ripped
4 | (6/6) Accurately ripped
5 | (6/6) Accurately ripped
6 | (6/6) Accurately ripped
7 | (6/6) Accurately ripped
8 | (6/6) Accurately ripped
9 | (6/6) Accurately ripped
10 | (6/6) Accurately ripped
11 | (6/6) Accurately ripped
12 | (6/6) Accurately ripped
[AccurateRip ID: 0017b37e-00dd9268-aa0c7e0c] found.
Track [ CRC | V2 ] Status
01 [3049ca8e|4d733b53] (2+2/7) Accurately ripped
02 [db7dcb13|f338f82a] (2+2/7) Accurately ripped
03 [0ceaa066|c54f58e8] (2+2/7) Accurately ripped
04 [ab16194d|89561688] (2+2/7) Accurately ripped
05 [6606c784|a78418b2] (2+2/7) Accurately ripped
06 [d8949c82|3701b48d] (2+2/7) Accurately ripped
07 [98a7a903|a900146a] (2+2/7) Accurately ripped
08 [0b8515de|3c1d20d8] (2+2/7) Accurately ripped
09 [17a94c53|dc37d9b5] (2+2/7) Accurately ripped
10 [c4b83b0e|4d476d9d] (2+2/7) Accurately ripped
11 [92c742d4|ff8d7b52] (2+2/7) Accurately ripped
12 [67c9f2ee|678d24df] (2+2/7) Accurately ripped
Offsetted by -139:
01 [9ce3efc6] (0/7) No match (V2 was not tested)
02 [fd0c5d11] (0/7) No match (V2 was not tested)
03 [c805a9aa] (0/7) No match (V2 was not tested)
04 [40da2e57] (0/7) No match (V2 was not tested)
05 [e3818eaf] (0/7) No match (V2 was not tested)
06 [609c220d] (0/7) No match (V2 was not tested)
07 [f6aa2d68] (0/7) No match (V2 was not tested)
08 [48d84a88] (0/7) No match (V2 was not tested)
09 [0240e33a] (0/7) No match (V2 was not tested)
10 [f10130a1] (0/7) No match (V2 was not tested)
11 [cca797de] (0/7) No match (V2 was not tested)
12 [c7a14571] (0/7) No match (V2 was not tested)

Track Peak [ CRC32 ] [W/O NULL] [ LOG ]
– 100,0 [FDB0DB72] [98C1C196]
01 99,7 [61F16370] [5E70F0CD] CRC32
02 98,6 [861C8D1C] [3EEEA340] CRC32
03 100,0 [9BF2237F] [C2406743] CRC32
04 98,6 [4DA20DDB] [DFF8A21B] CRC32
05 100,0 [3E272A2E] [BCC1AB3F] CRC32
06 99,9 [12EB139F] [BC661A36] CRC32
07 98,3 [C51F8A04] [C75185A5] CRC32
08 100,0 [1745292E] [81EF473F] CRC32
09 98,4 [9FE44AE7] [D20F7B83] CRC32
10 100,0 [46F034C4] [B1231B3C] CRC32
11 100,0 [5A91FC55] [6BF3AB86] CRC32
12 100,0 [9A55CCEE] [C71BC32A] CRC32

Thanks to jackrelish