Subcategories

The Byrds - Younger Than Yesterday (1967) [24 KT + Gold CD, 2011] (Repost)

Posted By: gribovar
The Byrds - Younger Than Yesterday (1967) [24 KT + Gold CD, 2011] (Repost)

The Byrds - Younger Than Yesterday (1967) [24 KT + Gold CD, 2011]
EAC Rip | WavPack (image+.cue+log) - 106 MB | MP3 CBR 320 kbps (LAME 3.93) - 67 MB | Covers - 51 MB
Genre: Psychedelic Rock | RAR 3% Rec. | Label: Audio Fidelity (AFZ 110), Mono

Four of the five original members of The Byrds appear on Younger Than Yesterday, their fourth album recorded in 1966 and released in 1967. Time has shown it to be among the most durable of the band's albums. David Crosby, Roger McGuinn, and Chris Hillman come into their own as songwriters and Michael Clarke continued to mature into an impressive drummer. The album successfully expands their musical styles into several different directions yet remains a focused set blending folk-rock, heavy psychedelia, jazz influences and early indicators of the country rock direction the band later pursued.
While there's a somber, brooding tone that hangs over many of the songs, the album has a fresh playful quality capturing new musical textures, including reverse tape effects and brass instruments - notably, Hugh Masekela's trumpet solo on the hit single, "So You Want to Be a Rock 'n' Roll Star." The group's highly distinctive arrangements provide a solid backdrop for their exquisitely controlled vocal harmonies on tracks such as "My Back Pages", "Have You Seen Her Face," "Everybody's Been Burned" and "Renaissance Fair" among others. West Coast music at its creative peak - a masterpiece of psychedelic folk rock and roll.
Tracklist:
01. So You Want To Be A Rock 'N' Roll Star
02. Have You Seen Her Face
03. C.T.A. - 102
04. Renaissance Fair
05. Time Between
06. Everybody's Been Burned
07. Thoughts And Words
08. Mind Gardens
09. My Back Pages
10. The Girl With No Name
11. Why

Total time: 28:25

Exact Audio Copy V1.0 beta 1 from 15. November 2010

EAC extraction logfile from 22. April 2011, 20:39

The Byrds / Younger Than Yesterday [AF AFZ 110]

Used drive : HL-DT-STDVDRAM GH22NS40 Adapter: 2 ID: 1

Read mode : Secure
Utilize accurate stream : Yes
Defeat audio cache : Yes
Make use of C2 pointers : No

Read offset correction : 667
Overread into Lead-In and Lead-Out : No
Fill up missing offset samples with silence : Yes
Delete leading and trailing silent blocks : No
Null samples used in CRC calculations : Yes
Used interface : Installed external ASPI interface

Used output format : User Defined Encoder
Selected bitrate : 1024 kBit/s
Quality : High
Add ID3 tag : No
Command line compressor : C:\Program Files\Exact Audio Copy\wavpack.exe
Additional command line options : -hlmx2 %s


TOC of the extracted CD

Track | Start | Length | Start sector | End sector
––––––––––––––––––––––––––––-
1 | 0:00.00 | 2:06.39 | 0 | 9488
2 | 2:06.39 | 2:32.30 | 9489 | 20918
3 | 4:38.69 | 2:32.15 | 20919 | 32333
4 | 7:11.09 | 1:53.07 | 32334 | 40815
5 | 9:04.16 | 1:56.03 | 40816 | 49518
6 | 11:00.19 | 3:10.38 | 49519 | 63806
7 | 14:10.57 | 2:56.10 | 63807 | 77016
8 | 17:06.67 | 3:30.29 | 77017 | 92795
9 | 20:37.21 | 3:08.21 | 92796 | 106916
10 | 23:45.42 | 1:52.59 | 106917 | 115375
11 | 25:38.26 | 2:46.49 | 115376 | 127874


Range status and errors

Selected range

Filename C:\lossless\The Byrds\The Byrds - Younger Than Yesterday [AF AFZ 110].wav

Peak level 95.6 %
Extraction speed 0.1 X
Range quality 100.0 %
Test CRC EAE33355
Copy CRC EAE33355
Copy OK

No errors occurred


AccurateRip summary

Track 1 not present in database
Track 2 not present in database
Track 3 not present in database
Track 4 not present in database
Track 5 not present in database
Track 6 not present in database
Track 7 not present in database
Track 8 not present in database
Track 9 not present in database
Track 10 not present in database
Track 11 not present in database

None of the tracks are present in the AccurateRip database

End of status report

==== Log checksum A3D9E38744E35452DEEF708194E42B75CF41B264E29630EF6242B7CF8EB17742 ====

[CUETools log; Date: 23.11.2017 18:30:47; Version: 2.1.4]
[CTDB TOCID: ZuKWkos.igeL0nESatEMWRcD.EI-] found.
Track | CTDB Status
1 | (26/26) Accurately ripped
2 | (26/26) Accurately ripped
3 | (26/26) Accurately ripped
4 | (26/26) Accurately ripped
5 | (26/26) Accurately ripped
6 | (26/26) Accurately ripped
7 | (26/26) Accurately ripped
8 | (26/26) Accurately ripped
9 | (26/26) Accurately ripped
10 | (26/26) Accurately ripped
11 | (26/26) Accurately ripped
[AccurateRip ID: 000b3e61-0062ec4d-7f06a90b] found.
Track [ CRC | V2 ] Status
01 [d74cbc65|62e04487] (10+44/54) Accurately ripped
02 [2f16c485|f264813d] (10+45/55) Accurately ripped
03 [5584d49a|5fe54283] (10+45/55) Accurately ripped
04 [c1d3e31e|491879dd] (10+45/55) Accurately ripped
05 [afb651b3|96f88354] (10+45/55) Accurately ripped
06 [d246f104|8f1ff84e] (10+45/55) Accurately ripped
07 [9794e754|94915ef3] (10+45/55) Accurately ripped
08 [710e71b3|5150323c] (10+45/55) Accurately ripped
09 [d9e886a3|abf1fda3] (10+47/57) Accurately ripped
10 [85e4d3e9|64c9f2ce] (10+45/55) Accurately ripped
11 [b1107f74|3803cc23] (10+45/55) Accurately ripped

Track Peak [ CRC32 ] [W/O NULL] [ LOG ]
– 95,6 [EAE33355] [B538D577] CRC32
01 92,9 [FBA62FD7] [D62FDA44]
02 86,9 [A161FB11] [9EE8CD6C]
03 95,1 [70672404] [88086DA7]
04 95,6 [A0A283D5] [5D0FF4E4]
05 87,6 [AFFB13CB] [34473BAA]
06 90,3 [DDE776BB] [C6C05B58]
07 87,4 [E79E0D33] [C2DD9A22]
08 57,9 [495B36D3] [A35CE499]
09 86,9 [F0C3A00E] [D9BDD265]
10 76,2 [0969D875] [600E6CBC]
11 93,0 [75370E29] [7E42F0B0]

Thanks to taurus66