Subcategories

The Carpenters - The Essential Collection 1965-1997 (2002) [4CD]

Posted By: JET 1
The Carpenters - The Essential Collection 1965-1997 (2002) [4CD]

The Carpenters - The Essential Collection 1965-1997 (2002) [4CD]
EAC Rip | FLAC (Image) +CUE, LOG | 1.48 GB | Covers Included
Genre: Pop | Label: A&M | Catalog Number: 069 493 416-2

The Essential Collection: 1965–1997 is a box-set compilation album from The Carpenters that, with the exception of a few track changes, is essentially the same as the 1991 From the Top set. Coming in at four discs and 73 songs, this album is one of the biggest of all Carpenters compilation sets. The songs from this box set are everything from the Richard Carpenter Trio recordings from 1965 to their biggest hits in the early 1970s to the last song ever recorded by the Carpenters, “Now”.

Exact Audio Copy V0.99 prebeta 3 from 28. July 2007

EAC extraction logfile from 7. February 2010, 14:11

Carpenters / The Essential Collection 1965-1997 (Disc 1)

Used drive : Optiarc DVD RW AD-7173S Adapter: 3 ID: 0

Read mode : Secure
Utilize accurate stream : Yes
Defeat audio cache : Yes
Make use of C2 pointers : No

Read offset correction : 48
Overread into Lead-In and Lead-Out : No
Fill up missing offset samples with silence : Yes
Delete leading and trailing silent blocks : No
Null samples used in CRC calculations : Yes
Used interface : Native Win32 interface for Win NT & 2000

Used output format : Internal WAV Routines
Sample format : 44.100 Hz; 16 Bit; Stereo


TOC of the extracted CD

Track | Start | Length | Start sector | End sector
––––––––––––––––––––––––––––-
1 | 0:00.00 | 3:38.17 | 0 | 16366
2 | 3:38.17 | 2:20.68 | 16367 | 26934
3 | 5:59.10 | 1:52.15 | 26935 | 35349
4 | 7:51.25 | 2:28.42 | 35350 | 46491
5 | 10:19.67 | 2:36.08 | 46492 | 58199
6 | 12:56.00 | 2:27.22 | 58200 | 69246
7 | 15:23.22 | 1:50.48 | 69247 | 77544
8 | 17:13.70 | 2:07.05 | 77545 | 87074
9 | 19:21.00 | 1:00.70 | 87075 | 91644
10 | 20:21.70 | 2:22.42 | 91645 | 102336
11 | 22:44.37 | 3:02.33 | 102337 | 116019
12 | 25:46.70 | 2:53.25 | 116020 | 129019
13 | 28:40.20 | 4:09.65 | 129020 | 147759
14 | 32:50.10 | 2:40.57 | 147760 | 159816
15 | 35:30.67 | 1:34.68 | 159817 | 166934
16 | 37:05.60 | 1:58.17 | 166935 | 175801
17 | 39:04.02 | 3:03.15 | 175802 | 189541
18 | 42:07.17 | 4:34.13 | 189542 | 210104
19 | 46:41.30 | 3:21.02 | 210105 | 225181
20 | 50:02.32 | 3:05.20 | 225182 | 239076
21 | 53:07.52 | 3:05.68 | 239077 | 253019
22 | 56:13.45 | 2:36.70 | 253020 | 264789


Range status and errors

Selected range

Filename W:\CD\CD1\Carpenters - The Essential Collection 1965-1997 (Disc 1).wav

Peak level 99.8 %
Range quality 100.0 %
Test CRC 45EDBC87
Copy CRC 45EDBC87
Copy OK

No errors occurred


AccurateRip summary

Track 1 accurately ripped (confidence 4) [02815E45]
Track 2 accurately ripped (confidence 4) [DB31A11F]
Track 3 accurately ripped (confidence 4) [A688F215]
Track 4 accurately ripped (confidence 4) [BE8B065F]
Track 5 accurately ripped (confidence 4) [D8C7CC39]
Track 6 accurately ripped (confidence 4) [E635C40A]
Track 7 accurately ripped (confidence 4) [7334E274]
Track 8 accurately ripped (confidence 4) [75EE952D]
Track 9 accurately ripped (confidence 4) [947604FC]
Track 10 accurately ripped (confidence 4) [54D71F16]
Track 11 accurately ripped (confidence 4) [6279FE53]
Track 12 accurately ripped (confidence 4) [7ACEF3A6]
Track 13 accurately ripped (confidence 4) [7C9180E2]
Track 14 accurately ripped (confidence 4) [C17E7A34]
Track 15 accurately ripped (confidence 4) [DA2A3587]
Track 16 accurately ripped (confidence 3) [0E03258D]
Track 17 accurately ripped (confidence 4) [B17B08C7]
Track 18 accurately ripped (confidence 4) [B412D5B2]
Track 19 accurately ripped (confidence 4) [EDF232AD]
Track 20 accurately ripped (confidence 4) [1D0F0B51]
Track 21 accurately ripped (confidence 4) [17517A3C]
Track 22 accurately ripped (confidence 4) [6AE9AD3E]

All tracks accurately ripped

End of status report


Exact Audio Copy V0.99 prebeta 3 from 28. July 2007

EAC extraction logfile from 7. February 2010, 15:41

Carpenters / The Essential Collection 1965-1997 (Disc 2)

Used drive : Optiarc DVD RW AD-7173S Adapter: 3 ID: 0

Read mode : Secure
Utilize accurate stream : Yes
Defeat audio cache : Yes
Make use of C2 pointers : No

Read offset correction : 48
Overread into Lead-In and Lead-Out : No
Fill up missing offset samples with silence : Yes
Delete leading and trailing silent blocks : No
Null samples used in CRC calculations : Yes
Used interface : Native Win32 interface for Win NT & 2000

Used output format : Internal WAV Routines
Sample format : 44.100 Hz; 16 Bit; Stereo


TOC of the extracted CD

Track | Start | Length | Start sector | End sector
––––––––––––––––––––––––––––-
1 | 0:00.00 | 3:36.38 | 0 | 16237
2 | 3:36.38 | 3:50.32 | 16238 | 33519
3 | 7:26.70 | 2:25.60 | 33520 | 44454
4 | 9:52.55 | 3:14.03 | 44455 | 59007
5 | 13:06.58 | 2:48.55 | 59008 | 71662
6 | 15:55.38 | 2:56.25 | 71663 | 84887
7 | 18:51.63 | 3:54.44 | 84888 | 102481
8 | 22:46.32 | 4:37.53 | 102482 | 123309
9 | 27:24.10 | 2:59.65 | 123310 | 136799
10 | 30:24.00 | 3:56.55 | 136800 | 154554
11 | 34:20.55 | 4:53.25 | 154555 | 176554
12 | 39:14.05 | 3:18.38 | 176555 | 191442
13 | 42:32.43 | 3:39.02 | 191443 | 207869
14 | 46:11.45 | 3:49.10 | 207870 | 225054
15 | 50:00.55 | 14:54.63 | 225055 | 292167
16 | 64:55.43 | 1:02.17 | 292168 | 296834
17 | 65:57.60 | 1:53.60 | 296835 | 305369


Range status and errors

Selected range

Filename W:\CD\CD2\Carpenters - The Essential Collection 1965-1997 (Disc 2).wav

Peak level 99.8 %
Range quality 100.0 %
Test CRC 5055D3A9
Copy CRC 5055D3A9
Copy OK

No errors occurred


AccurateRip summary

Track 1 accurately ripped (confidence 8) [C9A5FCE7]
Track 2 accurately ripped (confidence 8) [E3AF6C2D]
Track 3 accurately ripped (confidence 8) [5C6D22F5]
Track 4 accurately ripped (confidence 8) [C03310BC]
Track 5 accurately ripped (confidence 8) [6A25D5CD]
Track 6 accurately ripped (confidence 8) [0D2E14C4]
Track 7 accurately ripped (confidence 8) [CE0D4BFB]
Track 8 accurately ripped (confidence 8) [597D09F0]
Track 9 accurately ripped (confidence 8) [735B2BC5]
Track 10 accurately ripped (confidence 8) [7AF9848E]
Track 11 accurately ripped (confidence 8) [E6F3C50E]
Track 12 accurately ripped (confidence 8) [C3F1A7B1]
Track 13 accurately ripped (confidence 8) [F24A1645]
Track 14 accurately ripped (confidence 7) [FFC39439]
Track 15 accurately ripped (confidence 7) [B5404216]
Track 16 accurately ripped (confidence 8) [1A5F82B3]
Track 17 accurately ripped (confidence 7) [31FB08D7]

All tracks accurately ripped

End of status report


Exact Audio Copy V0.99 prebeta 3 from 28. July 2007

EAC extraction logfile from 7. February 2010, 17:33

Carpenters / The Essential Collection 1965-1997 (Disc 3)

Used drive : Optiarc DVD RW AD-7173S Adapter: 3 ID: 0

Read mode : Secure
Utilize accurate stream : Yes
Defeat audio cache : Yes
Make use of C2 pointers : No

Read offset correction : 48
Overread into Lead-In and Lead-Out : No
Fill up missing offset samples with silence : Yes
Delete leading and trailing silent blocks : No
Null samples used in CRC calculations : Yes
Used interface : Native Win32 interface for Win NT & 2000

Used output format : Internal WAV Routines
Sample format : 44.100 Hz; 16 Bit; Stereo


TOC of the extracted CD

Track | Start | Length | Start sector | End sector
––––––––––––––––––––––––––––-
1 | 0:00.00 | 0:35.08 | 0 | 2632
2 | 0:35.08 | 2:49.25 | 2633 | 15332
3 | 3:24.33 | 4:09.20 | 15333 | 34027
4 | 7:33.53 | 3:46.72 | 34028 | 51049
5 | 11:20.50 | 4:41.60 | 51050 | 72184
6 | 16:02.35 | 4:21.25 | 72185 | 91784
7 | 20:23.60 | 1:08.47 | 91785 | 96931
8 | 21:32.32 | 3:42.46 | 96932 | 113627
9 | 25:15.03 | 3:41.64 | 113628 | 130266
10 | 28:56.67 | 2:57.70 | 130267 | 143611
11 | 31:54.62 | 3:48.18 | 143612 | 160729
12 | 35:43.05 | 2:13.73 | 160730 | 170777
13 | 37:57.03 | 0:32.50 | 170778 | 173227
14 | 38:29.53 | 0:33.70 | 173228 | 175772
15 | 39:03.48 | 3:46.62 | 175773 | 192784
16 | 42:50.35 | 7:09.15 | 192785 | 224974
17 | 49:59.50 | 3:02.18 | 224975 | 238642
18 | 53:01.68 | 3:12.37 | 238643 | 253079
19 | 56:14.30 | 2:29.63 | 253080 | 264317
20 | 58:44.18 | 3:44.50 | 264318 | 281167
21 | 62:28.68 | 2:36.04 | 281168 | 292871


Range status and errors

Selected range

Filename W:\CD\CD3\Carpenters - The Essential Collection 1965-1997 (Disc 3).wav

Peak level 99.8 %
Range quality 99.9 %
Test CRC FDEC6475
Copy CRC FDEC6475
Copy OK

No errors occurred


AccurateRip summary

Track 1 accurately ripped (confidence 2) [8AE39370]
Track 2 accurately ripped (confidence 2) [5EC9658F]
Track 3 accurately ripped (confidence 2) [54520990]
Track 4 accurately ripped (confidence 2) [8BA450C8]
Track 5 accurately ripped (confidence 2) [07958B90]
Track 6 accurately ripped (confidence 2) [2EDB8F38]
Track 7 accurately ripped (confidence 2) [57227D6B]
Track 8 accurately ripped (confidence 2) [D635CBFD]
Track 9 accurately ripped (confidence 2) [5A6B6F9B]
Track 10 accurately ripped (confidence 2) [953E80BE]
Track 11 accurately ripped (confidence 2) [025371BC]
Track 12 accurately ripped (confidence 2) [8947C66F]
Track 13 accurately ripped (confidence 2) [37935003]
Track 14 accurately ripped (confidence 2) [7381D187]
Track 15 accurately ripped (confidence 2) [B1F4B342]
Track 16 accurately ripped (confidence 2) [B3C52880]
Track 17 accurately ripped (confidence 2) [65E2AA54]
Track 18 accurately ripped (confidence 2) [8E296254]
Track 19 accurately ripped (confidence 2) [C7965C68]
Track 20 accurately ripped (confidence 2) [336A9150]
Track 21 accurately ripped (confidence 2) [B3D56386]

All tracks accurately ripped

End of status report


Exact Audio Copy V0.99 prebeta 3 from 28. July 2007

EAC extraction logfile from 7. February 2010, 19:24

Carpenters / The Essential Collection 1965-1997 (Disc 4)

Used drive : Optiarc DVD RW AD-7173S Adapter: 3 ID: 0

Read mode : Secure
Utilize accurate stream : Yes
Defeat audio cache : Yes
Make use of C2 pointers : No

Read offset correction : 48
Overread into Lead-In and Lead-Out : No
Fill up missing offset samples with silence : Yes
Delete leading and trailing silent blocks : No
Null samples used in CRC calculations : Yes
Used interface : Native Win32 interface for Win NT & 2000

Used output format : Internal WAV Routines
Sample format : 44.100 Hz; 16 Bit; Stereo


TOC of the extracted CD

Track | Start | Length | Start sector | End sector
––––––––––––––––––––––––––––-
1 | 0:00.00 | 4:24.48 | 0 | 19847
2 | 4:24.48 | 3:24.45 | 19848 | 35192
3 | 7:49.18 | 3:54.37 | 35193 | 52779
4 | 11:43.55 | 3:58.60 | 52780 | 70689
5 | 15:42.40 | 5:58.48 | 70690 | 97587
6 | 21:41.13 | 9:08.32 | 97588 | 138719
7 | 30:49.45 | 4:09.45 | 138720 | 157439
8 | 34:59.15 | 3:20.03 | 157440 | 172442
9 | 38:19.18 | 5:00.00 | 172443 | 194942
10 | 43:19.18 | 5:01.05 | 194943 | 217522
11 | 48:20.23 | 4:12.55 | 217523 | 236477
12 | 52:33.03 | 3:51.45 | 236478 | 253847
13 | 56:24.48 | 2:41.22 | 253848 | 265944


Range status and errors

Selected range

Filename W:\CD\CD4\Carpenters - The Essential Collection 1965-1997 (Disc 4).wav

Peak level 99.8 %
Range quality 100.0 %
Test CRC 4C45D696
Copy CRC 4C45D696
Copy OK

No errors occurred


AccurateRip summary

Track 1 accurately ripped (confidence 2) [D86872A4]
Track 2 cannot be verified as accurate (confidence 11) [E15EF95E], AccurateRip returned [B0E22BDA]
Track 3 accurately ripped (confidence 2) [CC9DF40C]
Track 4 accurately ripped (confidence 2) [8ACF571C]
Track 5 accurately ripped (confidence 2) [8DFCADEC]
Track 6 accurately ripped (confidence 2) [1C579772]
Track 7 accurately ripped (confidence 2) [FD10DE83]
Track 8 accurately ripped (confidence 2) [83701C78]
Track 9 accurately ripped (confidence 2) [519EE401]
Track 10 accurately ripped (confidence 2) [22598F59]
Track 11 cannot be verified as accurate (confidence 12) [3BF33A95], AccurateRip returned [D90674C5]
Track 12 accurately ripped (confidence 2) [92A6E88C]
Track 13 accurately ripped (confidence 2) [40AC3248]

11 track(s) accurately ripped
2 track(s) could not be verified as accurate

Some tracks could not be verified as accurate

End of status report


Tracklist:
CD 1
01. Caravan – 03:38
02. The Parting Of Our Ways – 02:20
03. Looking For Love – 01:52
04. I’ll Be Yours – 02:28
05. Iced Tea – 02:36
06. You’ll Love Me – 02:27
07. All I Can Do – 01:50
08. Don’t Be Afraid – 02:07
09. Invocation – 01:00
10. Your Wonderful Parade – 02:22
11. All Of My Life – 03:02
12. Eve – 02:53
13. Ticket To Ride – 04:09
14. Get Together – 02:40
15. Interview – 01:34
16. Love Is Surrender – 01:58
17. Maybe It’s You – 03:03
18. (They Long To Be) Close To You – 04:34
19. Mr. Guder – 03:21
20. We’ve Only Just Begun – 03:05
21. Merry Christmas Darling – 03:05
22. For All We Know – 02:37

CD 2
01. Rainy Days And Mondays – 03:36
02. Superstar – 03:50
03. Let Me Be The One – 02:25
04. Bless The Beasts And The Children – 03:14
05. Hurting Each Other – 02:48
06. It’s Going To Take Some Time – 02:56
07. I Won’t Last A Day Without You – 03:54
08. A Song For You – 04:37
09. Top Of The World – 02:59
10. Goodbye To Love – 03:56
11. This Masquerade – 04:53
12. Sing – 03:18
13. Jambalya (On The Bayou) – 03:39
14. Yesterday Once More – 03:49
15. Oldies Medley – 14:54
16. Yesterday Once More (Reprise) – 01:02
17. Radio Contest Outtakes – 01:54

CD 3
01. Morinaga Hi-Crown Chocolate Commercial – 00:35
02. Please Mr. Postman – 02:49
03. Santa Claus Is Coming To Town – 04:09
04. Only Yesterday – 03:46
05. Solitaire – 04:41
06. Tryin’ To Get The Feeling Again – 04:21
07. Good Friends Are For Keeps – 01:08
08. Ordinary Fool – 03:42
09. Sandy – 03:41
10. There’s A Kind Of Hush (All Over The World) – 02:57
11. I Need To Be In Love – 03:48
12. From This Moment On – 02:13
13. Suntory Pop Jingle 1 – 00:32
14. Suntory Pop Jingle 2 – 00:33
15. All You Get From Love Is A Love Song – 03:46
16. Calling Occupants Of Interplanetary Craft (The Recognized Anthem Of World Con… – 07:09
17. Sweet, Sweet Smile – 03:02
18. Christ Is Born – 03:12
19. White Christmas – 02:29
20. Little Altar Boy – 03:44
21. Ave Maria – 02:36

CD 4
01. Where Do I Go From Here – 04:24
02. Little Girl Blue – 03:24
03. I Believe You – 03:54
04. If I Had You – 03:58
05. Karen-Ella Medley – 05:58
06. 1980 Medley – 09:08
07. Make Believe It’s Your First Time – 04:09
08. Touch Me When We’re Dancing – 03:20
09. When It’s Gone – 05:00
10. Because We Are In Love(The Wedding Song) – 05:01
11. Those Good Old Dreams – 04:12
12. Now – 03:51
13. Karen’s Theme – 02:41