Subcategories

The Stone Roses - The Complete Stone Roses (1995) 2CD Edition

Posted By: Designol
The Stone Roses - The Complete Stone Roses (1995) 2CD Edition

The Stone Roses - The Complete Stone Roses (1995) 2CD Edition
EAC | FLAC | Image (Cue&Log) ~ 514 Mb | Mp3 (CBR320) ~ 189 Mb | Scans ~ 52 Mb | 01:18:06
Alternative Rock, Indie Rock, Madchester, BritPop | Label: Silvertone | # 74321 25504 2

The Complete Stone Roses is a 1995 compilation of singles and B-sides by British indie band The Stone Roses. It was released without the band's input by their record company Silvertone, with whom they were embroiled in a protracted legal battle to terminate their five year contract. The album features an almost complete collection of the band's Madchester heyday recordings for the label, as well as prior releases for other labels. However, many tracks are substantially different in quality from their original release, having been re-engineered by Silvertone, with the results garnering criticism from music journalists and fans alike.

The title's a bit of a misnomer. The Complete Stone Roses concentrates on the band's first album, compiling the A- and B-sides of the group's hits from "Elephant Stone" to "One Love." In addition to the familiar material, the disc includes rare, early singles like "So Young" and "Sally Cinnamon" for the first time on compact disc, giving their classic material some context. The loud guitars of "So Young" are clearly the work of a hesitant band, while "Sally Cinnamon" is the first indication of John Squire's gift for ringing, melodic guitar hooks. However, their inclusion – as well as the appearance of the B-sides, which lack the consistent brilliance of "I Wanna Be Adored," "She Bangs the Drums," "Elephant Stone," "Waterfall," etc. – make The Complete Stone Roses a flawed introduction to the band. Nevertheless, there's a fair amount of classic pop here, and the rarities are necessary for dedicated fans.

Review by Stephen Thomas Erlewine, Allmusic.com

The Stone Roses - The Complete Stone Roses (1995) 2CD Edition



Tracklist:

01. So Young (03:21)
02. Tell Me (03:49)
03. Sally Cinnamon (02:49)
04. Here It Comes (02:40)
05. All Across The Sands (02:42)
06. Elephant Stone (03:03)
07. Full Fathom Five (03:18)
08. The Hardest Thing In The World (02:41)
09. Made Of Stone (04:13)
10. Going Down (02:46)
11. She Bangs The Drums (03:41)
12. Mersey Paradise (02:44)
13. Standing Here (05:06)
14. I Wanna Be Adored (03:28)
15. Waterfall (03:36)
16. I Am The Resurrection (03:42)
17. Where Angels Play (04:12)
18. Fools Gold (04:16)
19. What The World Is Waiting For (03:49)
20. Something Burning (03:37)
21. One Love (03:35)

Bonus CD:
01. I'm Without Shoes (01:23)
02. Groove (Black Magic Devil Woman) (03:25)


Exact Audio Copy V0.99 prebeta 3 from 28. July 2007

EAC extraction logfile from 28. August 2010, 10:23

The Stone Roses / The Complete Stone Roses

Used drive : _NEC DVD_RW ND-2510A Adapter: 1 ID: 0

Read mode : Secure
Utilize accurate stream : Yes
Defeat audio cache : Yes
Make use of C2 pointers : No

Read offset correction : 48
Overread into Lead-In and Lead-Out : No
Fill up missing offset samples with silence : Yes
Delete leading and trailing silent blocks : No
Null samples used in CRC calculations : Yes
Used interface : Native Win32 interface for Win NT & 2000

Used output format : User Defined Encoder
Selected bitrate : 1024 kBit/s
Quality : High
Add ID3 tag : No
Command line compressor : C:\Program Files\Exact Audio Copy\Flac\flac.exe
Additional command line options : -8 -V %s


TOC of the extracted CD

Track | Start | Length | Start sector | End sector
––––––––––––––––––––––––––––-
1 | 0:00.00 | 3:21.22 | 0 | 15096
2 | 3:21.22 | 3:51.73 | 15097 | 32494
3 | 7:13.20 | 2:51.05 | 32495 | 45324
4 | 10:04.25 | 2:41.52 | 45325 | 57451
5 | 12:46.02 | 2:42.60 | 57452 | 69661
6 | 15:28.62 | 3:03.10 | 69662 | 83396
7 | 18:31.72 | 3:20.48 | 83397 | 98444
8 | 21:52.45 | 2:42.50 | 98445 | 110644
9 | 24:35.20 | 4:14.27 | 110645 | 129721
10 | 28:49.47 | 2:48.13 | 129722 | 142334
11 | 31:37.60 | 3:44.32 | 142335 | 159166
12 | 35:22.17 | 2:48.00 | 159167 | 171766
13 | 38:10.17 | 5:07.23 | 171767 | 194814
14 | 43:17.40 | 3:30.62 | 194815 | 210626
15 | 46:48.27 | 3:38.13 | 210627 | 226989
16 | 50:26.40 | 3:45.47 | 226990 | 243911
17 | 54:12.12 | 4:13.73 | 243912 | 262959
18 | 58:26.10 | 4:18.50 | 262960 | 282359
19 | 62:44.60 | 3:50.47 | 282360 | 299656
20 | 66:35.32 | 3:38.65 | 299657 | 316071
21 | 70:14.22 | 3:35.03 | 316072 | 332199


Range status and errors

Selected range

Filename I:\Раздача музыки Torrents\Stone Roses, The\The Complete Stone Roses (1995)\The Complete Stone Roses\The Stone Roses - The Complete Stone Roses.wav

Peak level 100.0 %
Range quality 100.0 %
Test CRC C74B978D
Copy CRC C74B978D
Copy OK

No errors occurred


AccurateRip summary

Track 1 accurately ripped (confidence 10) [10060197]
Track 2 accurately ripped (confidence 10) [A2290EA6]
Track 3 accurately ripped (confidence 10) [3A71A27D]
Track 4 accurately ripped (confidence 10) [BD196FA5]
Track 5 accurately ripped (confidence 10) [53482B3A]
Track 6 accurately ripped (confidence 9) [2F04099F]
Track 7 accurately ripped (confidence 9) [0477E142]
Track 8 accurately ripped (confidence 9) [DEA1303D]
Track 9 accurately ripped (confidence 9) [4D3D1069]
Track 10 accurately ripped (confidence 9) [03844EB5]
Track 11 accurately ripped (confidence 9) [B5C39D10]
Track 12 accurately ripped (confidence 9) [2242BD15]
Track 13 accurately ripped (confidence 8) [2CDDD821]
Track 14 accurately ripped (confidence 8) [B0FE691F]
Track 15 accurately ripped (confidence 9) [F4035D1D]
Track 16 accurately ripped (confidence 9) [38A86450]
Track 17 accurately ripped (confidence 9) [3A5F0CF4]
Track 18 accurately ripped (confidence 9) [DBACB366]
Track 19 accurately ripped (confidence 9) [D6F9059A]
Track 20 accurately ripped (confidence 9) [9B3E7369]
Track 21 accurately ripped (confidence 9) [883F1FD4]

All tracks accurately ripped

End of status report

[CUETools log; Date: 29.08.2017 0:56:06; Version: 2.1.4]
[CTDB TOCID: lxXctytccXaASG6bTjtvm9p77Fs-] found.
Track | CTDB Status
1 | (215/220) Accurately ripped
2 | (218/220) Accurately ripped
3 | (218/220) Accurately ripped
4 | (218/220) Accurately ripped
5 | (218/220) Accurately ripped
6 | (217/220) Accurately ripped
7 | (218/220) Accurately ripped
8 | (219/220) Accurately ripped
9 | (218/220) Accurately ripped
10 | (216/220) Accurately ripped
11 | (216/220) Accurately ripped
12 | (216/220) Accurately ripped
13 | (213/220) Accurately ripped
14 | (215/220) Accurately ripped
15 | (216/220) Accurately ripped
16 | (214/220) Accurately ripped
17 | (215/220) Accurately ripped
18 | (216/220) Accurately ripped
19 | (216/220) Accurately ripped
20 | (215/220) Accurately ripped
21 | (205/220) Accurately ripped
[AccurateRip ID: 00352dae-0339575f-30114d15] found.
Track [ CRC | V2 ] Status
01 [10060197|6f03b07d] (013+019/304) Accurately ripped
02 [a2290ea6|5e93e2f2] (013+019/307) Accurately ripped
03 [3a71a27d|55b06d17] (013+019/308) Accurately ripped
04 [bd196fa5|f4af7866] (013+019/307) Accurately ripped
05 [53482b3a|9ce94240] (013+019/307) Accurately ripped
06 [2f04099f|77fa9266] (012+019/304) Accurately ripped
07 [0477e142|122b6945] (012+019/304) Accurately ripped
08 [dea1303d|baed6a48] (012+019/305) Accurately ripped
09 [4d3d1069|5a8b58e7] (012+020/304) Accurately ripped
10 [03844eb5|a4a654ce] (012+018/304) Accurately ripped
11 [b5c39d10|336f305f] (012+017/301) Accurately ripped
12 [2242bd15|c2d331e6] (012+017/302) Accurately ripped
13 [2cddd821|4243e4d6] (011+018/301) Accurately ripped
14 [b0fe691f|4f3e1d2b] (011+018/300) Accurately ripped
15 [f4035d1d|e818db53] (012+017/301) Accurately ripped
16 [38a86450|78bc8238] (012+017/298) Accurately ripped
17 [3a5f0cf4|43f8f739] (012+017/299) Accurately ripped
18 [dbacb366|ecb7fe61] (012+019/301) Accurately ripped
19 [d6f9059a|3bf6777a] (012+018/298) Accurately ripped
20 [9b3e7369|788d4da9] (012+017/291) Accurately ripped
21 [883f1fd4|a3b2bec8] (012+017/282) Accurately ripped
Offsetted by 1227:
01 [705c4d58] (031/304) Accurately ripped
02 [0cf47d9b] (032/307) Accurately ripped
03 [18671a7b] (033/308) Accurately ripped
04 [1afa1828] (033/307) Accurately ripped
05 [a445ce79] (033/307) Accurately ripped
06 [365c87e0] (032/304) Accurately ripped
07 [94ae9758] (032/304) Accurately ripped
08 [941cac0f] (032/305) Accurately ripped
09 [7afdb68c] (032/304) Accurately ripped
10 [b4717d2a] (032/304) Accurately ripped
11 [3f6379e6] (032/301) Accurately ripped
12 [b5d20feb] (032/302) Accurately ripped
13 [3c233d6b] (032/301) Accurately ripped
14 [a9e6c488] (031/300) Accurately ripped
15 [7e62bb19] (031/301) Accurately ripped
16 [573284e6] (032/298) Accurately ripped
17 [96169670] (030/299) Accurately ripped
18 [75a0be90] (030/301) Accurately ripped
19 [b8803b6f] (031/298) Accurately ripped
20 [21fdd915] (027/291) Accurately ripped
21 [b49cba20] (024/282) Accurately ripped
Offsetted by 1279:
01 [8c8a4a00] (022/304) Accurately ripped
02 [5636e4b8] (022/307) Accurately ripped
03 [65deff84] (022/308) Accurately ripped
04 [5a4c5adf] (022/307) Accurately ripped
05 [f380189d] (022/307) Accurately ripped
06 [65a08848] (022/304) Accurately ripped
07 [a6b647bf] (022/304) Accurately ripped
08 [b03ff307] (022/305) Accurately ripped
09 [65252c60] (022/304) Accurately ripped
10 [6a1dc5b4] (022/304) Accurately ripped
11 [6c17cd4d] (019/301) Accurately ripped
12 [0c8693e2] (022/302) Accurately ripped
13 [1394af92] (022/301) Accurately ripped
14 [7ecfe2c9] (022/300) Accurately ripped
15 [cc54dc16] (022/301) Accurately ripped
16 [eb26b863] (022/298) Accurately ripped
17 [702b2001] (022/299) Accurately ripped
18 [155c307d] (022/301) Accurately ripped
19 [3f7364bb] (022/298) Accurately ripped
20 [263ddfe5] (022/291) Accurately ripped
21 [41e654d6] (021/282) Accurately ripped
Offsetted by 2080:
01 [271cc1c1] (005/304) Accurately ripped
02 [f5392ef6] (005/307) Accurately ripped
03 [b73f5ff2] (005/308) Accurately ripped
04 [bbd719b0] (005/307) Accurately ripped
05 [5c365d6d] (005/307) Accurately ripped
06 [ccc5a2ff] (005/304) Accurately ripped
07 [bf00e005] (005/304) Accurately ripped
08 [442446fd] (005/305) Accurately ripped
09 [e3677989] (005/304) Accurately ripped
10 [c54edd3c] (005/304) Accurately ripped
11 [7e7d7fe5] (005/301) Accurately ripped
12 [acb27d0f] (005/302) Accurately ripped
13 [255424cc] (005/301) Accurately ripped
14 [0e300cbe] (005/300) Accurately ripped
15 [ff65d5ac] (005/301) Accurately ripped
16 [59c90c71] (005/298) Accurately ripped
17 [adc44967] (005/299) Accurately ripped
18 [d679cf17] (005/301) Accurately ripped
19 [ecf7797a] (005/298) Accurately ripped
20 [453f83e9] (005/291) Accurately ripped
21 [9914d3a6] (005/282) Accurately ripped
Offsetted by 2114:
01 [336b46c5] (007/304) Accurately ripped
02 [f2529e58] (007/307) Accurately ripped
03 [dc56db01] (007/308) Accurately ripped
04 [6dec35db] (007/307) Accurately ripped
05 [80c957c3] (007/307) Accurately ripped
06 [c74ed599] (007/304) Accurately ripped
07 [d11a1a47] (007/304) Accurately ripped
08 [b9004429] (007/305) Accurately ripped
09 [23e3bcbb] (007/304) Accurately ripped
10 [5afb3a73] (007/304) Accurately ripped
11 [fb992c72] (007/301) Accurately ripped
12 [d56f040e] (007/302) Accurately ripped
13 [4d3b27e2] (007/301) Accurately ripped
14 [028e951a] (007/300) Accurately ripped
15 [a5738c64] (006/301) Accurately ripped
16 [1e61ae28] (007/298) Accurately ripped
17 [5fc2ea94] (007/299) Accurately ripped
18 [226a038e] (007/301) Accurately ripped
19 [13f8ed18] (008/298) Accurately ripped
20 [6590c371] (007/291) Accurately ripped
21 [150a7eb0] (008/282) Accurately ripped
Offsetted by 2673:
01 [7608e150] (017/304) Accurately ripped
02 [8ae7d1f7] (017/307) Accurately ripped
03 [25a212ef] (017/308) Accurately ripped
04 [4f4ccb2e] (017/307) Accurately ripped
05 [25259424] (017/307) Accurately ripped
06 [2270cbc1] (017/304) Accurately ripped
07 [a3844a74] (017/304) Accurately ripped
08 [677b7f13] (017/305) Accurately ripped
09 [b90bef62] (017/304) Accurately ripped
10 [c6a84d1b] (018/304) Accurately ripped
11 [016e97c0] (017/301) Accurately ripped
12 [25396a0b] (018/302) Accurately ripped
13 [e9af2e89] (018/301) Accurately ripped
14 [63e683f5] (017/300) Accurately ripped
15 [286921f8] (017/301) Accurately ripped
16 [ac23147d] (017/298) Accurately ripped
17 [8fff589c] (018/299) Accurately ripped
18 [784de914] (017/301) Accurately ripped
19 [7eaee909] (018/298) Accurately ripped
20 [53410cad] (017/291) Accurately ripped
21 [d4662ae3] (017/282) Accurately ripped
Offsetted by 2680:
01 [daeaa642] (020/304) Accurately ripped
02 [98d02d2d] (020/307) Accurately ripped
03 [e7e05416] (020/308) Accurately ripped
04 [970d3651] (020/307) Accurately ripped
05 [3fcee933] (020/307) Accurately ripped
06 [9c99c7ce] (020/304) Accurately ripped
07 [53d53a1f] (020/304) Accurately ripped
08 [616c8d8d] (020/305) Accurately ripped
09 [fb0766a1] (020/304) Accurately ripped
10 [08c5b814] (020/304) Accurately ripped
11 [039a8341] (020/301) Accurately ripped
12 [7e392963] (020/302) Accurately ripped
13 [37911d37] (020/301) Accurately ripped
14 [da85de43] (020/300) Accurately ripped
15 [68fe891e] (020/301) Accurately ripped
16 [e2bd3dbf] (020/298) Accurately ripped
17 [cc44dd7d] (020/299) Accurately ripped
18 [84ad86e1] (020/301) Accurately ripped
19 [15c5cc22] (020/298) Accurately ripped
20 [9dac2149] (020/291) Accurately ripped
21 [f8fefdf7] (020/282) Accurately ripped
Offsetted by 2687:
01 [56d6834d] (027/304) Accurately ripped
02 [0b21889f] (027/307) Accurately ripped
03 [71d308cd] (027/308) Accurately ripped
04 [b5213e02] (027/307) Accurately ripped
05 [e5ce97a5] (027/307) Accurately ripped
06 [da9e8816] (027/304) Accurately ripped
07 [044029cd] (027/304) Accurately ripped
08 [5b5d9c07] (027/305) Accurately ripped
09 [3d02dde0] (027/304) Accurately ripped
10 [7555230e] (026/304) Accurately ripped
11 [246a73ec] (026/301) Accurately ripped
12 [22bfe8a0] (026/302) Accurately ripped
13 [94406b0b] (026/301) Accurately ripped
14 [0c467c15] (026/300) Accurately ripped
15 [da5bc01e] (027/301) Accurately ripped
16 [1839bf79] (025/298) Accurately ripped
17 [d7a3301c] (025/299) Accurately ripped
18 [911724b8] (025/301) Accurately ripped
19 [acdcaf3b] (024/298) Accurately ripped
20 [e81735e5] (026/291) Accurately ripped
21 [7ddeb0f2] (025/282) Accurately ripped
Offsetted by 1359:
01 [8eee1e98] (000/304) No match (V2 was not tested)
02 [57f09f1b] (000/307) No match (V2 was not tested)
03 [6ae12395] (000/308) No match (V2 was not tested)
04 [88d7d31f] (000/307) No match (V2 was not tested)
05 [bd43f938] (000/307) No match (V2 was not tested)
06 [54b42028] (000/304) No match (V2 was not tested)
07 [4134a790] (000/304) No match (V2 was not tested)
08 [b42773e7] (000/305) No match (V2 was not tested)
09 [573a7f30] (000/304) No match (V2 was not tested)
10 [1eef0f74] (000/304) No match (V2 was not tested)
11 [a89747a0] (000/301) No match (V2 was not tested)
12 [fec55af9] (000/302) No match (V2 was not tested)
13 [6f87e3fc] (000/301) No match (V2 was not tested)
14 [fc21b8d3] (000/300) No match (V2 was not tested)
15 [26bc1f18] (000/301) No match (V2 was not tested)
16 [94c62cb7] (000/298) No match (V2 was not tested)
17 [c0df0bd3] (000/299) No match (V2 was not tested)
18 [c106f76b] (000/301) No match (V2 was not tested)
19 [22c21a6b] (000/298) No match (V2 was not tested)
20 [542a3925] (000/291) No match (V2 was not tested)
21 [022ee8f6] (000/282) No match (V2 was not tested)
Offsetted by 1955:
01 [60c92b8b] (000/304) No match (V2 was not tested)
02 [19b3790a] (000/307) No match (V2 was not tested)
03 [1c3fa6ed] (000/308) No match (V2 was not tested)
04 [adf90bce] (000/307) No match (V2 was not tested)
05 [7f4ba354] (000/307) No match (V2 was not tested)
06 [e2f32e27] (000/304) No match (V2 was not tested)
07 [22d4981c] (000/304) No match (V2 was not tested)
08 [1e0a8d9f] (000/305) No match (V2 was not tested)
09 [49262824] (000/304) No match (V2 was not tested)
10 [461ab7b1] (000/304) No match (V2 was not tested)
11 [373ded1e] (000/301) No match (V2 was not tested)
12 [a14439f2] (000/302) No match (V2 was not tested)
13 [eb4f68fa] (000/301) No match (V2 was not tested)
14 [322e76a8] (000/300) No match (V2 was not tested)
15 [e96524c2] (000/301) No match (V2 was not tested)
16 [b5da84a8] (000/298) No match (V2 was not tested)
17 [1771e77d] (000/299) No match (V2 was not tested)
18 [2c1ad4d3] (000/301) No match (V2 was not tested)
19 [19cc7d97] (000/298) No match (V2 was not tested)
20 [5d7e3875] (000/291) No match (V2 was not tested)
21 [f872ef54] (000/282) No match (V2 was not tested)
Offsetted by 2023:
01 [9a8797dd] (000/304) No match (V2 was not tested)
02 [fd9dd50a] (000/307) No match (V2 was not tested)
03 [99a3dabb] (000/308) No match (V2 was not tested)
04 [ae910edf] (000/307) No match (V2 was not tested)
05 [e8c58f58] (000/307) No match (V2 was not tested)
06 [647484fc] (000/304) No match (V2 was not tested)
07 [3b7f07e6] (000/304) No match (V2 was not tested)
08 [07c287f7] (000/305) No match (V2 was not tested)
09 [ca1eae88] (000/304) No match (V2 was not tested)
10 [cc6c74cf] (000/304) No match (V2 was not tested)
11 [fd25bd7d] (000/301) No match (V2 was not tested)
12 [408db55e] (000/302) No match (V2 was not tested)
13 [0aea5ad6] (000/301) No match (V2 was not tested)
14 [769a98c5] (000/300) No match (V2 was not tested)
15 [f1529886] (000/301) No match (V2 was not tested)
16 [117052fb] (000/298) No match (V2 was not tested)
17 [612828b1] (000/299) No match (V2 was not tested)
18 [bbdf360a] (000/301) No match (V2 was not tested)
19 [67cf64d3] (000/298) No match (V2 was not tested)
20 [9e20b785] (000/291) No match (V2 was not tested)
21 [4fe2a8a4] (000/282) No match (V2 was not tested)

Track Peak [ CRC32 ] [W/O NULL] [ LOG ]
– 100,0 [C74B978D] [AF8ADF61] CRC32
01 90,5 [97E3536B] [0A745D16]
02 98,7 [7C909B2A] [37B318CA]
03 97,6 [0919B184] [703A8B56]
04 98,6 [32FF52E2] [BA0045AE]
05 93,7 [89918B98] [A7391A70]
06 92,0 [133CF90D] [F1C7EFD6]
07 66,8 [241A0342] [0F8A9A16]
08 100,0 [270F34A6] [5199636C]
09 58,3 [50028396] [3E538DEB]
10 85,6 [24B5D86F] [9DAF97CA]
11 86,7 [BC310029] [597E8917]
12 71,1 [C549AB30] [C060E3FF]
13 81,8 [267CBC82] [6FE87E9A]
14 97,6 [303B5415] [CF134837]
15 82,4 [8831A114] [7BEBE4C9]
16 93,9 [C335D350] [B1096C2A]
17 94,0 [EBF5CA8E] [ACA1AA64]
18 87,3 [BA247CF5] [19DF395E]
19 78,8 [4CB6FF5B] [60F4F349]
20 83,3 [7B95394C] [4FAC5A93]
21 87,4 [3E368F7A] [2E0AB6F5]

foobar2000 1.2 / Dynamic Range Meter 1.1.1
log date: 2017-08-29 00:53:15

––––––––––––––––––––––––––––––––––––––––
Analyzed: The Stone Roses / The Complete Stone Roses
––––––––––––––––––––––––––––––––––––––––

DR Peak RMS Duration Track
––––––––––––––––––––––––––––––––––––––––
DR10 -0.86 dB -13.03 dB 3:21 01-So Young
DR10 -0.11 dB -12.83 dB 3:52 02-Tell Me
DR13 -0.21 dB -15.78 dB 2:51 03-Sally Cinnamon
DR15 -0.12 dB -18.24 dB 2:42 04-Here It Comes
DR12 -0.56 dB -15.37 dB 2:43 05-All Across The Sands
DR12 -0.72 dB -13.78 dB 3:03 06-Elephant Stone
DR11 -3.50 dB -16.03 dB 3:21 07-Full Fathom Five
DR11 0.00 dB -13.15 dB 2:43 08-The Hardest Thing In The World
DR12 -4.68 dB -18.90 dB 4:14 09-Made Of Stone
DR11 -1.35 dB -14.20 dB 2:48 10-Going Down
DR11 -1.24 dB -15.24 dB 3:44 11-She Bangs The Drums
DR11 -2.96 dB -15.76 dB 2:48 12-Mersey Paradise
DR11 -1.74 dB -16.16 dB 5:07 13-Standing Here
DR12 -0.21 dB -14.42 dB 3:31 14-I Wanna Be Adored
DR13 -1.67 dB -16.14 dB 3:38 15-Waterfall
DR9 -0.54 dB -14.89 dB 3:46 16-I Am The Resurrection
DR13 -0.53 dB -15.42 dB 4:14 17-Where Angels Play
DR13 -1.17 dB -17.03 dB 4:19 18-Fools Gold
DR12 -2.06 dB -16.25 dB 3:51 19-What The World Is Waiting For
DR11 -1.59 dB -15.53 dB 3:39 20-Something Burning
DR13 -1.17 dB -15.94 dB 3:35 21-One Love
––––––––––––––––––––––––––––––––––––––––

Number of tracks: 21
Official DR value: DR12

Samplerate: 44100 Hz
Channels: 2
Bits per sample: 16
Bitrate: 865 kbps
Codec: FLAC
================================================================================

Exact Audio Copy V0.99 prebeta 3 from 28. July 2007

EAC extraction logfile from 14. August 2010, 10:38

The Stone Roses / The Complete Stone Roses (Bonus Disc)

Used drive : _NEC DVD_RW ND-2510A Adapter: 1 ID: 0

Read mode : Secure
Utilize accurate stream : Yes
Defeat audio cache : Yes
Make use of C2 pointers : No

Read offset correction : 48
Overread into Lead-In and Lead-Out : No
Fill up missing offset samples with silence : Yes
Delete leading and trailing silent blocks : No
Null samples used in CRC calculations : Yes
Used interface : Native Win32 interface for Win NT & 2000

Used output format : User Defined Encoder
Selected bitrate : 1024 kBit/s
Quality : High
Add ID3 tag : No
Command line compressor : C:\Program Files\Exact Audio Copy\Flac\flac.exe
Additional command line options : -8 -V %s


TOC of the extracted CD

Track | Start | Length | Start sector | End sector
––––––––––––––––––––––––––––-
1 | 0:00.00 | 1:26.32 | 0 | 6481
2 | 1:26.32 | 3:26.00 | 6482 | 21931


Range status and errors

Selected range

Filename I:\Раздача музыки Torrents\Stone Roses, The\The Complete Stone Roses (1995)\Bonus Disc\The Stone Roses - The Complete Stone Roses (Bonus Disc).wav

Peak level 99.6 %
Range quality 100.0 %
Test CRC 243F4DBB
Copy CRC 243F4DBB
Copy OK

No errors occurred


AccurateRip summary

Track 1 accurately ripped (confidence 8) [810FA69C]
Track 2 accurately ripped (confidence 8) [881B9D02]

All tracks accurately ripped

End of status report

[CUETools log; Date: 29.08.2017 0:55:44; Version: 2.1.4]
[CTDB TOCID: cOiArCtaae5lqNi_ERLWJVSKie4-] found.
Track | CTDB Status
1 | (28/50) Accurately ripped
2 | (28/50) Accurately ripped
[AccurateRip ID: 00006efe-000133a9-12012402] found.
Track [ CRC | V2 ] Status
01 [810fa69c|101cc4aa] (11+14/48) Accurately ripped
02 [881b9d02|566e29cf] (11+15/49) Accurately ripped

Track Peak [ CRC32 ] [W/O NULL] [ LOG ]
– 99,6 [243F4DBB] [6412F2DD] CRC32
01 99,6 [2D39E8C1] [04B1D6F8]
02 96,1 [57486313] [F0395899]

foobar2000 1.2 / Dynamic Range Meter 1.1.1
log date: 2017-08-29 00:52:39

––––––––––––––––––––––––––––––––––––––––
Analyzed: The Stone Roses / The Complete Stone Roses (Bonus Disc)
––––––––––––––––––––––––––––––––––––––––

DR Peak RMS Duration Track
––––––––––––––––––––––––––––––––––––––––
DR11 -0.03 dB -13.99 dB 1:26 01-I'm Without Shoes
DR13 -0.34 dB -15.32 dB 3:26 02-Groove (Black Magic Devil Woman)
––––––––––––––––––––––––––––––––––––––––

Number of tracks: 2
Official DR value: DR12

Samplerate: 44100 Hz
Channels: 2
Bits per sample: 16
Bitrate: 923 kbps
Codec: FLAC
================================================================================

The Stone Roses - The Complete Stone Roses (1995) 2CD Edition

The Stone Roses - The Complete Stone Roses (1995) 2CD Edition

All thanks to original releaser - glebchic

More interesting music in My Blog