Subcategories

The Doors - Live On Air 1967-1972 (2016)

Posted By: Pisulik
The Doors - Live On Air 1967-1972 (2016)

The Doors - Live On Air 1967-1972 (2016)
EAC Rip | FLAC (Tracks) +cue, log, m3u, artworks - 1.3 GB | MP3 CBR 320 kbps - 653 MB | 04:46:10
Classic Rock, Psychedelic Rock | Label: Livewire

4-CD set presents radio recordings from various band phases from 1967 (Avalon Ballroom, San Francisco) to 1972 (Aragon Ballroom, Chicago / without Jim Morrison) and presented band classics such as »Light My Fire«, "The End," "People Are Strange," "Touch Me," "Moonlight Drive," "Wishful Sinful," "Roadhouse Blues," "When The Music's Over," "Five To One" and "Break On Through.

CD1: 1-2 Avalon Ballroom, San Francisco, 15th March 1967 3 CBC TV Studios, Toronto, Canada (Rock Scene : Like It Is) 14th September 1967 4-5 CBS TV Studios, LA (Ed Sullivan Show) 17th September 1967 6-7 CBS TV Studios (The Jonathan Winters Show) 27th December 1967 8-9 Smothers Brothers Comedy Hour, 4th December 1968 10-15 Critique TV Show (Recorded 28th April 1968, Broadcast 25th June 1968) CD2: Center Coliseum, Seattle, 5th June 1970 FM Radio Broadcast CD3: PNE Coliseum, Vancouver, Canada. Recorded 6th June 1970 (Broadcast 4th July 1992) FM Radio Broadcast. CD4 Aragon Ballroom, Chicago, 21st July 1972 WGLD - FM Radio Broadcast.

TRACKLIST

CD1

01. Moonlight Drive
02. Back Door Man
03. The End
04. People Are Strange
05. Light My Fire
06. Moonlight Drive
07. Light My Fire
08. Wild Child
09. Touch Me
10. Tell All the People
11. Alabama Song (Whiskey Bar)
12. Back Door Man
13. Wishful Sinful
14. Build Me a Woman
15. Petition the Lord With Prayer/The Soft Parade

Exact Audio Copy V1.2 from 12. August 2016

EAC extraction logfile from 11. October 2017, 12:36

The Doors / Live On Air 1967-72 CD1

Used drive : TSSTcorpCDDVDW SE-S084F Adapter: 1 ID: 1

Read mode : Secure
Utilize accurate stream : Yes
Defeat audio cache : Yes
Make use of C2 pointers : No

Read offset correction : 6
Overread into Lead-In and Lead-Out : No
Fill up missing offset samples with silence : Yes
Delete leading and trailing silent blocks : No
Null samples used in CRC calculations : Yes
Used interface : Native Win32 interface for Win NT & 2000
Gap handling : Appended to previous track

Used output format : User Defined Encoder
Selected bitrate : 1024 kBit/s
Quality : High
Add ID3 tag : No
Command line compressor : C:\Program Files (x86)\Exact Audio Copy\Flac\flac.exe
Additional command line options : -8 -V -T "ARTIST=%artist%" -T "TITLE=%title%" -T "ALBUM=%albumtitle%" -T "DATE=%year%" -T "TRACKNUMBER=%tracknr%" -T "GENRE=%genre%" -T "PERFORMER=%albuminterpret%" -T "COMPOSER=%composer%" %haslyrics%–tag-from-file=LYRICS="%lyricsfile%"%haslyrics% -T "ALBUMARTIST=%albumartist%" -T "DISCNUMBER=%cdnumber%" -T "TOTALDISCS=%totalcds%" -T "TOTALTRACKS=%numtracks%" -T "COMMENT=%comment%" %source% -o %dest%


TOC of the extracted CD

Track | Start | Length | Start sector | End sector
––––––––––––––––––––––––––––-
1 | 0:00.00 | 6:53.08 | 0 | 30982
2 | 6:53.08 | 5:28.56 | 30983 | 55638
3 | 12:21.64 | 12:25.42 | 55639 | 111555
4 | 24:47.31 | 2:38.12 | 111556 | 123417
5 | 27:25.43 | 3:01.46 | 123418 | 137038
6 | 30:27.14 | 3:13.53 | 137039 | 151566
7 | 33:40.67 | 2:59.16 | 151567 | 165007
8 | 36:40.08 | 2:39.53 | 165008 | 176985
9 | 39:19.61 | 3:19.73 | 176986 | 191983
10 | 42:39.59 | 3:37.35 | 191984 | 208293
11 | 46:17.19 | 1:40.27 | 208294 | 215820
12 | 47:57.46 | 4:23.05 | 215821 | 235550
13 | 52:20.51 | 2:59.14 | 235551 | 248989
14 | 55:19.65 | 4:17.60 | 248990 | 268324
15 | 59:37.50 | 9:56.48 | 268325 | 313072


Track 1

Filename C:\Users\ian\Desktop\The Doors - Live On Air 1967-72 (2016) [FLAC] {4CD BOOT}\Live On Air CD1\01 - Moonlight Drive.wav

Pre-gap length 0:00:02.00

Peak level 94.0 %
Extraction speed 2.9 X
Track quality 100.0 %
Test CRC 158F379F
Copy CRC 158F379F
Accurately ripped (confidence 1) [7703AB91] (AR v2)
Copy OK

Track 2

Filename C:\Users\ian\Desktop\The Doors - Live On Air 1967-72 (2016) [FLAC] {4CD BOOT}\Live On Air CD1\02 - Back Door Man.wav

Pre-gap length 0:00:02.00

Peak level 94.0 %
Extraction speed 3.3 X
Track quality 100.0 %
Test CRC 2D24BD0B
Copy CRC 2D24BD0B
Accurately ripped (confidence 1) [DA20DB88] (AR v2)
Copy OK

Track 3

Filename C:\Users\ian\Desktop\The Doors - Live On Air 1967-72 (2016) [FLAC] {4CD BOOT}\Live On Air CD1\03 - The End.wav

Pre-gap length 0:00:02.00

Peak level 94.0 %
Extraction speed 4.0 X
Track quality 100.0 %
Test CRC 572C458E
Copy CRC 572C458E
Accurately ripped (confidence 1) [3C39BF9A] (AR v2)
Copy OK

Track 4

Filename C:\Users\ian\Desktop\The Doors - Live On Air 1967-72 (2016) [FLAC] {4CD BOOT}\Live On Air CD1\04 - People Are Strange.wav

Pre-gap length 0:00:02.00

Peak level 94.0 %
Extraction speed 3.7 X
Track quality 100.0 %
Test CRC DC20DEB1
Copy CRC DC20DEB1
Accurately ripped (confidence 1) [87E1CD01] (AR v2)
Copy OK

Track 5

Filename C:\Users\ian\Desktop\The Doors - Live On Air 1967-72 (2016) [FLAC] {4CD BOOT}\Live On Air CD1\05 - Light My Fire.wav

Pre-gap length 0:00:02.00

Peak level 94.0 %
Extraction speed 3.0 X
Track quality 99.9 %
Test CRC 16B230CD
Copy CRC 16B230CD
Accurately ripped (confidence 1) [4057B6B1] (AR v2)
Copy OK

Track 6

Filename C:\Users\ian\Desktop\The Doors - Live On Air 1967-72 (2016) [FLAC] {4CD BOOT}\Live On Air CD1\06 - Moonlight Drive.wav

Pre-gap length 0:00:02.00

Peak level 94.0 %
Extraction speed 3.9 X
Track quality 100.0 %
Test CRC 4AE151FE
Copy CRC 4AE151FE
Accurately ripped (confidence 1) [9EC55659] (AR v2)
Copy OK

Track 7

Filename C:\Users\ian\Desktop\The Doors - Live On Air 1967-72 (2016) [FLAC] {4CD BOOT}\Live On Air CD1\07 - Light My Fire.wav

Pre-gap length 0:00:02.00

Peak level 94.0 %
Extraction speed 4.0 X
Track quality 100.0 %
Test CRC BDF8C2CE
Copy CRC BDF8C2CE
Accurately ripped (confidence 1) [D3AABB7E] (AR v2)
Copy OK

Track 8

Filename C:\Users\ian\Desktop\The Doors - Live On Air 1967-72 (2016) [FLAC] {4CD BOOT}\Live On Air CD1\08 - Wild Child.wav

Pre-gap length 0:00:02.00

Peak level 94.0 %
Extraction speed 3.1 X
Track quality 99.9 %
Test CRC 05749A29
Copy CRC 05749A29
Accurately ripped (confidence 1) [2C4A88F9] (AR v2)
Copy OK

Track 9

Filename C:\Users\ian\Desktop\The Doors - Live On Air 1967-72 (2016) [FLAC] {4CD BOOT}\Live On Air CD1\09 - Touch Me.wav

Pre-gap length 0:00:02.00

Peak level 94.0 %
Extraction speed 4.2 X
Track quality 100.0 %
Test CRC 0FA523BA
Copy CRC 0FA523BA
Accurately ripped (confidence 1) [C6FEC926] (AR v2)
Copy OK

Track 10

Filename C:\Users\ian\Desktop\The Doors - Live On Air 1967-72 (2016) [FLAC] {4CD BOOT}\Live On Air CD1\10 - Tell All the People.wav

Pre-gap length 0:00:02.00

Peak level 94.0 %
Extraction speed 3.6 X
Track quality 99.9 %
Test CRC 7EA9E096
Copy CRC 7EA9E096
Accurately ripped (confidence 1) [F73B6E1C] (AR v2)
Copy OK

Track 11

Filename C:\Users\ian\Desktop\The Doors - Live On Air 1967-72 (2016) [FLAC] {4CD BOOT}\Live On Air CD1\11 - Alabama Song (Whiskey Bar).wav

Pre-gap length 0:00:02.00

Peak level 94.0 %
Extraction speed 3.8 X
Track quality 100.0 %
Test CRC 39346881
Copy CRC 39346881
Accurately ripped (confidence 1) [61604F84] (AR v2)
Copy OK

Track 12

Filename C:\Users\ian\Desktop\The Doors - Live On Air 1967-72 (2016) [FLAC] {4CD BOOT}\Live On Air CD1\12 - Back Door Man.wav

Peak level 94.0 %
Extraction speed 4.8 X
Track quality 100.0 %
Test CRC 0959E303
Copy CRC 0959E303
Accurately ripped (confidence 1) [61391535] (AR v2)
Copy OK

Track 13

Filename C:\Users\ian\Desktop\The Doors - Live On Air 1967-72 (2016) [FLAC] {4CD BOOT}\Live On Air CD1\13 - Wishful Sinful.wav

Pre-gap length 0:00:02.00

Peak level 94.0 %
Extraction speed 4.6 X
Track quality 100.0 %
Test CRC 395B2138
Copy CRC 395B2138
Accurately ripped (confidence 1) [0056E79F] (AR v2)
Copy OK

Track 14

Filename C:\Users\ian\Desktop\The Doors - Live On Air 1967-72 (2016) [FLAC] {4CD BOOT}\Live On Air CD1\14 - Build Me a Woman.wav

Pre-gap length 0:00:01.98

Peak level 94.0 %
Extraction speed 5.0 X
Track quality 100.0 %
Test CRC 31B85B40
Copy CRC 31B85B40
Accurately ripped (confidence 1) [0368CA1B] (AR v2)
Copy OK

Track 15

Filename C:\Users\ian\Desktop\The Doors - Live On Air 1967-72 (2016) [FLAC] {4CD BOOT}\Live On Air CD1\15 - Petition the Lord With Prayer,The Soft Parade.wav

Pre-gap length 0:00:02.00

Peak level 94.0 %
Extraction speed 5.1 X
Track quality 99.9 %
Test CRC 2D462FA5
Copy CRC 2D462FA5
Accurately ripped (confidence 1) [B6790291] (AR v2)
Copy OK


All tracks accurately ripped

No errors occurred

End of status report

–– CUETools DB Plugin V2.1.6

[CTDB TOCID: dZttTRwpMbC5w2fBl6Kk89eTcWU-] found
Submit result: dZttTRwpMbC5w2fBl6Kk89eTcWU- has been confirmed
Track | CTDB Status
1 | (1/1) Accurately ripped
2 | (1/1) Accurately ripped
3 | (1/1) Accurately ripped
4 | (1/1) Accurately ripped
5 | (1/1) Accurately ripped
6 | (1/1) Accurately ripped
7 | (1/1) Accurately ripped
8 | (1/1) Accurately ripped
9 | (1/1) Accurately ripped
10 | (1/1) Accurately ripped
11 | (1/1) Accurately ripped
12 | (1/1) Accurately ripped
13 | (1/1) Accurately ripped
14 | (1/1) Accurately ripped
15 | (1/1) Accurately ripped


==== Log checksum 11A7B2AD2EF4FE90138B015DDA7DA018E898CFC44EEB5299635677624E9B1A7B ====


CD2

01. Hitler (Poem)
02. Roadhouse Blues
03. Back Door Man
04. When the Music's Over
05. Someday Soon
06. Train Jam 1 - People Get Ready/Baby Please Don't Go
07. Train Jam 2 - Mystery Train/Crossroads
08. Five to One
09. Break On Through

Exact Audio Copy V1.2 from 12. August 2016

EAC extraction logfile from 11. October 2017, 13:19

The Doors / The Ultimate Seattle Tapes CD2

Used drive : TSSTcorpCDDVDW SE-S084F Adapter: 1 ID: 1

Read mode : Secure
Utilize accurate stream : Yes
Defeat audio cache : Yes
Make use of C2 pointers : No

Read offset correction : 6
Overread into Lead-In and Lead-Out : No
Fill up missing offset samples with silence : Yes
Delete leading and trailing silent blocks : No
Null samples used in CRC calculations : Yes
Used interface : Native Win32 interface for Win NT & 2000
Gap handling : Appended to previous track

Used output format : User Defined Encoder
Selected bitrate : 1024 kBit/s
Quality : High
Add ID3 tag : No
Command line compressor : C:\Program Files (x86)\Exact Audio Copy\Flac\flac.exe
Additional command line options : -8 -V -T "ARTIST=%artist%" -T "TITLE=%title%" -T "ALBUM=%albumtitle%" -T "DATE=%year%" -T "TRACKNUMBER=%tracknr%" -T "GENRE=%genre%" -T "PERFORMER=%albuminterpret%" -T "COMPOSER=%composer%" %haslyrics%–tag-from-file=LYRICS="%lyricsfile%"%haslyrics% -T "ALBUMARTIST=%albumartist%" -T "DISCNUMBER=%cdnumber%" -T "TOTALDISCS=%totalcds%" -T "TOTALTRACKS=%numtracks%" -T "COMMENT=%comment%" %source% -o %dest%


TOC of the extracted CD

Track | Start | Length | Start sector | End sector
––––––––––––––––––––––––––––-
1 | 0:00.00 | 2:21.08 | 0 | 10582
2 | 2:21.08 | 4:52.01 | 10583 | 32483
3 | 7:13.09 | 7:27.60 | 32484 | 66068
4 | 14:40.69 | 20:05.31 | 66069 | 156474
5 | 34:46.25 | 4:17.46 | 156475 | 175795
6 | 39:03.71 | 7:14.11 | 175796 | 208356
7 | 46:18.07 | 20:17.60 | 208357 | 299691
8 | 66:35.67 | 6:02.65 | 299692 | 326906
9 | 72:38.57 | 5:15.09 | 326907 | 350540


Track 1

Filename C:\Users\ian\Desktop\The Doors - Live On Air 1967-72 (2016) [FLAC] {4CD BOOT}\Live On Air CD2\01 - Hitler(Poem).wav

Pre-gap length 0:00:02.00

Peak level 94.0 %
Extraction speed 1.9 X
Track quality 99.9 %
Test CRC C72A572E
Copy CRC C72A572E
Accurately ripped (confidence 1) [F3B09BF3] (AR v2)
Copy OK

Track 2

Filename C:\Users\ian\Desktop\The Doors - Live On Air 1967-72 (2016) [FLAC] {4CD BOOT}\Live On Air CD2\02 - Roadhouse Blues.wav

Peak level 94.0 %
Extraction speed 3.1 X
Track quality 100.0 %
Test CRC 87606C48
Copy CRC 87606C48
Accurately ripped (confidence 1) [F008EB5C] (AR v2)
Copy OK

Track 3

Filename C:\Users\ian\Desktop\The Doors - Live On Air 1967-72 (2016) [FLAC] {4CD BOOT}\Live On Air CD2\03 - Backdoor Man.wav

Peak level 94.0 %
Extraction speed 3.7 X
Track quality 100.0 %
Test CRC 551BC793
Copy CRC 551BC793
Accurately ripped (confidence 1) [D167A0DB] (AR v2)
Copy OK

Track 4

Filename C:\Users\ian\Desktop\The Doors - Live On Air 1967-72 (2016) [FLAC] {4CD BOOT}\Live On Air CD2\04 - When The Music Over.wav

Peak level 94.0 %
Extraction speed 4.6 X
Track quality 100.0 %
Test CRC 5A9ABE49
Copy CRC 5A9ABE49
Accurately ripped (confidence 1) [26F8C2FA] (AR v2)
Copy OK

Track 5

Filename C:\Users\ian\Desktop\The Doors - Live On Air 1967-72 (2016) [FLAC] {4CD BOOT}\Live On Air CD2\05 - Someday Soon.wav

Peak level 94.0 %
Extraction speed 3.8 X
Track quality 99.9 %
Test CRC F0C6FCB6
Copy CRC F0C6FCB6
Accurately ripped (confidence 1) [BFD8F101] (AR v2)
Copy OK

Track 6

Filename C:\Users\ian\Desktop\The Doors - Live On Air 1967-72 (2016) [FLAC] {4CD BOOT}\Live On Air CD2\06 - Train Jam I.wav

Peak level 94.0 %
Extraction speed 4.9 X
Track quality 100.0 %
Test CRC 5F698A8C
Copy CRC 5F698A8C
Accurately ripped (confidence 1) [4657EFE2] (AR v2)
Copy OK

Track 7

Filename C:\Users\ian\Desktop\The Doors - Live On Air 1967-72 (2016) [FLAC] {4CD BOOT}\Live On Air CD2\07 - Train Jam Ii.wav

Peak level 94.0 %
Extraction speed 5.9 X
Track quality 100.0 %
Test CRC 94CF6D10
Copy CRC 94CF6D10
Accurately ripped (confidence 1) [1A13AE2D] (AR v2)
Copy OK

Track 8

Filename C:\Users\ian\Desktop\The Doors - Live On Air 1967-72 (2016) [FLAC] {4CD BOOT}\Live On Air CD2\08 - Five To One.wav

Peak level 94.0 %
Extraction speed 5.1 X
Track quality 99.9 %
Test CRC D9D90955
Copy CRC D9D90955
Accurately ripped (confidence 1) [B04E8ACE] (AR v2)
Copy OK

Track 9

Filename C:\Users\ian\Desktop\The Doors - Live On Air 1967-72 (2016) [FLAC] {4CD BOOT}\Live On Air CD2\09 - Break On Through.wav

Peak level 94.0 %
Extraction speed 6.0 X
Track quality 100.0 %
Test CRC 72B26E1C
Copy CRC 72B26E1C
Accurately ripped (confidence 1) [65DC40F6] (AR v2)
Copy OK


All tracks accurately ripped

No errors occurred

End of status report

–– CUETools DB Plugin V2.1.6

[CTDB TOCID: LiMwGKCJqaUXSJW9S7tkcDgJBn4-] found
Submit result: LiMwGKCJqaUXSJW9S7tkcDgJBn4- has been confirmed
Track | CTDB Status
1 | (1/1) Accurately ripped
2 | (1/1) Accurately ripped
3 | (1/1) Accurately ripped
4 | (1/1) Accurately ripped
5 | (1/1) Accurately ripped
6 | (1/1) Accurately ripped
7 | (1/1) Accurately ripped
8 | (1/1) Accurately ripped
9 | (1/1) Accurately ripped


==== Log checksum F4C29C5929EC06F9B8EAD6C2806D74E2BC1B503A980D9F894D928EFAF468AB32 ====


CD3

01. Roadhouse Blues
02. Back Door Man/Five to One
03. When the Music's Over
04. Little Red Rooster/Who Do You Love
05. Petition the Lord With Prayer/Light My Fire
06. The End

Exact Audio Copy V1.2 from 12. August 2016

EAC extraction logfile from 11. October 2017, 15:15

The Doors / Live On Air 1967-72 CD3

Used drive : TSSTcorpCDDVDW SE-S084F Adapter: 1 ID: 1

Read mode : Secure
Utilize accurate stream : Yes
Defeat audio cache : Yes
Make use of C2 pointers : No

Read offset correction : 6
Overread into Lead-In and Lead-Out : No
Fill up missing offset samples with silence : Yes
Delete leading and trailing silent blocks : No
Null samples used in CRC calculations : Yes
Used interface : Native Win32 interface for Win NT & 2000
Gap handling : Appended to previous track

Used output format : User Defined Encoder
Selected bitrate : 1024 kBit/s
Quality : High
Add ID3 tag : No
Command line compressor : C:\Program Files (x86)\Exact Audio Copy\Flac\flac.exe
Additional command line options : -8 -V -T "ARTIST=%artist%" -T "TITLE=%title%" -T "ALBUM=%albumtitle%" -T "DATE=%year%" -T "TRACKNUMBER=%tracknr%" -T "GENRE=%genre%" -T "PERFORMER=%albuminterpret%" -T "COMPOSER=%composer%" %haslyrics%–tag-from-file=LYRICS="%lyricsfile%"%haslyrics% -T "ALBUMARTIST=%albumartist%" -T "DISCNUMBER=%cdnumber%" -T "TOTALDISCS=%totalcds%" -T "TOTALTRACKS=%numtracks%" -T "COMMENT=%comment%" %source% -o %dest%


TOC of the extracted CD

Track | Start | Length | Start sector | End sector
––––––––––––––––––––––––––––-
1 | 0:00.00 | 5:59.04 | 0 | 26928
2 | 5:59.04 | 8:40.54 | 26929 | 65982
3 | 14:39.58 | 12:26.60 | 65983 | 121992
4 | 27:06.43 | 14:04.24 | 121993 | 185316
5 | 41:10.67 | 18:26.74 | 185317 | 268340
6 | 59:37.66 | 16:26.42 | 268341 | 342332


Track 1

Filename C:\Users\ian\Desktop\The Doors - Live On Air 1967-72 (2016) [FLAC] {4CD BOOT}\Live On Air CD3\01 - Roadhouse Blues.wav

Pre-gap length 0:00:02.00

Peak level 94.0 %
Extraction speed 3.0 X
Track quality 100.0 %
Test CRC 5EEA3069
Copy CRC 5EEA3069
Accurately ripped (confidence 1) [DB72C967] (AR v2)
Copy OK

Track 2

Filename C:\Users\ian\Desktop\The Doors - Live On Air 1967-72 (2016) [FLAC] {4CD BOOT}\Live On Air CD3\02 - Back Door Man,Five to One.wav

Pre-gap length 0:00:01.00

Peak level 94.0 %
Extraction speed 3.5 X
Track quality 100.0 %
Test CRC E36292A3
Copy CRC E36292A3
Accurately ripped (confidence 1) [4CAB2888] (AR v2)
Copy OK

Track 3

Filename C:\Users\ian\Desktop\The Doors - Live On Air 1967-72 (2016) [FLAC] {4CD BOOT}\Live On Air CD3\03 - When the Musics Over.wav

Pre-gap length 0:00:01.00

Peak level 94.0 %
Extraction speed 4.2 X
Track quality 100.0 %
Test CRC 8DB1ECEB
Copy CRC 8DB1ECEB
Accurately ripped (confidence 1) [6D0B6AF0] (AR v2)
Copy OK

Track 4

Filename C:\Users\ian\Desktop\The Doors - Live On Air 1967-72 (2016) [FLAC] {4CD BOOT}\Live On Air CD3\04 - Little Red Rooster,Who Do You Love.wav

Pre-gap length 0:00:01.00

Peak level 94.0 %
Extraction speed 4.8 X
Track quality 100.0 %
Test CRC 7E73956B
Copy CRC 7E73956B
Accurately ripped (confidence 1) [E038A0CF] (AR v2)
Copy OK

Track 5

Filename C:\Users\ian\Desktop\The Doors - Live On Air 1967-72 (2016) [FLAC] {4CD BOOT}\Live On Air CD3\05 - Petition the Lord With Prayer,Light My Fire.wav

Pre-gap length 0:00:01.00

Peak level 94.0 %
Extraction speed 5.5 X
Track quality 100.0 %
Test CRC D17D8679
Copy CRC D17D8679
Accurately ripped (confidence 1) [ADD17848] (AR v2)
Copy OK

Track 6

Filename C:\Users\ian\Desktop\The Doors - Live On Air 1967-72 (2016) [FLAC] {4CD BOOT}\Live On Air CD3\06 - The End.wav

Pre-gap length 0:00:00.38

Peak level 94.0 %
Extraction speed 6.1 X
Track quality 100.0 %
Test CRC 86BC2960
Copy CRC 86BC2960
Accurately ripped (confidence 1) [936276FB] (AR v2)
Copy OK


All tracks accurately ripped

No errors occurred

End of status report

–– CUETools DB Plugin V2.1.6

[CTDB TOCID: iNEvHb9UzBMDbZEDRQGXJ0a62u0-] found
Submit result: iNEvHb9UzBMDbZEDRQGXJ0a62u0- has been confirmed
Track | CTDB Status
1 | (1/1) Accurately ripped
2 | (1/1) Accurately ripped
3 | (1/1) Accurately ripped
4 | (1/1) Accurately ripped
5 | (1/1) Accurately ripped
6 | (1/1) Accurately ripped


==== Log checksum A60DCAF203C85161E3F83116B80F6767D63FE0D6E08226ABA4DDD81CED569367 ====


CD4

01. In the Eye of the Sun
02. I'm Horny, I'm Stoned
03. Verdilac
04. Band Intros
05. Love Me Two Times
06. The Mosquito
07. Ships With Sails
08. Good Rockin' Tonight
09. Light My Fire

Exact Audio Copy V1.2 from 12. August 2016

EAC extraction logfile from 11. October 2017, 16:30

The Doors / Live On Air 1967-72 CD4

Used drive : TSSTcorpCDDVDW SE-S084F Adapter: 1 ID: 1

Read mode : Secure
Utilize accurate stream : Yes
Defeat audio cache : Yes
Make use of C2 pointers : No

Read offset correction : 6
Overread into Lead-In and Lead-Out : No
Fill up missing offset samples with silence : Yes
Delete leading and trailing silent blocks : No
Null samples used in CRC calculations : Yes
Used interface : Native Win32 interface for Win NT & 2000
Gap handling : Appended to previous track

Used output format : User Defined Encoder
Selected bitrate : 1024 kBit/s
Quality : High
Add ID3 tag : No
Command line compressor : C:\Program Files (x86)\Exact Audio Copy\Flac\flac.exe
Additional command line options : -8 -V -T "ARTIST=%artist%" -T "TITLE=%title%" -T "ALBUM=%albumtitle%" -T "DATE=%year%" -T "TRACKNUMBER=%tracknr%" -T "GENRE=%genre%" -T "PERFORMER=%albuminterpret%" -T "COMPOSER=%composer%" %haslyrics%–tag-from-file=LYRICS="%lyricsfile%"%haslyrics% -T "ALBUMARTIST=%albumartist%" -T "DISCNUMBER=%cdnumber%" -T "TOTALDISCS=%totalcds%" -T "TOTALTRACKS=%numtracks%" -T "COMMENT=%comment%" %source% -o %dest%


TOC of the extracted CD

Track | Start | Length | Start sector | End sector
––––––––––––––––––––––––––––-
1 | 0:00.00 | 6:31.51 | 0 | 29375
2 | 6:31.51 | 6:20.43 | 29376 | 57918
3 | 12:52.19 | 7:19.05 | 57919 | 90848
4 | 20:11.24 | 1:16.11 | 90849 | 96559
5 | 21:27.35 | 6:01.06 | 96560 | 123640
6 | 27:28.41 | 7:13.67 | 123641 | 156182
7 | 34:42.33 | 9:16.57 | 156183 | 197939
8 | 43:59.15 | 5:51.58 | 197940 | 224322
9 | 49:50.73 | 12:47.00 | 224323 | 281847


Track 1

Filename C:\Users\ian\Desktop\The Doors - Live On Air 1967-72 (2016) [FLAC] {4CD BOOT}\Live On Air CD4\01 - In the Eye of the Sun.wav

Pre-gap length 0:00:02.00

Peak level 94.0 %
Extraction speed 2.8 X
Track quality 100.0 %
Test CRC 679BD0DB
Copy CRC 679BD0DB
Accurately ripped (confidence 1) [F1621D21] (AR v2)
Copy OK

Track 2

Filename C:\Users\ian\Desktop\The Doors - Live On Air 1967-72 (2016) [FLAC] {4CD BOOT}\Live On Air CD4\02 - Im Horny Im Stoned.wav

Peak level 94.0 %
Extraction speed 3.2 X
Track quality 100.0 %
Test CRC 5D59B5F9
Copy CRC 5D59B5F9
Accurately ripped (confidence 1) [53B02373] (AR v2)
Copy OK

Track 3

Filename C:\Users\ian\Desktop\The Doors - Live On Air 1967-72 (2016) [FLAC] {4CD BOOT}\Live On Air CD4\03 - Verdilac.wav

Peak level 94.0 %
Extraction speed 3.6 X
Track quality 100.0 %
Test CRC DC3807BB
Copy CRC DC3807BB
Accurately ripped (confidence 1) [5FB1EB88] (AR v2)
Copy OK

Track 4

Filename C:\Users\ian\Desktop\The Doors - Live On Air 1967-72 (2016) [FLAC] {4CD BOOT}\Live On Air CD4\04 - Band Intros.wav

Peak level 94.0 %
Extraction speed 2.7 X
Track quality 100.0 %
Test CRC 4C673710
Copy CRC 4C673710
Accurately ripped (confidence 1) [DCB3F870] (AR v2)
Copy OK

Track 5

Filename C:\Users\ian\Desktop\The Doors - Live On Air 1967-72 (2016) [FLAC] {4CD BOOT}\Live On Air CD4\05 - Love Me Two Times.wav

Peak level 94.0 %
Extraction speed 3.9 X
Track quality 100.0 %
Test CRC 9F2F53D4
Copy CRC 9F2F53D4
Accurately ripped (confidence 1) [BBD957C6] (AR v2)
Copy OK

Track 6

Filename C:\Users\ian\Desktop\The Doors - Live On Air 1967-72 (2016) [FLAC] {4CD BOOT}\Live On Air CD4\06 - The Mosquito.wav

Peak level 94.0 %
Extraction speed 3.8 X
Track quality 99.9 %
Test CRC E9E37CD4
Copy CRC E9E37CD4
Accurately ripped (confidence 1) [8B44AB80] (AR v2)
Copy OK

Track 7

Filename C:\Users\ian\Desktop\The Doors - Live On Air 1967-72 (2016) [FLAC] {4CD BOOT}\Live On Air CD4\07 - Ships With Sails.wav

Peak level 94.0 %
Extraction speed 4.3 X
Track quality 99.9 %
Test CRC FFA534E4
Copy CRC FFA534E4
Accurately ripped (confidence 1) [B4B8D57B] (AR v2)
Copy OK

Track 8

Filename C:\Users\ian\Desktop\The Doors - Live On Air 1967-72 (2016) [FLAC] {4CD BOOT}\Live On Air CD4\08 - Good Rockin Tonight.wav

Peak level 94.0 %
Extraction speed 4.8 X
Track quality 100.0 %
Test CRC C1D0B6E0
Copy CRC C1D0B6E0
Accurately ripped (confidence 1) [89433101] (AR v2)
Copy OK

Track 9

Filename C:\Users\ian\Desktop\The Doors - Live On Air 1967-72 (2016) [FLAC] {4CD BOOT}\Live On Air CD4\09 - Light My Fire.wav

Peak level 94.0 %
Extraction speed 5.4 X
Track quality 100.0 %
Test CRC 22500581
Copy CRC 22500581
Cannot be verified as accurate (confidence 1) [F27EF9BB], AccurateRip returned [B591A049] (AR v2)
Copy OK


8 track(s) accurately ripped
1 track(s) could not be verified as accurate

Some tracks could not be verified as accurate

No errors occurred

End of status report

–– CUETools DB Plugin V2.1.6

[CTDB TOCID: c3.Phhp2EaCiKggAeGYiTjsAOVY-] found
Submit result: c3.Phhp2EaCiKggAeGYiTjsAOVY- has been uploaded
Track | CTDB Status
1 | (1/1) Accurately ripped
2 | (1/1) Accurately ripped
3 | (1/1) Accurately ripped
4 | (1/1) Accurately ripped
5 | (1/1) Accurately ripped
6 | (1/1) Accurately ripped
7 | (1/1) Accurately ripped
8 | (1/1) Accurately ripped
9 | (1/1) Differs in 8 samples @00:17:23,00:17:41,00:18:01
If you are sure that your rip contains errors, you can use CUETools to repair it.


==== Log checksum 0DBE1BFABA8193120AE5F6746804037BC5F042655326C592E0C62C1ABBF7149D ====


All thanks go to the original releaser