Subcategories
Please register here if you want to download anything!

If domain in your address bar is different from the list below
PLEASE LEAVE THAT SITE IMMEDIATELY
❗IT'S A DANGEROUS FAKE❗



Spicy Magazines for Men! ;-)

The Fugs - The Fugs First Album (The Village Fugs) (1965) [Japanese Edition 2011] (Repost)

Posted By: gribovar
The Fugs - The Fugs First Album (The Village Fugs) (1965) [Japanese Edition 2011] (Repost)

The Fugs - The Fugs First Album (The Village Fugs) (1965) [Japanese Edition 2011]
EAC Rip | FLAC (image+.cue+log) - 334 MB | MP3 CBR 320 kbps (LAME 3.93) - 165 MB | Covers - 80 MB
Genre: Psychedelic/Garage Rock | RAR 3% Rec. | Label: Hayabusa Landings (HYCA-2045)

A loping, ridiculous, and scabrous release, the Fugs' debut mashed everything from folk and beat poetry to rock and rhythm & blues - all with a casual disregard for sounding note perfect, though not without definite goals in mind. Actually compiled from two separate sessions originally done for Folkways Records, and with slightly different lineups as a result, it's a short but utterly worthy release that pushed any number of 1964-era buttons at once (and could still tick off plenty of people). Sanders produced the sessions in collaboration with the legendary Harry Smith, who was able to sneak the collective onto Folkways' accounts by describing them as a "jug band," and it's not a far-off description. A number of songs sound like calm-enough folk-boom fare, at least on casual listening, though often with odd extra touches like weirdly muffled drums or out of nowhere whistles and chimes. Others, meanwhile, are just out there - thus, the details of the perfect "Supergirl." Then there's "Boobs a Lot," the post-toke/acid lament "I Couldn't Get High," and the pie-in-the-face to acceptable standards of the time, "Slum Goddess." Throughout it all, the Fugs sound like they're having a perfectly fun time; the feeling is loose, ragged, but right, and while things may be sloppy around the edges, often that's totally intentional. Certainly little else could explain the random jamming and rhythmic chanting/shouting on "Swinburne Stomp." Good as the original album is, the CD version is what any serious fan needs to find, thanks to the inclusion of 11 bonus tracks. Some come from the original sessions, including the signature tune "We're the Fugs" and "The Ten Commandments," while others appear from various live jams. Then there's the self-explanatory "In the Middle of Their First Recording Session the Fugs Sign the Worst Contract Since Leadbelly's."
Tracklist:
01. Slum Goddess
02. Ah, Sunflower Weary Of Time
03. Supergirl
04. Swinburne Stomp
05. I Couldn't Get High
06. How Sweet I Roamed From Field To Field
07. Carpe Diem
08. My Baby Done Left Me
09. Boobs A Lot
10. Nothing

Bonus Tracks:
Additional Studio Material:
11. We're The Fugs
12. Defeated
13. The Ten Commandments
14. C.I.A. Man
15. In The Middle Of Their First Recording Session The Fugs Sign The Worst Contract Since Leadbelly's:
16. I Saw The Best Minds Of My Generation Rock
17. Spontaneous Salute To Andy Warhol

Songs From The 'Night Of Napalm' - Live At The Bridge Theater, St. Mark's Place (1965):
18. War Kills Babies
19. The Fugs National Anthem
20. The Fugs Spaghetti Death (No Redemption No Redemption) - A Glop Of Spaghetti For Andy Warhol

From The Tuli Tapes:
21. Rhapsody Of Tuli

From Alternate Takes from The Fugs First Folkways Sessions April 1965:
22. Supergirl (The Write Underwater Version)
23. Ah, Sunflower, Weary Of Time
24. I'm Going To Kill Myself Over

Total time: 01:09:58

Exact Audio Copy V1.0 beta 2 from 29. April 2011

EAC extraction logfile from 5. September 2011, 21:33

The Fugs / First Album

Used drive : HL-DT-STDVDRAM GSA-H60N Adapter: 2 ID: 0

Read mode : Secure
Utilize accurate stream : Yes
Defeat audio cache : Yes
Make use of C2 pointers : No

Read offset correction : 667
Overread into Lead-In and Lead-Out : No
Fill up missing offset samples with silence : Yes
Delete leading and trailing silent blocks : No
Null samples used in CRC calculations : Yes
Used interface : Native Win32 interface for Win NT & 2000

Used output format : Internal WAV Routines
Sample format : 44.100 Hz; 16 Bit; Stereo


TOC of the extracted CD

Track | Start | Length | Start sector | End sector
––––––––––––––––––––––––––––-
1 | 0:00.00 | 1:59.15 | 0 | 8939
2 | 1:59.15 | 2:15.25 | 8940 | 19089
3 | 4:14.40 | 2:18.60 | 19090 | 29499
4 | 6:33.25 | 2:50.30 | 29500 | 42279
5 | 9:23.55 | 2:07.42 | 42280 | 51846
6 | 11:31.22 | 2:11.15 | 51847 | 61686
7 | 13:42.37 | 5:08.44 | 61687 | 84830
8 | 18:51.06 | 2:17.53 | 84831 | 95158
9 | 21:08.59 | 2:12.71 | 95159 | 105129
10 | 23:21.55 | 4:15.68 | 105130 | 124322
11 | 27:37.48 | 1:27.08 | 124323 | 130855
12 | 29:04.56 | 3:24.40 | 130856 | 146195
13 | 32:29.21 | 3:01.57 | 146196 | 159827
14 | 35:31.03 | 2:54.01 | 159828 | 172878
15 | 38:25.04 | 2:51.28 | 172879 | 185731
16 | 41:16.32 | 4:51.48 | 185732 | 207604
17 | 46:08.05 | 1:24.06 | 207605 | 213910
18 | 47:32.11 | 1:41.17 | 213911 | 221502
19 | 49:13.28 | 1:15.72 | 221503 | 227199
20 | 50:29.25 | 3:56.62 | 227200 | 244961
21 | 54:26.12 | 8:35.19 | 244962 | 283605
22 | 63:01.31 | 2:08.54 | 283606 | 293259
23 | 65:10.10 | 2:11.45 | 293260 | 303129
24 | 67:21.55 | 2:36.25 | 303130 | 314854


Range status and errors

Selected range

Filename C:\Documents and Settings\Admin\Рабочий стол\Rip by ALLexxess\The Fugs\1965 First Album (Hayabusa Landings Japan 2011)\The Fugs - First Album.wav

Peak level 96.4 %
Extraction speed 6.3 X
Range quality 100.0 %
Test CRC 7588436E
Copy CRC 7588436E
Copy OK

No errors occurred


AccurateRip summary

Track 1 not present in database
Track 2 not present in database
Track 3 not present in database
Track 4 not present in database
Track 5 not present in database
Track 6 not present in database
Track 7 not present in database
Track 8 not present in database
Track 9 not present in database
Track 10 not present in database
Track 11 not present in database
Track 12 not present in database
Track 13 not present in database
Track 14 not present in database
Track 15 not present in database
Track 16 not present in database
Track 17 not present in database
Track 18 not present in database
Track 19 not present in database
Track 20 not present in database
Track 21 not present in database
Track 22 not present in database
Track 23 not present in database
Track 24 not present in database

None of the tracks are present in the AccurateRip database

End of status report

==== Log checksum 60EA0C754EF8F165D04773E81098494B6A3074C833A6477DA6DC6243F6292745 ====

[CUETools log; Date: 11.02.2019 10:20:56; Version: 2.1.4]
[CTDB TOCID: WV22EVP9dgu77gp8fQE5SQKWkao-] found.
Track | CTDB Status
1 | (1/1) Accurately ripped
2 | (1/1) Accurately ripped
3 | (1/1) Accurately ripped
4 | (1/1) Accurately ripped
5 | (1/1) Accurately ripped
6 | (1/1) Accurately ripped
7 | (1/1) Accurately ripped
8 | (1/1) Accurately ripped
9 | (1/1) Accurately ripped
10 | (1/1) Accurately ripped
11 | (1/1) Accurately ripped
12 | (1/1) Accurately ripped
13 | (1/1) Accurately ripped
14 | (1/1) Accurately ripped
15 | (1/1) Accurately ripped
16 | (1/1) Accurately ripped
17 | (1/1) Accurately ripped
18 | (1/1) Accurately ripped
19 | (1/1) Accurately ripped
20 | (1/1) Accurately ripped
21 | (1/1) Accurately ripped
22 | (1/1) Accurately ripped
23 | (1/1) Accurately ripped
24 | (1/1) Accurately ripped
[AccurateRip ID: 0038e3b6-03ebc0ac-51106618] found.
Track [ CRC | V2 ] Status
01 [1a0c609a|c7241561] (0+0/1) No match
02 [207e26ba|fa5ee99e] (0+0/1) No match
03 [e35e952b|d6c9a383] (0+0/1) No match
04 [3853ebea|581b08dd] (0+0/1) No match
05 [8c4bbaea|106c6346] (0+0/1) No match
06 [4bdfcd54|61db951b] (0+0/1) No match
07 [f851d020|36859d39] (0+0/1) No match
08 [c791ee28|14d0cbd9] (0+0/1) No match
09 [578590e5|ced403f5] (0+0/1) No match
10 [743e582a|0755e760] (0+0/1) No match
11 [bbd4cdd9|faccacc6] (0+0/1) No match
12 [300a308c|178a0769] (0+0/1) No match
13 [9df92c13|8dbef5ea] (0+0/1) No match
14 [25ad3830|a100199b] (0+0/1) No match
15 [2250e5c1|dab2c8f3] (0+0/1) No match
16 [f0c1031d|7804bc0c] (0+0/1) No match
17 [c7374257|7a9f12d9] (0+0/1) No match
18 [7540f4ba|7b51dbcc] (0+0/1) No match
19 [a136c15b|29dc9ce4] (0+0/1) No match
20 [7d8f1dd8|ed714de9] (0+0/1) No match
21 [40b385e6|e9d041ee] (0+0/1) No match
22 [17e55b77|efd9205d] (0+0/1) No match
23 [922afb6d|c3f122da] (0+0/1) No match
24 [93db0fe3|b572b584] (0+0/1) No match
Offsetted by 6:
01 [bc80156c] (0/1) No match (V2 was not tested)
02 [e37a1ca1] (0/1) No match (V2 was not tested)
03 [8533eca9] (0/1) No match (V2 was not tested)
04 [2dcc9af0] (0/1) No match (V2 was not tested)
05 [7cb6b6db] (0/1) No match (V2 was not tested)
06 [80772014] (0/1) No match (V2 was not tested)
07 [58c7f5c1] (0/1) No match (V2 was not tested)
08 [cc082095] (0/1) No match (V2 was not tested)
09 [bddd44df] (0/1) No match (V2 was not tested)
10 [5f7a9a8c] (0/1) No match (V2 was not tested)
11 [ea29a9d9] (0/1) No match (V2 was not tested)
12 [f9ea962e] (0/1) No match (V2 was not tested)
13 [e6acdc70] (0/1) No match (V2 was not tested)
14 [f261a3b3] (0/1) No match (V2 was not tested)
15 [7b1bf091] (0/1) No match (V2 was not tested)
16 [d1f915d7] (0/1) No match (V2 was not tested)
17 [57cfba05] (0/1) No match (V2 was not tested)
18 [9c19191c] (0/1) No match (V2 was not tested)
19 [f62a1128] (0/1) No match (V2 was not tested)
20 [6205b6e4] (0/1) No match (V2 was not tested)
21 [250f0599] (0/1) No match (V2 was not tested)
22 [38a25b61] (0/1) No match (V2 was not tested)
23 [47eb579b] (0/1) No match (V2 was not tested)
24 [99145903] (0/1) No match (V2 was not tested)

Track Peak [ CRC32 ] [W/O NULL] [ LOG ]
– 96,4 [7588436E] [152F97B3] CRC32
01 94,6 [9B8FDD33] [494C189F]
02 94,3 [9087A2C4] [E758856F]
03 93,0 [64902E1E] [0F31F872]
04 93,4 [7F607170] [59127823]
05 93,9 [1D0000AF] [7BB4633A]
06 93,9 [995E57F5] [06C0AFA8]
07 95,6 [98331EB3] [D865C9F2]
08 90,1 [3BDCA152] [A1D224C4]
09 95,6 [8369A145] [A3C83E42]
10 95,1 [7D65E11F] [4B6C593C]
11 94,7 [900071DC] [ED7805D6]
12 93,8 [1585E768] [73C5D1D8]
13 95,3 [F7B8C057] [A5934649]
14 95,6 [25F81875] [4B46F509]
15 95,2 [A0DDFF33] [68822F97]
16 95,6 [1BC973A2] [663BF219]
17 91,8 [F45AF9F4] [A584AB3B]
18 93,6 [A9696647] [572364DA]
19 95,1 [67F2CEA8] [029F264A]
20 95,6 [A56B48EE] [23C47199]
21 94,5 [5A6C9FE9] [3B95676A]
22 93,2 [CE128DAA] [828D967C]
23 96,4 [2ECAF4C2] [E784A1DA]
24 91,7 [C57AFF6A] [D1C53E85]

Thanks to ALLexxess