Subcategories

The Gil Evans Orchestra - Out of the Cool (1961) [Reissue 2010] (Repost)

Posted By: gribovar
The Gil Evans Orchestra - Out of the Cool (1961) [Reissue 2010] (Repost)

The Gil Evans Orchestra - Out of the Cool (1961) [Reissue 2010]
EAC Rip | FLAC (tracks+.cue+log) - 208 MB | MP3 CBR 320 kbps (LAME 3.93) - 88 MB | Covers - 29 MB
Genre: Jazz, Big Band | RAR 3% Rec. | Label: Analogue Productions (CIPJ 4 SA)

Out of the Cool, released in 1961, was the first recording Gil Evans issued after three straight albums with Miles Davis - Sketches of Spain being the final one before this. Evans had learned much from Davis about improvisation, instinct, and space (the trumpeter learned plenty, too, especially about color, texture, and dynamic tension). Evans orchestrates less here, instead concentrating on the rhythm section built around Elvin Jones, Charlie Persip, bassist Ron Carter, and guitarist Ray Crawford. The maestro in the piano chair also assembled a crack horn section for this date, with Ray Beckinstein, Budd Johnson, and Eddie Caine on saxophones, trombonists Jimmy Knepper, Keg Johnson, and bass trombonist Tony Studd, with Johnny Coles and Phil Sunkel on trumpet, Bill Barber on tuba, and Bob Tricarico on flute, bassoon, and piccolo. The music here is of a wondrous variety, bookended by two stellar Evans compositions in "La Nevada," and "Sunken Treasure." The middle of the record is filled out by the lovely standard "Where Flamingos Fly," Kurt Weill-Bertolt Brecht's "Bilbao Song," and George Russell's classic "Stratusphunk." The sonics are alternately warm, breezy, and nocturnal, especially on the 15-plus-minute opener which captures the laid-back West Coast cool jazz feel juxtaposed by the percolating, even bubbling hot rhythmic pulse of the tough streets of Las Vegas. The horns are held back for long periods in the mix and the drums pop right up front, Crawford's solo - drenched in funky blues - is smoking. When the trombones re-enter, they are slow and moaning, and the piccolo digs in for an in the pocket, pulsing break.
Things are brought back to the lyrical impressionism Evans is most well known for at the beginning of "Where Flamingos Fly." Following a four-note theme on guitar, flute, tuba, and trombone, it comes out dramatic and blue, but utterly spacious and warm. The melancholy feels like the tune "Summertime" in the trombone melody, but shifts toward something less impressionistic and more expressionist entirely by the use of gentle dissonance by the second verse as the horns begin to ratchet things up just a bit, allowing Persip and Jones to play in the middle on a variety of percussion instruments before the tune takes on a New Orleans feel, and indeed traces much of orchestral jazz history over the course of its five minutes without breaking a sweat. "Stratusphunk" is the most angular tune here, but Evans and company lend such an element of swing to the tune that its edges are barely experienced by the listener. For all his seriousness, there was a great deal of warmth and humor in Evans' approach to arranging. His use of the bassoon as a sound effects instrument at the beginning is one such moment emerging right out of the bass trombone. At first, the walking bassline played by Carter feels at odds with the lithe and limber horn lines which begin to assert themselves in full finger popping swing etiquette, but Carter seamlessly blends in. Again, Crawford's guitar solo in the midst of all that brass is the voice of song itself, but it's funky before Johnny Coles' fine trumpet solo ushers in an entirely new chart for the brass. The final cut, "Sunken Treasure," is a moody piece of noir that keeps its pulse inside the role of bass trombone and tuba. Percussion here, with maracas, is more of a coloration device, and the blues emerge from the trumpets and from Carter. It's an odd way to close a record, but its deep-night feel is something that may echo the "cool" yet looks toward something deeper and hotter - which is exactly what followed later with Into the Hot. This set is not only brilliant, it's fun.
Tracklist:
01. La Nevada
02. Where Flamingos Fly
03. Bilbao Song
04. Stratusphunk
05. Sunken Treasure

Total time: 37:41

Exact Audio Copy V1.0 beta 1 from 15. November 2010

EAC extraction logfile from 14. March 2011, 16:12

The Gil Evans Orchestra / Out of the Cool

Used drive : HL-DT-STDVDRAM GP08NU6B Adapter: 1 ID: 0

Read mode : Secure
Utilize accurate stream : Yes
Defeat audio cache : Yes
Make use of C2 pointers : No

Read offset correction : 103
Overread into Lead-In and Lead-Out : No
Fill up missing offset samples with silence : Yes
Delete leading and trailing silent blocks : No
Null samples used in CRC calculations : Yes
Used interface : Native Win32 interface for Win NT & 2000
Gap handling : Appended to previous track

Used output format : User Defined Encoder
Selected bitrate : 128 kBit/s
Quality : High
Add ID3 tag : No
Command line compressor : C:\Program Files\FLAC\flac.exe
Additional command line options : -8 -V -T "ARTIST=%a" -T "TITLE=%t" -T "ALBUM=%g" -T "DATE=%y" -T "TRACKNUMBER=%n" -T "TOTALTRACKS=%x" -T "GENRE=%m" -T "ALBUM ARTIST=%v" -T "ALBUMARTIST=%v" -T "COMMENT=L2Bits, EAC V1.0 beta 1, Secure Mode, Test & Copy, Acc


TOC of the extracted CD

Track | Start | Length | Start sector | End sector
––––––––––––––––––––––––––––-
1 | 0:00.00 | 15:39.42 | 0 | 70466
2 | 15:39.42 | 5:15.54 | 70467 | 94145
3 | 20:55.21 | 4:13.39 | 94146 | 113159
4 | 25:08.60 | 8:07.22 | 113160 | 149706
5 | 33:16.07 | 4:25.15 | 149707 | 169596


Track 1

Filename D:\Bezz Rip\01 - Out of the Cool - La Nevada.wav

Pre-gap length 0:00:02.00

Peak level 84.9 %
Extraction speed 1.6 X
Track quality 100.0 %
Test CRC 30B0173E
Copy CRC 30B0173E
Track not present in AccurateRip database
Copy OK

Track 2

Filename D:\Bezz Rip\02 - Out of the Cool - Where Flamingos Fly.wav

Pre-gap length 0:00:00.33

Peak level 58.2 %
Extraction speed 1.8 X
Track quality 100.0 %
Test CRC D3D6A6CE
Copy CRC D3D6A6CE
Track not present in AccurateRip database
Copy OK

Track 3

Filename D:\Bezz Rip\03 - Out of the Cool - Bilbao Song.wav

Pre-gap length 0:00:00.33

Peak level 67.6 %
Extraction speed 1.8 X
Track quality 100.0 %
Test CRC AC5E5C01
Copy CRC AC5E5C01
Track not present in AccurateRip database
Copy OK

Track 4

Filename D:\Bezz Rip\04 - Out of the Cool - Stratusphunk.wav

Pre-gap length 0:00:00.15

Peak level 76.4 %
Extraction speed 2.1 X
Track quality 100.0 %
Test CRC 0462E96B
Copy CRC 0462E96B
Track not present in AccurateRip database
Copy OK

Track 5

Filename D:\Bezz Rip\05 - Out of the Cool - Sunken Treasure.wav

Pre-gap length 0:00:00.33

Peak level 63.8 %
Extraction speed 2.1 X
Track quality 100.0 %
Test CRC E2A3FA20
Copy CRC E2A3FA20
Track not present in AccurateRip database
Copy OK


None of the tracks are present in the AccurateRip database

No errors occurred

End of status report

==== Log checksum 2216079DEDB970ED07D1630092B4AE9C13B77CA7A2F39EEE55C65434C34BE639 ====

[CUETools log; Date: 13.06.2019 0:38:01; Version: 2.1.4]
[CTDB TOCID: ttlDAWJIdQCMd6pmE1bmBtfXffE-] found.
Track | CTDB Status
1 | (8/8) Accurately ripped
2 | (8/8) Accurately ripped
3 | (8/8) Accurately ripped
4 | (8/8) Accurately ripped
5 | (8/8) Accurately ripped
[AccurateRip ID: 00091c55-002850d2-4108d505] found.
Track [ CRC | V2 ] Status
01 [211c3a0a|9df77cb2] (08+12/20) Accurately ripped
02 [cd01760e|1c2591d4] (08+12/20) Accurately ripped
03 [e0a7224e|6d06731b] (08+13/21) Accurately ripped
04 [2a4363e3|b6055fd0] (08+12/20) Accurately ripped
05 [2b278799|1b1b2596] (08+12/20) Accurately ripped

Track Peak [ CRC32 ] [W/O NULL] [ LOG ]
– 84,9 [E89F62F6] [3EED7E44]
01 84,9 [30B0173E] [2156E263] CRC32
02 58,2 [D3D6A6CE] [C1792D3C] CRC32
03 67,6 [AC5E5C01] [4A7FCBC6] CRC32
04 76,4 [0462E96B] [7BD4249A] CRC32
05 63,8 [E2A3FA20] [6C6275AF] CRC32

Thanks to Bezz

See also:
Gil Evans & Steve Lacy - Paris Blues (1988) [Reissue 1993]
Helen Merrill & Gil Evans - Collaboration (1988)