Subcategories

The Horace Silver Quintet - Finger Poppin' (1959) [Reissue 2003] (Repost)

Posted By: gribovar
The Horace Silver Quintet - Finger Poppin' (1959) [Reissue 2003] (Repost)

The Horace Silver Quintet - Finger Poppin' (1959) [Reissue 2003]
EAC Rip | FLAC (tracks+.cue+log) - 291 MB | MP3 CBR 320 kbps (LAME 3.93) - 109 MB | Covers (8 MB) included
Genre: Jazz | RAR 3% Rec. | Label: Blue Note Records (7243 5 42304 2 4)

Finger Poppin' was the first album Horace Silver recorded with the most celebrated version of his quintet, which featured trumpeter Blue Mitchell, tenor saxophonist Junior Cook, bassist Gene Taylor, and (this time around) drummer Louis Hayes. It's also one of Silver's all-time classics, perfectly blending the pianist's advanced, groundbreaking hard bop style with the winning, gregarious personality conveyed in his eight original tunes. Silver always kept his harmonically sophisticated music firmly grounded in the emotional directness and effortless swing of the blues, and Finger Poppin' is one of the greatest peaks of that approach. A big part of the reason is the chemistry between the group - it's electrifying and tightly knit, with a palpable sense of discovery and excitement at how well the music is turning out. As a bandleader, Silver helps keep the ensemble's solo statements as concise and rhythmic as his own, concentrating the impact of the performances and keeping the pieces moving along without ever letting the listener's attention span wane. There's a nice variety of tempos and moods over the well-paced program; particularly memorable are the hard-swinging, bluesy "Juicy Lucy"; the bopping, up-tempo "Cookin' at the Continental"; and the gritty groove of "Come on Home." Also breaking things up are a couple of spare, reflective ballads and a frenetic exploration of Brazilian rhythms, "Swingin' the Samba." Finger Poppin' is everything small-group hard bop should be, and it's a terrific example of what made the Blue Note label's mainstream sound so infectious.
Tracklist:
01. Finger Poppin'
02. Juicy Lucy
03. Swingin' the Samba
04. Sweet Stuff
05. Cookin' at the Continental
06. Come on Home
07. You Happened My Way
08. Mellow D

Total time: 42:52

Exact Audio Copy V0.99 prebeta 4 from 23. January 2008

EAC extraction logfile from 5. March 2009, 20:08

Horace Silver Quintet, The / Finger Poppin'

Used drive : TSSTcorpCDDVDW SH-S223Q Adapter: 2 ID: 1

Read mode : Secure
Utilize accurate stream : Yes
Defeat audio cache : Yes
Make use of C2 pointers : No

Read offset correction : 6
Overread into Lead-In and Lead-Out : No
Fill up missing offset samples with silence : Yes
Delete leading and trailing silent blocks : No
Null samples used in CRC calculations : Yes
Used interface : Installed external ASPI interface
Gap handling : Appended to previous track

Used output format : User Defined Encoder
Selected bitrate : 320 kBit/s
Quality : High
Add ID3 tag : No
Command line compressor : C:\Program Files (x86)\Exact Audio Copy\flac.exe
Additional command line options : -8 -V -T "ARTIST=%a" -T "TITLE=%t" -T "ALBUM=%g" -T "DATE=%y" -T "TRACKNUMBER=%n" -T "GENRE=%m" -T "COMMENT=EAC FLAC -8" %s


TOC of the extracted CD

Track | Start | Length | Start sector | End sector
––––––––––––––––––––––––––––-
1 | 0:00.00 | 4:47.54 | 0 | 21578
2 | 4:47.54 | 5:46.09 | 21579 | 47537
3 | 10:33.63 | 5:17.55 | 47538 | 71367
4 | 15:51.43 | 5:32.38 | 71368 | 96305
5 | 21:24.06 | 4:54.13 | 96306 | 118368
6 | 26:18.19 | 5:30.55 | 118369 | 143173
7 | 31:48.74 | 5:29.16 | 143174 | 167864
8 | 37:18.15 | 5:37.26 | 167865 | 193165


Track 1

Filename C:\Audio\Horace Silver - Finger Poppin' (1959) [FLAC] {2003 RVG Edition}\01 - Finger Poppin'.wav

Pre-gap length 0:00:02.00

Peak level 97.9 %
Track quality 100.0 %
Test CRC 46688461
Copy CRC 46688461
Accurately ripped (confidence 8) [1802BFD1]
Copy OK

Track 2

Filename C:\Audio\Horace Silver - Finger Poppin' (1959) [FLAC] {2003 RVG Edition}\02 - Juicy Lucy.wav

Pre-gap length 0:00:02.13

Peak level 97.9 %
Track quality 100.0 %
Test CRC B4D20914
Copy CRC B4D20914
Accurately ripped (confidence 8) [124C464B]
Copy OK

Track 3

Filename C:\Audio\Horace Silver - Finger Poppin' (1959) [FLAC] {2003 RVG Edition}\03 - Swingin' The Samba.wav

Pre-gap length 0:00:01.38

Peak level 97.9 %
Track quality 100.0 %
Test CRC 69D7A129
Copy CRC 69D7A129
Accurately ripped (confidence 8) [8DB19CA2]
Copy OK

Track 4

Filename C:\Audio\Horace Silver - Finger Poppin' (1959) [FLAC] {2003 RVG Edition}\04 - Sweet Stuff.wav

Pre-gap length 0:00:02.26

Peak level 97.9 %
Track quality 100.0 %
Test CRC 13A88B2F
Copy CRC 13A88B2F
Accurately ripped (confidence 8) [F140838B]
Copy OK

Track 5

Filename C:\Audio\Horace Silver - Finger Poppin' (1959) [FLAC] {2003 RVG Edition}\05 - Cookin' At The Continental.wav

Pre-gap length 0:00:03.18

Peak level 97.9 %
Track quality 99.9 %
Test CRC 0E8482C5
Copy CRC 0E8482C5
Accurately ripped (confidence 8) [D23612FB]
Copy OK

Track 6

Filename C:\Audio\Horace Silver - Finger Poppin' (1959) [FLAC] {2003 RVG Edition}\06 - Come On Home.wav

Pre-gap length 0:00:03.17

Peak level 97.9 %
Track quality 99.9 %
Test CRC D7400CE7
Copy CRC D7400CE7
Accurately ripped (confidence 8) [B2F30C76]
Copy OK

Track 7

Filename C:\Audio\Horace Silver - Finger Poppin' (1959) [FLAC] {2003 RVG Edition}\07 - You Happened My Way.wav

Pre-gap length 0:00:02.09

Peak level 97.9 %
Track quality 100.0 %
Test CRC DBD8243A
Copy CRC DBD8243A
Accurately ripped (confidence 8) [AC663271]
Copy OK

Track 8

Filename C:\Audio\Horace Silver - Finger Poppin' (1959) [FLAC] {2003 RVG Edition}\08 - Mellow D.wav

Pre-gap length 0:00:02.78

Peak level 97.9 %
Track quality 100.0 %
Test CRC B56293D2
Copy CRC B56293D2
Accurately ripped (confidence 8) [909BDE62]
Copy OK


All tracks accurately ripped

No errors occurred

End of status report

[CUETools log; Date: 17.02.2018 14:13:17; Version: 2.1.4]
[CTDB TOCID: nPXGUCB7t_3cRIZPJq8Zrsfp9es-] found.
Track | CTDB Status
1 | (17/17) Accurately ripped
2 | (17/17) Accurately ripped
3 | (17/17) Accurately ripped
4 | (17/17) Accurately ripped
5 | (17/17) Accurately ripped
6 | (17/17) Accurately ripped
7 | (17/17) Accurately ripped
8 | (17/17) Accurately ripped
[AccurateRip ID: 000d1ce5-0057afbd-660a0f08] found.
Track [ CRC | V2 ] Status
01 [1802bfd1|1a4e0c12] (16+08/24) Accurately ripped
02 [124c464b|2614366f] (16+08/24) Accurately ripped
03 [8db19ca2|daaa11d6] (16+08/24) Accurately ripped
04 [f140838b|5ebb917c] (16+08/24) Accurately ripped
05 [d23612fb|94d25a70] (16+08/24) Accurately ripped
06 [b2f30c76|9beff46f] (16+08/24) Accurately ripped
07 [ac663271|c28814fa] (16+08/24) Accurately ripped
08 [909bde62|a0957256] (16+08/24) Accurately ripped

Track Peak [ CRC32 ] [W/O NULL] [ LOG ]
– 97,9 [95626499] [E9416500]
01 97,9 [46688461] [35B33C6F] CRC32
02 97,9 [B4D20914] [F2A83857] CRC32
03 97,9 [69D7A129] [F51182A4] CRC32
04 97,9 [13A88B2F] [0A81D168] CRC32
05 97,9 [0E8482C5] [2BFF287F] CRC32
06 97,9 [D7400CE7] [BD22D729] CRC32
07 97,9 [DBD8243A] [110CD7FC] CRC32
08 97,9 [B56293D2] [70B99188] CRC32

Thanks to Mazeppa