Subcategories

The Kinks - The Best And Kollektable Kinks [Recorded 1964-1970] (1993)

Posted By: gribovar
The Kinks - The Best And Kollektable Kinks [Recorded 1964-1970] (1993)

The Kinks - The Best And Kollektable Kinks [Recorded 1964-1970] (1993)
EAC Rip | FLAC (image+.cue+log) - 393 MB | MP3 CBR 320 kbps (LAME 3.93) - 181 MB | Covers (17 MB) included
Genre: Garage Rock, Pop Rock | RAR 3% Rec. | Label: Victor (VICP-5332)

An early highlight of the British Invasion that artfully chronicled British life past and present, fueled by the songwriting genius of Ray Davies. Although they weren't as boldly innovative as the Beatles or as popular as the Rolling Stones or the Who, the Kinks were one of the most influential bands of the British Invasion. Like most bands of their era, the Kinks began as an R&B/blues outfit. Within four years, the band had become the most staunchly English of all their contemporaries, drawing heavily from British music hall and traditional pop, as well as incorporating elements of country, folk, and blues.
Tracklist:
01. You Really Got Me [Stereo]
02. All Day And All Of The Night [Mono]
03. I've Got That Feeling [Mono]
04. I've Gotta Go Now [Mono]
05. Things Are Getting Better [Mono]
06. Louie Louie [Mono]
07. Tired Of Waiting For You [Mono]
09. Something Better Beginning [Mono]
09. Set Me Free [Mono]
10. Wait Till The Summer Comes Along [Mono]
11. Such A Shame [Mono]
12. A Well Respected Man [Mono]
13. Don't You Fret [Mono]
14. Till The End Of The Day [Mono]
15. Dedicated Follower Of Fashion [Mono]
16. Sunny Afternoon [Stereo]
17. Waterloo Sunset [Stereo]
18. David Watts [Stereo]
19. Autumn Almanac [Mono]
20. Mr. Pleasant [Mono]
21. This Is Where I Belong [Stereo]
22. Days [Mono]
23. Village Green [Stereo]
24. Victoria [Stereo]
25. Lola [Stereo]

Total time: 01:09:34

Exact Audio Copy V1.0 beta 3 from 29. August 2011

EAC extraction logfile from 17. September 2019, 12:29

The Kinks / The Best And Kollektable Kinks

Used drive : ASUS DRW-24B5ST Adapter: 0 ID: 0

Read mode : Secure
Utilize accurate stream : Yes
Defeat audio cache : Yes
Make use of C2 pointers : No

Read offset correction : 6
Overread into Lead-In and Lead-Out : No
Fill up missing offset samples with silence : Yes
Delete leading and trailing silent blocks : No
Null samples used in CRC calculations : Yes
Used interface : Native Win32 interface for Win NT & 2000

Used output format : Internal WAV Routines
Sample format : 44.100 Hz; 16 Bit; Stereo


TOC of the extracted CD

Track | Start | Length | Start sector | End sector
––––––––––––––––––––––––––––-
1 | 0:00.37 | 2:17.58 | 37 | 10369
2 | 2:18.20 | 2:26.35 | 10370 | 21354
3 | 4:44.55 | 2:46.07 | 21355 | 33811
4 | 7:30.62 | 2:57.23 | 33812 | 47109
5 | 10:28.10 | 1:57.65 | 47110 | 55949
6 | 12:26.00 | 3:00.12 | 55950 | 69461
7 | 15:26.12 | 2:34.58 | 69462 | 81069
8 | 18:00.70 | 2:28.12 | 81070 | 92181
9 | 20:29.07 | 2:15.03 | 92182 | 102309
10 | 22:44.10 | 2:10.40 | 102310 | 112099
11 | 24:54.50 | 2:21.30 | 112100 | 122704
12 | 27:16.05 | 2:44.42 | 122705 | 135046
13 | 30:00.47 | 2:46.43 | 135047 | 147539
14 | 32:47.15 | 2:23.45 | 147540 | 158309
15 | 35:10.60 | 3:04.35 | 158310 | 172144
16 | 38:15.20 | 3:38.45 | 172145 | 188539
17 | 41:53.65 | 3:21.25 | 188540 | 203639
18 | 45:15.15 | 2:41.52 | 203640 | 215766
19 | 47:56.67 | 3:13.63 | 215767 | 230304
20 | 51:10.55 | 3:01.02 | 230305 | 243881
21 | 54:11.57 | 2:27.53 | 243882 | 254959
22 | 56:39.35 | 2:56.35 | 254960 | 268194
23 | 59:35.70 | 2:12.00 | 268195 | 278094
24 | 61:47.70 | 3:42.52 | 278095 | 294796
25 | 65:30.47 | 4:03.55 | 294797 | 313076


Range status and errors

Selected range

Filename D:\The Kinks - The Best And Kollektable Kinks.wav

Peak level 100.0 %
Extraction speed 9.5 X
Range quality 100.0 %
Test CRC 0011FA16
Copy CRC 0011FA16
Copy OK

No errors occurred


AccurateRip summary

Track 1 accurately ripped (confidence 8) [D5B43021] (AR v2)
Track 2 accurately ripped (confidence 8) [BB83E2BE] (AR v2)
Track 3 accurately ripped (confidence 8) [8538D753] (AR v2)
Track 4 accurately ripped (confidence 8) [3BCFAC8F] (AR v2)
Track 5 accurately ripped (confidence 8) [4DA3B28F] (AR v2)
Track 6 accurately ripped (confidence 8) [74A59C8E] (AR v2)
Track 7 accurately ripped (confidence 8) [7D383D7C] (AR v2)
Track 8 accurately ripped (confidence 8) [1D4677FC] (AR v2)
Track 9 accurately ripped (confidence 8) [D5AB5961] (AR v2)
Track 10 accurately ripped (confidence 8) [AA17140F] (AR v2)
Track 11 accurately ripped (confidence 8) [2D5F755A] (AR v2)
Track 12 accurately ripped (confidence 8) [E60D65CC] (AR v2)
Track 13 accurately ripped (confidence 8) [D0CECD80] (AR v2)
Track 14 accurately ripped (confidence 8) [73F23B91] (AR v2)
Track 15 accurately ripped (confidence 8) [318AE274] (AR v2)
Track 16 accurately ripped (confidence 8) [5765FAEF] (AR v2)
Track 17 accurately ripped (confidence 8) [CDDEE3E3] (AR v2)
Track 18 accurately ripped (confidence 8) [CF023FDE] (AR v2)
Track 19 accurately ripped (confidence 8) [4AA813EC] (AR v2)
Track 20 accurately ripped (confidence 8) [F09C7C55] (AR v2)
Track 21 accurately ripped (confidence 8) [AE412878] (AR v2)
Track 22 accurately ripped (confidence 8) [B4D392EC] (AR v2)
Track 23 accurately ripped (confidence 8) [579929E3] (AR v2)
Track 24 accurately ripped (confidence 7) [374C72E6] (AR v2)
Track 25 accurately ripped (confidence 8) [DD189747] (AR v2)

All tracks accurately ripped

End of status report

==== Log checksum 25F204716DF6DA73FF0E71A09301EE0159EB1B6A5E27BF91CCB39421E3B0AD99 ====

[CUETools log; Date: 18.09.2019 0:55:49; Version: 2.1.4]
Pregap length 00:00:37.
[CTDB TOCID: HihfWioUuc4Yxe6AN7LTcUKx2QQ-] found.
Track | CTDB Status
1 | (10/11) Accurately ripped
2 | (10/11) Accurately ripped
3 | (10/11) Accurately ripped
4 | (10/11) Accurately ripped
5 | (10/11) Accurately ripped
6 | (10/11) Accurately ripped
7 | (10/11) Accurately ripped
8 | (10/11) Accurately ripped
9 | (10/11) Accurately ripped
10 | (10/11) Accurately ripped
11 | (10/11) Accurately ripped
12 | (10/11) Accurately ripped
13 | (10/11) Accurately ripped
14 | (10/11) Accurately ripped
15 | (10/11) Accurately ripped
16 | (10/11) Accurately ripped
17 | (10/11) Accurately ripped
18 | (10/11) Accurately ripped
19 | (10/11) Accurately ripped
20 | (10/11) Accurately ripped
21 | (10/11) Accurately ripped
22 | (10/11) Accurately ripped
23 | (10/11) Accurately ripped
24 | (10/11) Accurately ripped
25 | ( 9/11) Accurately ripped
[AccurateRip ID: 003ac9db-042d8dc8-6a104e19] found.
Track [ CRC | V2 ] Status
01 [397e71ae|d5b43021] (00+08/08) Accurately ripped
02 [51635b96|bb83e2be] (02+08/10) Accurately ripped
03 [f5e26c52|8538d753] (02+08/10) Accurately ripped
04 [146c3bf8|3bcfac8f] (02+08/10) Accurately ripped
05 [2bd67ed5|4da3b28f] (02+08/10) Accurately ripped
06 [0541cc86|74a59c8e] (02+08/10) Accurately ripped
07 [27f6c38b|7d383d7c] (02+08/10) Accurately ripped
08 [a4bd6c28|1d4677fc] (02+08/10) Accurately ripped
09 [181bd8a8|d5ab5961] (02+08/10) Accurately ripped
10 [e79a1a82|aa17140f] (02+08/10) Accurately ripped
11 [18b24f5e|2d5f755a] (02+08/10) Accurately ripped
12 [f11db299|e60d65cc] (02+08/10) Accurately ripped
13 [f2fa5430|d0cecd80] (02+08/10) Accurately ripped
14 [595f5df1|73f23b91] (02+08/10) Accurately ripped
15 [0edea1c8|318ae274] (02+08/10) Accurately ripped
16 [c6f3b15b|5765faef] (02+08/10) Accurately ripped
17 [3ef3bcfd|cddee3e3] (02+08/10) Accurately ripped
18 [7bdc59c6|cf023fde] (02+08/10) Accurately ripped
19 [7ba76edb|4aa813ec] (02+08/10) Accurately ripped
20 [bda05dfd|f09c7c55] (02+08/10) Accurately ripped
21 [fad75f5f|ae412878] (02+08/10) Accurately ripped
22 [d25da9c3|b4d392ec] (02+08/10) Accurately ripped
23 [bf242b08|579929e3] (02+08/10) Accurately ripped
24 [6c96d9a7|374c72e6] (02+07/09) Accurately ripped
25 [d1806f94|dd189747] (02+08/10) Accurately ripped

Track Peak [ CRC32 ] [W/O NULL] [ LOG ]
– 100,0 [0011FA16] [6031EE2E] CRC32
01 79,7 [31C40E53] [17567D25]
02 93,4 [FFD92498] [E9D59294]
03 65,1 [2108B6F4] [C90C2C2A]
04 80,1 [F8434162] [7FD80925]
05 79,7 [44CD8589] [CA296348]
06 100,0 [7B758026] [2C8CF2D0]
07 73,6 [B69832F3] [03003743]
08 96,6 [BC29C742] [BC29C742]
09 65,3 [89992854] [3CADE835]
10 80,1 [D66171CF] [70B6F69B]
11 82,5 [F5078ED6] [9098EC69]
12 100,0 [F3F3B8CB] [CEAFFA39]
13 81,4 [044A898B] [06C4B660]
14 77,0 [440E1C33] [1D5E3F21]
15 67,3 [8AA985C0] [68D24DE4]
16 76,4 [7470CCC6] [1ABAA69D]
17 68,2 [9010F84B] [258AA8F4]
18 71,6 [C4EC7764] [9CE3BE4C]
19 84,1 [EBA17ED2] [5701A095]
20 69,9 [A3F1F4F1] [BF1CE48F]
21 81,2 [2121110B] [62B27365]
22 92,0 [06C20C95] [AB50E1DA]
23 70,2 [E1C1A8CF] [0AA802C8]
24 82,6 [F9459BD4] [74D7D1CD]
25 68,8 [3F69ED56] [B094047E]

Thanks to lastofudege

See also:
The Kinks - Kinks (1964) [2CD Deluxe Edition 2011]
The Kinks - Kinda Kinks (1965) [2CD Deluxe Edition 2011]
The Kinks - The Ultimate Collection [Recorded 1964-1984] (2002)