Subcategories

The Lindsays - Haydn: String Quartets Op. 33 Nos. 3, 5 & 6 (1996)

Posted By: ArlegZ
The Lindsays - Haydn: String Quartets Op. 33 Nos. 3, 5 & 6 (1996)

The Lindsays - Haydn: String Quartets Op. 33 Nos. 3, 5 & 6 (1996)
EAC | FLAC | Image (Cue & Log) ~ 239 Mb | Total time: 60:40 | Scans included
Classical | Label: ASV Digital | # CDDCA938 | Recorded: 1995

In their survey of Haydn's string quartets for ASV, the Lindsays have set about the business of restoring these Classical masterpieces to their proper place in the repertoire, with all their brilliant wit and brusqueness intact, and without undue sweetening or romanticizing. The point, it seems clear, is to bring Haydn out from under the familiar shadows of Mozart and Beethoven, and to render his quartets as the true models of quartet writing, not as light Rococo divertissements or tamer antecedents of greater works. The Lindsays are sharp in their characterizations of Op. 33, Nos. 3, 5, and 6, and their lean textures, crisp articulation, transparent repartee, and pungent attacks distinguish these performances from more commercially pretty or polished versions. This Haydn may be too dry for some tastes, and the experience of hearing the Lindsays is certainly invigorating, not relaxing. Yet with some preparation for occasional intonation problems and occasionally gritty playing, the listener may find these performances quite enjoyable, even revelatory, and choose the Lindsays first when starting a collection. ASV offers fine sound quality, though the volume needs to be raised slightly to hear every detail.
–Blair Sanderson

Performer:
The Lindsays:
Peter Cropper & Ronald Birks, violin
Robin Ireland, viola
Bernard Gregor-Smith, cello

Track List:
String Quartet No. 32 in C major ("Bird"), Op. 33/3, H. 3/39
01. I. Allegro Moderato
02. II. Scherzo-allegretto
03. III. Adagio ma non troppo
04. IV. Presto
String Quartet No. 29 in G major, Op. 33/5, H. 3/41
05. I. Vivace assai
06. II. Largo e cantabile
07. III. Scherzo-allegro
08. IV. Allegretto
String Quartet No. 33 in D major, Op. 33/6, H. 3/42
09. I. Vivace assai
10. II. Andante
11. III. Scherzo-allegretto
12. IV. Allegretto


Exact Audio Copy V1.3 from 2. September 2016

EAC extraction logfile from 16. September 2019, 3:53

Lindsay String Quartet / Haydn String Quartets Op.33 Nos.3,5 & 6

Used drive : ASUS BW-16D1X-U Adapter: 1 ID: 1

Read mode : Secure
Utilize accurate stream : Yes
Defeat audio cache : Yes
Make use of C2 pointers : No

Read offset correction : 667
Overread into Lead-In and Lead-Out : No
Fill up missing offset samples with silence : Yes
Delete leading and trailing silent blocks : No
Null samples used in CRC calculations : Yes
Used interface : Native Win32 interface for Win NT & 2000

Used output format : User Defined Encoder
Selected bitrate : 1024 kBit/s
Quality : High
Add ID3 tag : No
Command line compressor : C:\Program Files (x86)\Exact Audio Copy\FLAC\FLAC.EXE
Additional command line options : -6 -V -T "ARTIST=%artist%" -T "TITLE=%title%" -T "ALBUM=%albumtitle%" -T "DATE=%year%" -T "TRACKNUMBER=%tracknr%" -T "GENRE=%genre%" -T "COMMENT=%comment%" -T "BAND=%albuminterpret%" -T "ALBUMARTIST=%albuminterpret%" -T "COMPOSER=%composer%" %haslyrics%–tag-from-file=LYRICS="%lyricsfile%"%haslyrics% -T "DISCNUMBER=%cdnumber%" -T "TOTALDISCS=%totalcds%" -T "TOTALTRACKS=%numtracks%" %hascover%–picture="%coverfile%"%hascover% %source% -o %dest%


TOC of the extracted CD

Track | Start | Length | Start sector | End sector
––––––––––––––––––––––––––––-
1 | 0:00.00 | 9:39.25 | 0 | 43449
2 | 9:39.25 | 3:35.65 | 43450 | 59639
3 | 13:15.15 | 5:47.62 | 59640 | 85726
4 | 19:03.02 | 2:45.70 | 85727 | 98171
5 | 21:48.72 | 9:09.18 | 98172 | 139364
6 | 30:58.15 | 4:39.32 | 139365 | 160321
7 | 35:37.47 | 2:46.15 | 160322 | 172786
8 | 38:23.62 | 4:46.28 | 172787 | 194264
9 | 43:10.15 | 6:51.12 | 194265 | 225101
10 | 50:01.27 | 3:51.33 | 225102 | 242459
11 | 53:52.60 | 2:18.20 | 242460 | 252829
12 | 56:11.05 | 4:28.55 | 252830 | 272984


Range status and errors

Selected range

Filename D:\Current rip\Lindsay String Quartet - Haydn String Quartets Op.33 Nos.3,5 & 6.wav

Peak level 72.9 %
Extraction speed 8.0 X
Range quality 100.0 %
Test CRC F67A347A
Copy CRC F67A347A
Copy OK

No errors occurred


AccurateRip summary

Track 1 accurately ripped (confidence 9) [0FEC9D27] (AR v2)
Track 2 accurately ripped (confidence 9) [7F1022CB] (AR v2)
Track 3 accurately ripped (confidence 9) [4DEC1082] (AR v2)
Track 4 accurately ripped (confidence 9) [A5C29D72] (AR v2)
Track 5 accurately ripped (confidence 9) [940491DC] (AR v2)
Track 6 accurately ripped (confidence 9) [15B417CD] (AR v2)
Track 7 accurately ripped (confidence 9) [57C9837B] (AR v2)
Track 8 accurately ripped (confidence 9) [189BFBEF] (AR v2)
Track 9 accurately ripped (confidence 9) [05F394AC] (AR v2)
Track 10 accurately ripped (confidence 9) [FFAE51D9] (AR v2)
Track 11 accurately ripped (confidence 9) [444C4E6A] (AR v2)
Track 12 accurately ripped (confidence 9) [CDD66A0C] (AR v2)

All tracks accurately ripped

End of status report

–– CUETools DB Plugin V2.1.6

[CTDB TOCID: ra6pmCvcTa9OLGJirbQYzL1ot4w-] found
Submit result: ra6pmCvcTa9OLGJirbQYzL1ot4w- has been confirmed
Track | CTDB Status
1 | (14/14) Accurately ripped
2 | (14/14) Accurately ripped
3 | (14/14) Accurately ripped
4 | (14/14) Accurately ripped
5 | (14/14) Accurately ripped
6 | (14/14) Accurately ripped
7 | (14/14) Accurately ripped
8 | (14/14) Accurately ripped
9 | (14/14) Accurately ripped
10 | (14/14) Accurately ripped
11 | (14/14) Accurately ripped
12 | (13/14) Accurately ripped


==== Log checksum E4A997D9379E25E19EC125B17D9411AE2AA6611E3C2C7066559CB86214C25A76 ====

The Lindsays - Haydn: String Quartets Op. 33 Nos. 3, 5 & 6 (1996)

Thanks to the original releaser