Subcategories

The Lindsays - Haydn: The 3 String Quartets, Op.54 "Tost I" (1995)

Posted By: ArlegZ
The Lindsays - Haydn: The 3 String Quartets, Op.54 "Tost I" (1995)

The Lindsays - Haydn: The 3 String Quartets, Op.54 "Tost I" (1995)
EAC | FLAC | Image (Cue & Log) ~ 327 Mb | Total time: 64:19 | Scans included
Classical | Label: ASV GOLD | CD DCA 582 | Recorded: 1987

All three quartets are in the usual fourmovement form but they contain many surprises: in No 1, the false recapitulation in the first movement, the dark modulations in the following sonata-form Allegretto and the Hungarian gipsy flavour (anticipated in the Minuet) and mischievousness of the final rondo. No 2 has a rhapsodic fiddler in its second movement, a nostalgic minuet with an extraordinarily anguished trio, and an Adagio finale in which a Presto section turns out to be no more than an episode.
A notable feature of No 3 is its ternary-form Largo cantabile, the centre of which is more like a mini-concerto for the first violin; 'Scotch snaps' pervade the Minuet, and pedal points the finale.
The performances and the recording are superb, marked by unanimity, fine tone, suppleness of phrasing, and acute dynamic shaping; in the second movement of No 1 there are hushed passages whose homogeneity and quality of sound are both quite remarkable. Overall, this recording is irresistible.
— Gramophone Classical Music Guide

Performer:
The Lindsays:
Peter Cropper & Ronald Birks, violin
Robin Ireland, viola
Bernard Gregor-Smith, cello

Track List:
Haydn: String Quartet in G, Op.54
01. I. Allegro con brio
02. II. Allegretto
03. III. Menuetto (Allegretto)
04. IV. Finale (Presto)
Haydn: String Quartet in C, Op.54
05. I. Vivace
06. II. Adagio - III. Menuetto
07. IV. Finale (Adagio - presto)
Haydn: String Quartet in E, Op.54
08. I. Allegro
09. II. Largo cantabile
10. III. Menuetto (Allegretto)
11. IV. Finale (Presto)


Exact Audio Copy V1.3 from 2. September 2016

EAC extraction logfile from 16. September 2019, 6:29

Lindsay String Quartet / Haydn - String Quartets Op 54

Used drive : ASUS BW-16D1X-U Adapter: 1 ID: 1

Read mode : Secure
Utilize accurate stream : Yes
Defeat audio cache : Yes
Make use of C2 pointers : No

Read offset correction : 667
Overread into Lead-In and Lead-Out : No
Fill up missing offset samples with silence : Yes
Delete leading and trailing silent blocks : No
Null samples used in CRC calculations : Yes
Used interface : Native Win32 interface for Win NT & 2000

Used output format : User Defined Encoder
Selected bitrate : 1024 kBit/s
Quality : High
Add ID3 tag : No
Command line compressor : C:\Program Files (x86)\Exact Audio Copy\FLAC\FLAC.EXE
Additional command line options : -6 -V -T "ARTIST=%artist%" -T "TITLE=%title%" -T "ALBUM=%albumtitle%" -T "DATE=%year%" -T "TRACKNUMBER=%tracknr%" -T "GENRE=%genre%" -T "COMMENT=%comment%" -T "BAND=%albuminterpret%" -T "ALBUMARTIST=%albuminterpret%" -T "COMPOSER=%composer%" %haslyrics%–tag-from-file=LYRICS="%lyricsfile%"%haslyrics% -T "DISCNUMBER=%cdnumber%" -T "TOTALDISCS=%totalcds%" -T "TOTALTRACKS=%numtracks%" %hascover%–picture="%coverfile%"%hascover% %source% -o %dest%


TOC of the extracted CD

Track | Start | Length | Start sector | End sector
––––––––––––––––––––––––––––-
1 | 0:00.32 | 5:16.35 | 32 | 23766
2 | 5:16.67 | 6:28.10 | 23767 | 52876
3 | 11:45.02 | 3:55.60 | 52877 | 70561
4 | 15:40.62 | 3:38.13 | 70562 | 86924
5 | 19:19.00 | 6:09.02 | 86925 | 114601
6 | 25:28.02 | 6:56.03 | 114602 | 145804
7 | 32:24.05 | 8:24.52 | 145805 | 183656
8 | 40:48.57 | 6:23.43 | 183657 | 212424
9 | 47:12.25 | 9:22.67 | 212425 | 254641
10 | 56:35.17 | 3:28.15 | 254642 | 270256
11 | 60:03.32 | 4:14.38 | 270257 | 289344


Range status and errors

Selected range

Filename D:\Current rip\Lindsay String Quartet - Haydn - String Quartets Op 54.wav

Peak level 100.0 %
Extraction speed 7.8 X
Range quality 100.0 %
Test CRC 4A060A96
Copy CRC 4A060A96
Copy OK

No errors occurred


AccurateRip summary

Track 1 accurately ripped (confidence 5) [07B24051] (AR v2)
Track 2 accurately ripped (confidence 5) [C1EA83A9] (AR v2)
Track 3 accurately ripped (confidence 5) [D388FCFA] (AR v2)
Track 4 accurately ripped (confidence 5) [C8D5C663] (AR v2)
Track 5 accurately ripped (confidence 5) [EDEF5304] (AR v2)
Track 6 accurately ripped (confidence 5) [74944026] (AR v2)
Track 7 accurately ripped (confidence 5) [E08FB77F] (AR v2)
Track 8 accurately ripped (confidence 5) [92FE9922] (AR v2)
Track 9 accurately ripped (confidence 5) [09C96E6F] (AR v2)
Track 10 accurately ripped (confidence 5) [8EC79120] (AR v2)
Track 11 accurately ripped (confidence 5) [4684E8A8] (AR v2)

All tracks accurately ripped

End of status report

–– CUETools DB Plugin V2.1.6

[CTDB TOCID: UJPWxQ7wSH7vOXDgCecdmAiTqeU-] found
Submit result: UJPWxQ7wSH7vOXDgCecdmAiTqeU- has been confirmed
Track | CTDB Status
1 | (7/8) Accurately ripped
2 | (7/8) Accurately ripped
3 | (7/8) Accurately ripped
4 | (7/8) Accurately ripped
5 | (7/8) Accurately ripped
6 | (7/8) Accurately ripped
7 | (7/8) Accurately ripped
8 | (7/8) Accurately ripped
9 | (7/8) Accurately ripped
10 | (7/8) Accurately ripped
11 | (7/8) Accurately ripped


==== Log checksum 5EA00CB91D04DB0892F5DEAC0A3433B93CFF61503A6A84E8C8CC18C4F7B37773 ====

The Lindsays - Haydn: The 3 String Quartets, Op.54 "Tost I" (1995)

Thanks to the original releaser