Subcategories

The Modern Jazz Quartet - Blues On Bach (1974) [Reissue 2002] (Repost)

Posted By: gribovar
The Modern Jazz Quartet - Blues On Bach (1974) [Reissue 2002] (Repost)

The Modern Jazz Quartet - Blues On Bach (1974) [Reissue 2002]
EAC Rip | WavPack (image+.cue+log) - 233 MB | MP3 CBR 320 kbps (LAME 3.93) - 98 MB | Covers - 50 MB
Genre: Jazz | RAR 3% Rec. | Label: Atlantic (81227 3629-2)

This album has an interesting concept, alternating four original blues with five adaptations of melodies from classical works by Bach. The Modern Jazz Quartet had long been quite adept in both areas, and despite a certain lack of variety on this set (alternating back and forth between the two styles somewhat predictably), the music is largely enjoyable. Vibraphonist Milt Jackson, pianist John Lewis (doubling here on harpsichord), bassist Percy Heath, and drummer Connie Kay were still all very much in their musical prime during the 21st year of the MJQ's existence.
Tracklist:
01. Regret?
02. Blues In B Flat
03. Rise Up In The Morning
04. Blues In A Minor
05. Precious Joy
06. Blues In C Minor
07. Don't Stop This Train
08. Blues In H (B)
09. Tears From The Children

Total time: 41:42

Exact Audio Copy V0.99 prebeta 5 from 4. May 2009

EAC extraction logfile from 1. May 2010, 23:14

The Modern Jazz Quartet / Blues On Bach

Used drive : Optiarc DVD RW AD-7200S Adapter: 4 ID: 0

Read mode : Secure
Utilize accurate stream : Yes
Defeat audio cache : Yes
Make use of C2 pointers : No

Read offset correction : 48
Overread into Lead-In and Lead-Out : No
Fill up missing offset samples with silence : Yes
Delete leading and trailing silent blocks : No
Null samples used in CRC calculations : Yes
Used interface : Installed external ASPI interface

Used output format : Internal WAV Routines
Sample format : 44.100 Hz; 16 Bit; Stereo


TOC of the extracted CD

Track | Start | Length | Start sector | End sector
––––––––––––––––––––––––––––-
1 | 0:00.00 | 2:07.32 | 0 | 9556
2 | 2:07.32 | 4:58.63 | 9557 | 31969
3 | 7:06.20 | 3:25.25 | 31970 | 47369
4 | 10:31.45 | 7:54.15 | 47370 | 82934
5 | 18:25.60 | 3:15.30 | 82935 | 97589
6 | 21:41.15 | 8:00.50 | 97590 | 133639
7 | 29:41.65 | 1:48.00 | 133640 | 141739
8 | 31:29.65 | 5:47.00 | 141740 | 167764
9 | 37:16.65 | 4:25.05 | 167765 | 187644


Range status and errors

Selected range

Filename D:\Release\The Modern Jazz Quartet - Blues On Bach\The Modern Jazz Quartet - Blues On Bach.wav

Peak level 94.8 %
Range quality 99.9 %
Test CRC 9402815E
Copy CRC 9402815E
Copy OK

No errors occurred


AccurateRip summary

Track 1 not present in database
Track 2 not present in database
Track 3 not present in database
Track 4 not present in database
Track 5 not present in database
Track 6 not present in database
Track 7 not present in database
Track 8 not present in database
Track 9 not present in database

None of the tracks are present in the AccurateRip database

End of status report

[CUETools log; Date: 18.01.2018 14:07:27; Version: 2.1.4]
[CTDB TOCID: 29T40sJgrjwT5JkwG5gVW2wHyDQ-] found.
Track | CTDB Status
1 | (28/28) Accurately ripped
2 | (28/28) Accurately ripped
3 | (28/28) Accurately ripped
4 | (28/28) Accurately ripped
5 | (28/28) Accurately ripped
6 | (28/28) Accurately ripped
7 | (28/28) Accurately ripped
8 | (28/28) Accurately ripped
9 | (28/28) Accurately ripped
[AccurateRip ID: 000dbc74-00672807-6d09c509] found.
Track [ CRC | V2 ] Status
01 [99323ee2|d370e61e] (12+11/33) Accurately ripped
02 [77246008|67569bdd] (12+12/34) Accurately ripped
03 [95fee494|73f5de5e] (12+12/34) Accurately ripped
04 [eeac174d|52622add] (12+12/34) Accurately ripped
05 [a084ccbe|d624d4bc] (12+12/34) Accurately ripped
06 [15093702|ba354da9] (11+12/33) Accurately ripped
07 [e900ce0f|cac4bad4] (11+12/33) Accurately ripped
08 [71cc8080|8fa08ad9] (11+12/33) Accurately ripped
09 [86bc456c|44539697] (12+12/34) Accurately ripped
Offsetted by -664:
01 [7e38b7aa] (04/33) Accurately ripped
02 [f10b7e00] (04/34) Accurately ripped
03 [9db404dc] (04/34) Accurately ripped
04 [7b552ed5] (04/34) Accurately ripped
05 [fb26a6fe] (04/34) Accurately ripped
06 [7dc3437a] (04/33) Accurately ripped
07 [c88b1a97] (04/33) Accurately ripped
08 [90a5f378] (04/33) Accurately ripped
09 [0285031c] (04/34) Accurately ripped

Track Peak [ CRC32 ] [W/O NULL] [ LOG ]
– 94,8 [9402815E] [575F0972] CRC32
01 80,6 [7776D1E0] [605F75A4]
02 79,8 [6854EAB5] [66A2BE53]
03 61,0 [E558DC0F] [024B6CF9]
04 94,8 [30916E70] [B3A3DC24]
05 74,2 [7AB29ED5] [B5946C48]
06 85,8 [2F4F6A4C] [D798C497]
07 52,3 [D0B6E930] [52193206]
08 92,8 [3A03B1B5] [105A6888]
09 57,2 [A00D3C0D] [831FAD4E]

Thanks to Dudtsyn