Subcategories

The Modern Jazz Quartet - Django (1955) {Japan SHM-CD}

Posted By: tiburon
The Modern Jazz Quartet - Django (1955) {Japan SHM-CD}

The Modern Jazz Quartet - Django (1955) {Japan SHM-CD}
EAC 0.95b4 | FLAC Image level 8 | Cue+Log | Full Scans 300dpi | 230MB + 5% Recovery
MP3 CBR 320 Kbps | 113MB + 5% Recovery
Genre: Jazz, Bop, Cool

Hailing from a trio of Modern Jazz Quartet (MJQ) sessions, Django (1955) contains some of the earliest sides that Milt Jackson (vibraphone), John Lewis (piano), Percy Heath (bass) and Kenny Clarke (drums) recorded for Prestige Records. Initially, the combo was part of Dizzy Gillespie's influential backing band and after a change in drummers (to Connie Kay), they continued as one of the more sophisticated aggregates of the post-bop era. The album commences with Lewis' sublime and serene title track "Django," dedicated to the memory of guitarist extraordinaire Django Reinhardt. This musical paean aptly recaptures the essence of Reinhardt's enigmatic gypsy-like nature, especially evident within Jackson's leads, which emerge from the thoughtful opening dirge with a refined, warm tone throughout. Reinhardt's playfulness is recalled in Lewis' well-placed interjections between and beneath Jackson's lines. "One Bass Hit" is an homage to Gillespie with Heath taking charge of the intricate melody, showing off his often criminally underutilized skills. From the same December 1954 gathering comes the moody Lewis-penned ballad "Milano." There is a notable Mediterranean feel resounding in the opulence of MJQ's unassuming interaction. The centerpiece is the lengthy four-movement showcase "La Ronde Suite" circa January of 1955. The MJQ maneuver with unquestionable grace, alternately supporting and soloing, each taking the reigns as the others construct their contributions around the respective soloist. The remaining four selections date back to June of 1953 and are highlighted by "The Queen's Fancy," a simple and refined fugue that carries a distinct air of nobility. "Delaunay's Dilemma" is a definite contrast as it allows the players to cut loose with some frisky and fun exchanges that perfectly demonstrate their ability to glide through the sinuous syncopation. Both the understated splendor of "Autumn in New York" and the equally sublime cover of "But Not for Me" provide some familiar backdrops for the MJQ to collaborate and perhaps more directly display their essential improvisational abilities. In terms of seminal Modern Jazz Quartet entries, it is hard to exceed the variety of styles and performances gathered on Django.
Track List
01. Django
02. One Bass Hit
03. La Ronde Suite
04. The Queen’s Fancy
05. Delaunay’s Dilemma
06. Autumn In New York
07. But Not For Me
08. Milano

musicians
Milt Jackson - vibraphone
Percy Heath - upright bass
Kenny Clarke - drums
John Lewis - piano


EAC extraction logfile from 13. March 2008, 22:29 for CD
The Modern Jazz Quartet / Django

Used drive : PLEXTOR CD-R PREMIUM2 Adapter: 0 ID: 0
Read mode : Secure with NO C2, accurate stream, disable cache
Read offset correction : 30
Overread into Lead-In and Lead-Out : No

Used output format : Internal WAV Routines
44.100 Hz; 16 Bit; Stereo

Other options :
Fill up missing offset samples with silence : Yes
Delete leading and trailing silent blocks : No
Native Win32 interface for Win NT & 2000


Range status and errors
Selected range
Filename K:\00 Posts\MJQ - Django (SHM-CD Japan RVG remasters)\MJQ Django SHM-CD.wav

Peak level 96.6 %
Range quality 100.0 %
CRC B91D275C
Copy OK

No errors occured

End of status report


foobar2000 1.3.13 / Dynamic Range Meter 1.1.1
log date: 2018-04-24 11:11:47

––––––––––––––––––––––––––––––––––––––––
Analyzed: The Modern Jazz Quartet / Django
––––––––––––––––––––––––––––––––––––––––

DR Peak RMS Duration Track
––––––––––––––––––––––––––––––––––––––––
DR12 -1.31 dB -15.78 dB 7:06 01-Django
DR11 -1.76 dB -15.21 dB 3:01 02-One Bass Hit
DR12 -0.82 dB -15.40 dB 9:32 03-La Ronde Suite (Piano, Bass, Vibes, Drums)
DR12 -0.62 dB -14.09 dB 3:14 04-The Queen's Fancy
DR11 -0.76 dB -13.65 dB 4:01 05-Delaunay's Dilemma
DR14 -0.83 dB -17.84 dB 3:42 06-Autumn In New York
DR12 -0.30 dB -15.97 dB 3:46 07-But Not For Me
DR12 -1.81 dB -15.67 dB 4:23 08-Milano
––––––––––––––––––––––––––––––––––––––––

Number of tracks: 8
Official DR value: DR12

Samplerate: 44100 Hz
Channels: 2
Bits per sample: 16
Bitrate: 743 kbps
Codec: FLAC
================================================================================

The Modern Jazz Quartet - Django (1955) {Japan SHM-CD}
The Modern Jazz Quartet - Django (1955) {Japan SHM-CD}


Thanks to the original ripper