Subcategories

The Moody Blues - The Other Side Of Life (1986) [Repost]

Posted By: technick
The Moody Blues - The Other Side Of Life (1986) [Repost]

The Moody Blues - The Other Side Of Life (1986)
EAC: flac (tracks)+cue+log | RAR, 3%, 272,88MB | mp3 320kbps | RAR, 3%, 101,25MB | Scans | RAR, 3%, 26,36MB
Label: Polydor | Cat №: 829 179-2 | (FilePost+DepositFiles)

"The Other Side of Life" is the twelfth album by the rock band The Moody Blues. It contains the major hit, "Your Wildest Dreams", which, like "Nights in White Satin" before it, was a top-10 hit in the United States. It is the third album of the Patrick Moraz era, and the first for flautist and vocalist Ray Thomas not to play a major role.
The music on this album marked the beginning of dominant synthesiser, sequencer, and drum machine use by the band, to the point that the entire album could be classified as a "synthpop" record; a surprising stylistic change for a band that had pioneered symphonic rock.
Exact Audio Copy V0.99 prebeta 4 from 23. January 2008

EAC extraction logfile from 29. May 2009, 23:19

Moody Blues / The Other Side of Life

Used drive : SONY DVD RW DRU-840A Adapter: 1 ID: 0

Read mode : Secure
Utilize accurate stream : Yes
Defeat audio cache : Yes
Make use of C2 pointers : No

Read offset correction : 6
Overread into Lead-In and Lead-Out : No
Fill up missing offset samples with silence : Yes
Delete leading and trailing silent blocks : No
Null samples used in CRC calculations : Yes
Used interface : Native Win32 interface for Win NT & 2000
Gap handling : Appended to previous track

Used output format : User Defined Encoder
Selected bitrate : 320 kBit/s
Quality : High
Add ID3 tag : No
Command line compressor : C:\Program Files\FLAC\flac.exe
Additional command line options : -8 -V -T "ARTIST=%a" -T "TITLE=%t" -T "ALBUM=%g" -T "DATE=%y" -T "TRACKNUMBER=%n" -T "GENRE=%m" -T "COMMENT=EAC FLAC -8" %s


TOC of the extracted CD

Track | Start | Length | Start sector | End sector
––––––––––––––––––––––––––––-
1 | 0:00.33 | 4:51.37 | 33 | 21894
2 | 4:51.70 | 3:55.40 | 21895 | 39559
3 | 8:47.35 | 4:50.65 | 39560 | 61374
4 | 13:38.25 | 3:28.55 | 61375 | 77029
5 | 17:07.05 | 4:24.15 | 77030 | 96844
6 | 21:31.20 | 6:52.25 | 96845 | 127769
7 | 28:23.45 | 4:19.23 | 127770 | 147217
8 | 32:42.68 | 4:29.22 | 147218 | 167414
9 | 37:12.15 | 4:54.55 | 167415 | 189519


Track 1

Filename C:\FlowerJewel\EAC Ripped\The Moody Blues - The Other Side of Life (1986) [FLAC] {W. German Polydor}\01 - Your Wildest Dreams.wav

Pre-gap length 0:00:02.33

Peak level 74.5 %
Track quality 100.0 %
Test CRC C656C423
Copy CRC C656C423
Accurately ripped (confidence 65) [B514D11B]
Copy OK

Track 2

Filename C:\FlowerJewel\EAC Ripped\The Moody Blues - The Other Side of Life (1986) [FLAC] {W. German Polydor}\02 - Talkin' Talkin'.wav

Pre-gap length 0:00:00.37

Peak level 87.7 %
Track quality 100.0 %
Test CRC 63D320C6
Copy CRC 63D320C6
Accurately ripped (confidence 64) [964D34D6]
Copy OK

Track 3

Filename C:\FlowerJewel\EAC Ripped\The Moody Blues - The Other Side of Life (1986) [FLAC] {W. German Polydor}\03 - Rock 'n' Roll Over You.wav

Pre-gap length 0:00:00.60

Peak level 77.3 %
Track quality 99.9 %
Test CRC A6CA8C38
Copy CRC A6CA8C38
Accurately ripped (confidence 64) [C0AE22E6]
Copy OK

Track 4

Filename C:\FlowerJewel\EAC Ripped\The Moody Blues - The Other Side of Life (1986) [FLAC] {W. German Polydor}\04 - I Just Don't Care.wav

Pre-gap length 0:00:01.30

Peak level 73.7 %
Track quality 100.0 %
Test CRC C61F58B9
Copy CRC C61F58B9
Accurately ripped (confidence 64) [734C6CF0]
Copy OK

Track 5

Filename C:\FlowerJewel\EAC Ripped\The Moody Blues - The Other Side of Life (1986) [FLAC] {W. German Polydor}\05 - Running Out of Love.wav

Pre-gap length 0:00:02.10

Peak level 79.2 %
Track quality 100.0 %
Test CRC A79AD3BF
Copy CRC A79AD3BF
Accurately ripped (confidence 65) [994E66EB]
Copy OK

Track 6

Filename C:\FlowerJewel\EAC Ripped\The Moody Blues - The Other Side of Life (1986) [FLAC] {W. German Polydor}\06 - The Other Side of Life.wav

Pre-gap length 0:00:01.37

Peak level 81.3 %
Track quality 100.0 %
Test CRC FBB6AB77
Copy CRC FBB6AB77
Accurately ripped (confidence 65) [1DCEF94D]
Copy OK

Track 7

Filename C:\FlowerJewel\EAC Ripped\The Moody Blues - The Other Side of Life (1986) [FLAC] {W. German Polydor}\07 - The Spirit.wav

Pre-gap length 0:00:02.00

Peak level 73.8 %
Track quality 99.9 %
Test CRC 820E396F
Copy CRC 820E396F
Accurately ripped (confidence 65) [9590E176]
Copy OK

Track 8

Filename C:\FlowerJewel\EAC Ripped\The Moody Blues - The Other Side of Life (1986) [FLAC] {W. German Polydor}\08 - Slings and Arrows.wav

Pre-gap length 0:00:01.10

Peak level 81.2 %
Track quality 99.9 %
Test CRC 948DCA63
Copy CRC 948DCA63
Accurately ripped (confidence 63) [4A59434D]
Copy OK

Track 9

Filename C:\FlowerJewel\EAC Ripped\The Moody Blues - The Other Side of Life (1986) [FLAC] {W. German Polydor}\09 - It May Be a Fire.wav

Pre-gap length 0:00:01.07

Peak level 66.7 %
Track quality 100.0 %
Test CRC F610575D
Copy CRC F610575D
Accurately ripped (confidence 61) [88D339BA]
Copy OK


All tracks accurately ripped

No errors occurred

End of status report

Tracklist:
1. Your Wildest Dreams [04:51]
2. Talkin' Talkin' [03:56]
3. Rock 'n' Roll Over You [04:51]
4. I Just Don't Care [03:29]
5. Running Out of Love [04:24]
6. The Other Side of Life [06:52]
7. The Spirit [04:19]
8. Slings and Arrows [04:29]
9. It May Be a Fire [04:55]
–––––––––––––
Total time: [42:06]
No mirrors, please!
Not my rip! All Thanks to original ripper!

Welcome to My Blog!
FilePost: Part1, Part2, mp3, scans.
DepositFiles: flac, mp3, scans.
pass: kermith