Subcategories
Tags
Language
Tags

The Tangent - Le Sacre Du Travail (2013)

Posted By: popsakov
The Tangent - Le Sacre Du Travail (2013)

The Tangent - Le Sacre Du Travail (2013)
EAC Rip | FLAC (Img) + Cue + Log ~ 471 Mb | MP3 CBR320 ~ 177 Mb
Full Scans ~ 451 Mb | 01:13:15 | RAR 5% Recovery
Progressive Rock, Symphonic Rock | InsideOut Music #IOMLTDCD 382 / 0506558

The 7th studio album is a large scale orchestral/rock band hybrid. The Tangent is a Progressive Rock Band from Northern England. Based around keyboards player, composer and idiosyncratic vocalist Andy Tillison Diskdrive. Their music is cinematic and lyrical, full of narrative, often telling stories or making observations about the world we live in - often choosing subject matter more associated with Anarcho-Punk bands than with the genre in which the band choose to base themselves. "No Hobbits or Orcs in our songs" The band have, for 12 years now, released a steady output of well regarded albums through their record label Insideout Music. At the time of writing, the band's eighth studio album "A Spark In The Aether" is in production in four locations in two countries.

The band has changed personnel many times and has used this fluidity to keep ideas fresh and lucid. The debut album released in 2003 The Music that Died Alone was often referred to as a "supergroup" project, though Tillison has always eschewed this title, preferring to go for the less obvious "a good idea".

In twelve years the group has had close affiliations with Swedish progressive legends The Flower Kings, and Jonas Reingold (bass) from that band remains in the Tangent to this day despite the departure of Roine Stolt from the Tangent ten years ago now. David Jackson (Van Der Graaf Generator) was heavily featured on that debut album, Jakko Jakszyk (now of King Crimson) has been a frequent collaborator along with Theo Travis (Steven Wilson Band, Soft Machine Legacy, Gong etc). Guy Manning, Gavin Harrison (Porcupine Tree), David Longdon (Big Big Train) have all played key roles in the band's development and the band was instrumental in bringing the talents of the astonishing young guitarist Luke Machin (Maschine) to the world for the first time.

The Tangent's music has its roots in the Progressive Era - the time of Moon landings, Supersonic Flight and amazing imaginative music. Although the band would never claim to be wildly original, they have built their own particular collage of sounds and styles that range from the blindingly obvious (ELP, Yes, Gentle Giant etc) through the less frequently revisited chapters of Canterbury Rock (Hatfiled & the North, Egg, National Health, Caravan et al) - a healthy smattering of Jazz Fusion, some smidgeons of Opeth once in a while, the odd bit that will make you think of Deep Purple.

But, big but, Tangent philosophy has been to embrace other more contemporary bands. Whether overtly progressive themselves (Flower Kings, Spock's Beard, Argos, Magenta etc) or completely away from the official boundaries of the genre into metal, Jazz, modern pop, soul, disco and film music, the Tangent do not follow the prog rock rule book.

"It's more what we don't do that sets us apart" Tillison said in a 2007 interview.. "we've always avoided doing the 12 string acoustic stuff, and in fact anything that gets too Genesissy or Floyd-like usually (not always) gets binned.. that's not to say that there aren't influences.. just that we don't like the idea of being confined to the styles of those particular figureheads. The spirit of progressive rock music was carried by lots more people than Genesis. I think that too many of us (new bands) use the obvious source - i.e the 70s bands and forget to look around us and see what our contemporaries are up to!"

***************

The Tangent - Le Sacre Du Travail (2013)

Track List:

01. Coming Up On The Hour (Overture) [05:54]
02. Morning Journey & Arrival [22:55]
03. Afternoon Malaise [19:21]
04. A Voyage Through Rush Hour [03:08]
05. Evening TV [12:07]
06. Muffled Epiphany (BONUS) [04:06]
07. Hat (Live at Mexborough School 1979) (BONUS) [01:17]
08. Evening TV (Radio Edit) (BONUS) [04:29]

Personnel:
Andy Tillison - Vocals, Guitars & Keyboards
Theo Travis - Saxes, Flutes & Clarinets
David Longdon - Vocals
Jakko Jakkszyk - Vocals & Guitars
Gavin Harrison - Drums
Jonas Reingold - Bass
with
Rikard Sjoblom - Narration
Guy Manning - Acoustic Guitar

Exact Audio Copy V1.0 beta 3 from 29. August 2011

Отчёт EAC об извлечении, выполненном 6. августа 2013, 20:21

The Tangent / Le Sacre Du Travail

Дисковод: HL-DT-STDVDRAM GSA-H42L Adapter: 0 ID: 0

Режим чтения : Достоверность
Использование точного потока : Да
Отключение кэша аудио : Да
Использование указателей C2 : Нет

Коррекция смещения при чтении : 667
Способность читать области Lead-in и Lead-out : Нет
Заполнение пропущенных сэмплов тишиной : Да
Удаление блоков с тишиной в начале и конце : Нет
При вычислениях CRC использовались нулевые сэмплы : Да
Интерфейс : Встроенный Win32-интерфейс для Win NT/2000

Выходной формат : Внутренние WAV-операции
Формат сэмплов : 44.100 Гц; 16 бит; стерео


TOC извлечённого CD

Трек | Старт | Длительность | Начальный сектор | Конечный сектор
––––––––––––––––––––––––––––––––––-
1 | 0:00.00 | 5:53.59 | 0 | 26533
2 | 5:53.59 | 22:54.42 | 26534 | 129625
3 | 28:48.26 | 19:20.61 | 129626 | 216686
4 | 48:09.12 | 3:07.57 | 216687 | 230768
5 | 51:16.69 | 12:06.69 | 230769 | 285287
6 | 63:23.63 | 4:05.54 | 285288 | 303716
7 | 67:29.42 | 1:16.20 | 303717 | 309436
8 | 68:45.62 | 4:28.20 | 309437 | 329556


Характеристики диапазона извлечения и сообщения об ошибках

Выбранный диапазон

Имя файла G:\And\CD Images\The Tangent - 2013 - Le Sacre Du Travail\The Tangent - Le Sacre Du Travail.wav

Пиковый уровень 97.7 %
Скорость извлечения 7.3 X
Качество диапазона 99.9 %
CRC теста 6925FBE1
CRC копии 6925FBE1
Копирование… OK

Ошибок не произошло


AccurateRip: сводка

Трек 1 : извлечено точно (доверие 11) [01C16962] (AR v2)
Трек 2 : извлечено точно (доверие 11) [9950F678] (AR v2)
Трек 3 : извлечено точно (доверие 11) [2CBEC401] (AR v2)
Трек 4 : извлечено точно (доверие 11) [FDEF50C9] (AR v2)
Трек 5 : извлечено точно (доверие 11) [8EA5B4E5] (AR v2)
Трек 6 : извлечено точно (доверие 11) [AEBB895F] (AR v2)
Трек 7 : извлечено точно (доверие 11) [A2DA89B1] (AR v2)
Трек 8 : извлечено точно (доверие 11) [BA5B2903] (AR v2)

Все треки извлечены точно

Конец отчёта

==== Контрольная сумма отчёта EAC1AB370D895AA0A65D93485B7F61D8DC43EDB18225195B7E9C3E4816E5EF1C ====

foobar2000 1.2.6 / Dynamic Range Meter 1.1.1
log date: 2015-03-24 00:57:33

––––––––––––––––––––––––––––––––––––––––
Analyzed: The Tangent / Le Sacre Du Travail
––––––––––––––––––––––––––––––––––––––––

DR Peak RMS Duration Track
––––––––––––––––––––––––––––––––––––––––
DR8 -0.20 dB -11.93 dB 5:54 01-Coming Up On The Hour (Overture)
DR8 -0.20 dB -10.98 dB 22:55 02-Morning Journey & Arrival
DR8 -0.20 dB -11.51 dB 19:21 03-Afternoon Malaise
DR8 -0.20 dB -12.93 dB 3:08 04-A Voyage Through Rush Hour
DR8 -0.20 dB -10.72 dB 12:07 05-Evening TV
DR12 -1.71 dB -16.58 dB 4:06 06-Muffled Epiphany (BONUS)
DR7 -1.75 dB -10.65 dB 1:16 07-Hat (Live at Mexborough School 1979) (BONUS)
DR8 -0.20 dB -9.80 dB 4:28 08-Evening TV (Radio Edit) (BONUS)
––––––––––––––––––––––––––––––––––––––––

Number of tracks: 8
Official DR value: DR8

Samplerate: 44100 Hz
Channels: 2
Bits per sample: 16
Bitrate: 855 kbps
Codec: FLAC
================================================================================

[CUETools log; Date: 24.03.2015 0:30:06; Version: 2.1.5]
[CTDB TOCID: 160DT262MJii6g4rgxHKxHvbfN8-] found.
Track | CTDB Status
1 | (15/15) Accurately ripped
2 | (15/15) Accurately ripped
3 | (15/15) Accurately ripped
4 | (15/15) Accurately ripped
5 | (15/15) Accurately ripped
6 | (15/15) Accurately ripped
7 | (15/15) Accurately ripped
8 | (15/15) Accurately ripped
[AccurateRip ID: 001bf2bf-00b32a64-68112a08] found.
Track [ CRC | V2 ] Status
01 [00bfc56a|01c16962] (05+29/44) Accurately ripped
02 [ddefab76|9950f678] (05+29/44) Accurately ripped
03 [12a524ac|2cbec401] (05+29/43) Accurately ripped
04 [1829a7e9|fdef50c9] (05+29/43) Accurately ripped
05 [7ca13109|8ea5b4e5] (05+28/42) Accurately ripped
06 [f068139b|aebb895f] (05+29/43) Accurately ripped
07 [0d879898|a2da89b1] (05+29/43) Accurately ripped
08 [3d112c00|ba5b2903] (05+29/43) Accurately ripped
Offsetted by -6:
01 [d0370313] (00/44) No match (V2 was not tested)
02 [163de17f] (00/44) No match (V2 was not tested)
03 [82699b7e] (00/43) No match (V2 was not tested)
04 [92160d05] (00/43) No match (V2 was not tested)
05 [0d203e98] (00/42) No match (V2 was not tested)
06 [556f8528] (00/43) No match (V2 was not tested)
07 [ea49e3b2] (00/43) No match (V2 was not tested)
08 [11ba22ee] (00/43) No match (V2 was not tested)
Offsetted by 12:
01 [5e0704f2] (00/44) No match (V2 was not tested)
02 [6d653f6a] (00/44) No match (V2 was not tested)
03 [331c3708] (00/43) No match (V2 was not tested)
04 [2450ddb1] (00/43) No match (V2 was not tested)
05 [a1465150] (00/42) No match (V2 was not tested)
06 [268c3078] (00/43) No match (V2 was not tested)
07 [54030264] (00/43) No match (V2 was not tested)
08 [93bf3e24] (00/43) No match (V2 was not tested)

Track Peak [ CRC32 ] [W/O NULL] [ LOG ]
– 97,7 [6925FBE1] [6E220C77] CRC32
01 97,7 [C14931CF] [256556F4]
02 97,7 [443F68E6] [06DD4979]
03 97,7 [67DC72DA] [B95A623B]
04 97,7 [047CB99A] [4C6EE0C4]
05 97,7 [9AD3D702] [D72C2B1C]
06 82,1 [BC7AAB2D] [DF9DF35C]
07 81,7 [79C67089] [B7E75103]
08 97,7 [7736D58B] [D5EC8735]

The Tangent - Le Sacre Du Travail (2013)


All thanks go to erro

>>> The Tangent in my Blog <<<

DOWNLOAD: