Subcategories

The Temptations - The Temptin' Temptations (1965) [1998, Remastered Reissue]

Posted By: BlondStyle
The Temptations - The Temptin' Temptations (1965) [1998, Remastered Reissue]

The Temptations - The Temptin' Temptations (1965) [1998, Remastered Reissue]
R&B, Soul, Doo-Wop, Motown | EAC Rip | FLAC, Img+CUE+LOG+Scans (TIF) | 33:42 | 248,07 Mb
Label: Motown (USA) | Cat.# 314 530 931-2 | Released: 1998-10-20 (1965-11-01)
The Temptations - The Temptin' Temptations (1965) [1998, Remastered Reissue]

"The Temptin' Temptations" is the 3rd studio album by The Temptations for the Gordy (Motown) label released in 1965. The album includes several of the group's hits from 1965, and also includes a handful of singles that were not included on the Temptations' first 1965 album, The Temptations Sing Smokey. Among these are the 1964 singles "Girl (Why You Wanna Make Me Blue)" and "I'll Be in Trouble"; and the 1965 singles "Since I Lost My Baby", and "My Baby". Seven of the album's 12 tracks had previously been released as singles and their B-sides, though "My Baby" preceded the album only by a month.
~Wikipedia
The Temptations' third album for Motown's Gordy subsidiary in 1965 kept the hit streak alive with the inclusion of "Since I Lost My Baby," "My Baby," "Don't Look Back," and "Girl (Why You Wanna Make Me Blue)." As a matter of fact, this album churned out seven chart hit singles -- or rather, they were included on this collection, as singles wagged the album dog back in those days. Either way, Smokey Robinson produces the lion's share of tracks (six) on here, including "You've Got to Earn It," "I'll Be in Trouble," and "You're the One I Need." The album also introduces Ivory Joe Hunter and Mickey Stevenson's production work on "Just Another Lonely Night" and "Born to Love You" and future producer Norman Whitfield on "The Girl's Alright With Me," "I Gotta Know Now," and "Everybody Needs Love." Another classic album by the original group.
~Review by Cub Koda

The Temptations - The Temptin' Temptations (1965) [1998, Remastered Reissue]

The Temptations - The Temptin' Temptations (1965) [1998, Remastered Reissue]




Release of the album: 1965, November, 1 [LP Gordy, Cat.# S-914, USA]
Release of this CD: 1998, October, 20 [CD Motown (USA), Cat.# 314 530 931-2 / UPC: 0731453093126]
© 1998 Motown Record Company, L.P., a PolyGram Company
Manufactured and marketed by Motown Record Company, L.P.
Made in U.S.A.


Notes: Digitally remastered using 24-bit technology by Suha Gur at PolyGram Studios.

Credits:

Producer – Bill "Smokey" Robinson
Remastered By [Digitally Remastered] – Suha Gur
Written-By – Grant (tracks: 5), Kendricks (tracks: 2), Holland (tracks: 2, 6, 7, 9), Hunter (tracks: 3, 10), Whitfield (tracks: 2, 6, 7, 9), Rogers (tracks: 4), White (tracks: 8), Moore (tracks: 1, 4), Robinson (tracks: 1, 4, 5, 8, 11, 12), Stevenson (tracks: 3, 10)


Tracklist:

01. Since I Lost My Baby (02:55)
02. The Girl's Alright With Me (02:55)
03. Just Another Lonely Night (03:03)
04. My Baby (03:06)
05. You've Got To Earn It (02:41)
06. Everybody Needs Love (02:59)
07. Girl (Why You Wanna Make Me Blue) (02:23)
08. Don't Look Back (02:56)
09. I Gotta Know Now (02:40)
10. Born To Love You (02:41)
11. I'll Be In Trouble (03:00)
12. You're The One I Need (02:24)

Exact Audio Copy V1.3 from 2. September 2016

EAC extraction logfile from 21. May 2019, 19:11

The Temptations / The Temptin' Temptations

Used drive : Memorex 52MAXX 3252AJ1 Adapter: 1 ID: 1

Read mode : Secure
Utilize accurate stream : Yes
Defeat audio cache : Yes
Make use of C2 pointers : Yes

Read offset correction : 6
Overread into Lead-In and Lead-Out : No
Fill up missing offset samples with silence : Yes
Delete leading and trailing silent blocks : No
Null samples used in CRC calculations : Yes
Used interface : Native Win32 interface for Win NT & 2000

Used output format : User Defined Encoder
Selected bitrate : 896 kBit/s
Quality : Low
Add ID3 tag : Yes
Command line compressor : C:\Program Files (x86)\Exact Audio Copy\FLAC\FLAC.EXE
Additional command line options : %ishigh%-V -p -l 12 -b 4096 -m -e -r 8%ishigh%%islow%-5%islow% –replay-gain -T "ARTIST=%artist%" -T "ALBUM=%albumtitle%" -T "TITLE=%title%" -T "DATE=%year%" -T "TRACKNUMBER=%tracknr%" -T "GENRE=%genre%" -T "ENSEMBLE=%albuminterpret%" -T "ALBUMARTIST=%albumartist%" -T "COMPOSER=%albumcomposer%" -T "DISCNUMBER=%cdnumber%" -T "TOTALDISCS=%totalcds%" -T "TOTALTRACKS=%numtracks%" -T "SOURCEMEDIA=CD" -T "COMMENT=%comment%" %hascover%-T "PICTURE=%coverfile%"%hascover% %source%


TOC of the extracted CD

Track | Start | Length | Start sector | End sector
––––––––––––––––––––––––––––-
1 | 0:00.00 | 2:54.47 | 0 | 13096
2 | 2:54.47 | 2:54.53 | 13097 | 26199
3 | 5:49.25 | 3:03.20 | 26200 | 39944
4 | 8:52.45 | 3:05.72 | 39945 | 53891
5 | 11:58.42 | 2:40.53 | 53892 | 65944
6 | 14:39.20 | 2:59.25 | 65945 | 79394
7 | 17:38.45 | 2:22.42 | 79395 | 90086
8 | 20:01.12 | 2:55.68 | 90087 | 103279
9 | 22:57.05 | 2:39.60 | 103280 | 115264
10 | 25:36.65 | 2:41.12 | 115265 | 127351
11 | 28:18.02 | 2:59.63 | 127352 | 140839
12 | 31:17.65 | 2:23.47 | 140840 | 151611


Range status and errors

Selected range

Filename C:\Users\M@ce\Music\Archives\Rips\The Temptations - The Temptin' Temptations.wav

Peak level 100.0 %
Extraction speed 3.6 X
Range quality 100.0 %
Test CRC 079FFB0C
Copy CRC 079FFB0C
Copy OK

No errors occurred


AccurateRip summary

Track 1 accurately ripped (confidence 4) [D5A1B2A1] (AR v2)
Track 2 accurately ripped (confidence 4) [79B132CA] (AR v2)
Track 3 accurately ripped (confidence 4) [891D3CE2] (AR v2)
Track 4 accurately ripped (confidence 4) [879A64A6] (AR v2)
Track 5 accurately ripped (confidence 4) [AA677C88] (AR v2)
Track 6 accurately ripped (confidence 4) [6AF6E83A] (AR v2)
Track 7 accurately ripped (confidence 4) [ABD12E8B] (AR v2)
Track 8 accurately ripped (confidence 4) [7EA1ADBA] (AR v2)
Track 9 accurately ripped (confidence 4) [798B898E] (AR v2)
Track 10 accurately ripped (confidence 4) [9FA77C59] (AR v2)
Track 11 accurately ripped (confidence 4) [0A2A3B28] (AR v2)
Track 12 accurately ripped (confidence 4) [F0CC9CC8] (AR v2)

All tracks accurately ripped

End of status report

–– CUETools DB Plugin V2.1.6

[CTDB TOCID: h1UKxB_4Ulyz6A4x0zKd2q5h1lY-] found
Submit result: h1UKxB_4Ulyz6A4x0zKd2q5h1lY- has been confirmed
Track | CTDB Status
1 | (13/20) Accurately ripped
2 | (13/20) Accurately ripped
3 | (13/20) Accurately ripped
4 | (13/20) Accurately ripped
5 | (13/20) Accurately ripped
6 | (13/20) Accurately ripped
7 | (12/20) Accurately ripped
8 | (13/20) Accurately ripped
9 | (13/20) Accurately ripped
10 | (13/20) Accurately ripped
11 | (13/20) Accurately ripped
12 | (13/20) Accurately ripped


==== Log checksum 872465FC996539C7A24E0D8C6F5F29480247A33F46D6E13F5158E982F843EF9B ====

––––––––––––––––––––––––––––––––––––––––
Analyzed: The Temptations / The Temptin' Temptations
––––––––––––––––––––––––––––––––––––––––

DR Peak RMS Duration Track
––––––––––––––––––––––––––––––––––––––––
DR5 -4.50 dB -10.91 dB 2:55 01-Since I Lost My Baby
DR10 0.00 dB -12.22 dB 2:55 02-The Girl's Alright With Me
DR9 0.00 dB -11.28 dB 3:03 03-Just Another Lonely Night
DR9 0.00 dB -11.06 dB 3:06 04-My Baby
DR9 -0.20 dB -10.90 dB 2:41 05-You've Got To Earn It
DR7 -1.08 dB -9.61 dB 2:59 06-Everybody Needs Love
DR9 0.00 dB -10.59 dB 2:23 07-Girl (Why You Wanna Make Me Blue)
DR9 -0.38 dB -11.44 dB 2:56 08-Don't Look Back
DR8 -1.23 dB -11.06 dB 2:40 09-I Gotta Know Now
DR9 0.00 dB -11.10 dB 2:41 10-Born To Love You
DR10 -0.62 dB -12.64 dB 3:00 11-I'll Be In Trouble
DR7 -1.19 dB -10.19 dB 2:24 12-You're The One I Need
––––––––––––––––––––––––––––––––––––––––

Number of tracks: 12
Official DR value: DR9

Samplerate: 44100 Hz
Channels: 2
Bits per sample: 16
Bitrate: 901 kbps
Codec: FLAC
================================================================================

Thanks to my friend, M@ce

See also:

♫~Welcome To My Blog~♫

password: BlondStyle