Subcategories

Thelonious Monk & Joe Turner - In Paris [Recorded 1952-1954] (1995)

Posted By: gribovar
Thelonious Monk & Joe Turner - In Paris [Recorded 1952-1954] (1995)

Thelonious Monk & Joe Turner - In Paris [Recorded 1952-1954] (1995)
EAC Rip | FLAC (image+.cue+log) - 250 MB | MP3 CBR 320 kbps (LAME 3.93) - 171 MB | Covers - 41 MB
Genre: Piano Jazz | RAR 3% Rec. | Label: Disques Vogue (09026-68210-2)

This CD combines together two unrelated solo piano sets. The nine performances by Thelonious Monk are a bit familiar since these renditions (which are highlighted by "'Round Midnight," "Well You Needn't," "We See" and "Hackensack") had been previously reissued by GNP/Crescendo and Mosaic. However the 13 selections (including three alternate takes) by Joe Turner (no relation to singer Big Joe Turner) are much rarer. Turner, a talented American stride pianist who spent most of his life living in France, had only recorded ten songs as a leader prior to this 1952 session and is in top form for such numbers as "Hallelujah," "Between the Devil and the Deep Blue Sea," "Wedding Boogie" and three versions of "Tea for Two." This CD is easily recommended to jazz piano collectors who do not already have the Monk selections.
Tracklist:

Thelonious Monk - piano solo. Recorded in Paris on June 7, 1954:
01. 'Round About Midnight
02. Evidence
03. Smoke Gets in Your Eyes
04. Well, You Needn't
05. Reflections
06. We See
07. Eronel
08. Off Minor
09. Hackensack

Joe Turner - piano solo. Recorded in Paris in March 1952:
10. Hallelujah
11. Sweet and Lovely
12. Sweet and Lovely
13. Between the Devil and the Deep Blue Sea
14. I Cover the Waterfront
15. I've Got the World on a String
16. You're the Cream in My Coffee
17. Tea for Two
18. Tea for Two
19. Tea for Two
20. Frankie and Johnny
21. Wedding Boogie
22. Rita

Total time: 01:12:46

Exact Audio Copy V1.0 beta 1 from 15. November 2010

EAC extraction logfile from 27. January 2012, 21:36

Various / Thelonious Monk & Joe Turner in Paris

Used drive : ASUS DRW-24B1LT Adapter: 5 ID: 0

Read mode : Secure
Utilize accurate stream : Yes
Defeat audio cache : Yes
Make use of C2 pointers : No

Read offset correction : 6
Overread into Lead-In and Lead-Out : No
Fill up missing offset samples with silence : Yes
Delete leading and trailing silent blocks : No
Null samples used in CRC calculations : Yes
Used interface : Native Win32 interface for Win NT & 2000

Used output format : User Defined Encoder
Selected bitrate : 768 kBit/s
Quality : High
Add ID3 tag : No
Command line compressor : C:\Program Files\Exact Audio Copy\Flac\flac.exe
Additional command line options : -8 -V -T "ARTIST=%a" -T "TITLE=%t" -T "ALBUM=%g" -T "DATE=%y" -T "TRACKNUMBER=%n" -T "TOTALTRACKS=%x" -T "GENRE=%m" -T "ALBUMARTIST=%v" -T "ALBUM ARTIST=%v" -T "COMMENT=EAC Secure Mode, Test & Copy, AccurateRip, FLAC -8" %s


TOC of the extracted CD

Track | Start | Length | Start sector | End sector
––––––––––––––––––––––––––––-
1 | 0:00.32 | 5:16.58 | 32 | 23789
2 | 5:17.15 | 3:06.25 | 23790 | 37764
3 | 8:23.40 | 3:25.60 | 37765 | 53199
4 | 11:49.25 | 3:26.27 | 53200 | 68676
5 | 15:15.52 | 5:01.60 | 68677 | 91311
6 | 20:17.37 | 2:37.10 | 91312 | 103096
7 | 22:54.47 | 2:34.70 | 103097 | 114716
8 | 25:29.42 | 2:32.58 | 114717 | 126174
9 | 28:02.25 | 3:10.67 | 126175 | 140491
10 | 31:13.17 | 3:04.65 | 140492 | 154356
11 | 34:18.07 | 3:20.25 | 154357 | 169381
12 | 37:38.32 | 3:32.10 | 169382 | 185291
13 | 41:10.42 | 2:56.08 | 185292 | 198499
14 | 44:06.50 | 3:03.57 | 198500 | 212281
15 | 47:10.32 | 2:54.33 | 212282 | 225364
16 | 50:04.65 | 2:47.07 | 225365 | 237896
17 | 52:51.72 | 3:01.50 | 237897 | 251521
18 | 55:53.47 | 3:08.68 | 251522 | 265689
19 | 59:02.40 | 4:00.45 | 265690 | 283734
20 | 63:03.10 | 3:19.05 | 283735 | 298664
21 | 66:22.15 | 3:11.27 | 298665 | 313016
22 | 69:33.42 | 3:12.03 | 313017 | 327419


Range status and errors

Selected range

Filename F:\audio\Thelonious Monk & Joe Turner - In Paris.wav

Peak level 100.0 %
Extraction speed 0.2 X
Range quality 100.0 %
Test CRC B5AE214A
Copy CRC B5AE214A
Copy OK

No errors occurred


AccurateRip summary

Track 1 accurately ripped (confidence 3) [3A6AAD0B]
Track 2 accurately ripped (confidence 3) [1DACAA3A]
Track 3 accurately ripped (confidence 3) [C9426738]
Track 4 accurately ripped (confidence 3) [11449A00]
Track 5 accurately ripped (confidence 3) [B9D2AC30]
Track 6 accurately ripped (confidence 3) [CFA354F4]
Track 7 accurately ripped (confidence 3) [F4319CC5]
Track 8 accurately ripped (confidence 3) [F35F8CDC]
Track 9 accurately ripped (confidence 3) [FE013CBC]
Track 10 accurately ripped (confidence 3) [CB82D252]
Track 11 accurately ripped (confidence 3) [C1D2B4D0]
Track 12 accurately ripped (confidence 3) [C5FA6CB0]
Track 13 accurately ripped (confidence 3) [16CA984F]
Track 14 accurately ripped (confidence 3) [F0D8276E]
Track 15 accurately ripped (confidence 3) [D01858CF]
Track 16 accurately ripped (confidence 3) [96B52FE9]
Track 17 accurately ripped (confidence 3) [952BF22E]
Track 18 accurately ripped (confidence 3) [3FEC94C1]
Track 19 accurately ripped (confidence 3) [3A8C4906]
Track 20 accurately ripped (confidence 3) [A7C59DEB]
Track 21 accurately ripped (confidence 3) [A533028C]
Track 22 accurately ripped (confidence 3) [D0965510]

All tracks accurately ripped

End of status report

==== Log checksum 067F3ECA336A3ED03765F2EC2724476A8EA023099FBE0E7CCD1E90CD5CD9035E ====

[CUETools log; Date: 29.03.2018 21:14:14; Version: 2.1.4]
Pregap length 00:00:32.
[CTDB TOCID: Q2ZR.wzLgoYuKs1inlPvPDwTudg-] found.
Track | CTDB Status
1 | (6/6) Accurately ripped
2 | (6/6) Accurately ripped
3 | (6/6) Accurately ripped
4 | (6/6) Accurately ripped
5 | (6/6) Accurately ripped
6 | (6/6) Accurately ripped
7 | (6/6) Accurately ripped
8 | (6/6) Accurately ripped
9 | (6/6) Accurately ripped
10 | (6/6) Accurately ripped
11 | (6/6) Accurately ripped
12 | (6/6) Accurately ripped
13 | (6/6) Accurately ripped
14 | (6/6) Accurately ripped
15 | (6/6) Accurately ripped
16 | (6/6) Accurately ripped
17 | (6/6) Accurately ripped
18 | (6/6) Accurately ripped
19 | (6/6) Accurately ripped
20 | (6/6) Accurately ripped
21 | (6/6) Accurately ripped
22 | (6/6) Accurately ripped
[AccurateRip ID: 003b3d8d-03a4df41-3f110d16] found.
Track [ CRC | V2 ] Status
01 [3a6aad0b|da23cdf9] (3+4/7) Accurately ripped
02 [1dacaa3a|d70e6b47] (3+4/7) Accurately ripped
03 [c9426738|5dd9408d] (3+4/7) Accurately ripped
04 [11449a00|0ef9957b] (3+4/7) Accurately ripped
05 [b9d2ac30|ee8fcc7d] (3+4/7) Accurately ripped
06 [cfa354f4|e6cef09f] (3+4/7) Accurately ripped
07 [f4319cc5|e396f168] (3+4/7) Accurately ripped
08 [f35f8cdc|1889934c] (3+4/7) Accurately ripped
09 [fe013cbc|0d344e58] (3+4/7) Accurately ripped
10 [cb82d252|8823f064] (3+4/7) Accurately ripped
11 [c1d2b4d0|af8d1ec3] (3+4/7) Accurately ripped
12 [c5fa6cb0|57b206b1] (3+4/7) Accurately ripped
13 [16ca984f|b598b649] (3+4/7) Accurately ripped
14 [f0d8276e|0a8a4cf6] (3+4/7) Accurately ripped
15 [d01858cf|7f0ffc53] (3+4/7) Accurately ripped
16 [96b52fe9|2c97f778] (3+4/7) Accurately ripped
17 [952bf22e|e8a10872] (3+4/7) Accurately ripped
18 [3fec94c1|07acb6f3] (3+4/7) Accurately ripped
19 [3a8c4906|ebf51434] (3+4/7) Accurately ripped
20 [a7c59deb|68eae5b3] (3+4/7) Accurately ripped
21 [a533028c|ac3ceb8d] (3+4/7) Accurately ripped
22 [d0965510|e2be6fc7] (3+4/7) Accurately ripped

Track Peak [ CRC32 ] [W/O NULL] [ LOG ]
– 100,0 [B5AE214A] [788F60AA] CRC32
01 100,0 [71442133] [AEE2ECAF]
02 92,2 [A53EE7D5] [37EEA0DD]
03 92,2 [541ACEFA] [EDB26B35]
04 92,2 [FD401156] [C9EB0C53]
05 83,6 [62D650F2] [0BCEE695]
06 89,2 [148C6935] [BD31E8A9]
07 88,3 [10FBC322] [C3FF49D0]
08 75,3 [1F40E71E] [AAE22D3F]
09 76,8 [935287C8] [5116573E]
10 83,6 [4E85B71F] [C5E2C94D]
11 77,6 [758942B0] [24C7AF34]
12 54,2 [35C7712E] [78C62902]
13 60,4 [9DF63BE9] [5CCF7557]
14 70,1 [72D50E6F] [60F34499]
15 63,8 [4ED9902D] [4A597F0A]
16 65,7 [DC760057] [52CCADE7]
17 85,7 [796BE967] [C429C4B7]
18 81,1 [E3FFC64C] [88868A74]
19 80,8 [A52353C6] [9A34C6E3]
20 87,0 [DDE2EBB2] [CC6FA7C5]
21 75,3 [0E0CBF79] [1495E281]
22 89,0 [9F56B914] [7A8D05C0]

Thanks to fiks22

See also:
Thelonious Monk - The Riverside Tenor Sessions (1957-1961) [7CD Box Set] (1998)
Thelonious Monk Quintet - Monk (1954) [Reissue 2009]
Thelonious Monk - 1951-1952 (2007)