Subcategories

Third Ear Band - Music From Macbeth (1972) [Japan (mini-LP) CD 2003] Re-up

Posted By: Andi_Deris
Third Ear Band - Music From Macbeth (1972) [Japan (mini-LP) CD 2003] Re-up

Third Ear Band - Music From Macbeth (1972) [Japan (mini-LP) CD 2003]
EAC Rip | FLAC: Image+Cue+Log | 216 Mb | MP3 CBR 320 kbps | 109 Mb | Scans | Time: 43:42
Toshiba-EMI Ltd. | TOCP-65788
Rock, World, Indo-Prog/Raga Rock, Experimental, Soundtrack

Music from Macbeth is a 1972 album by progressive-rock band Third Ear Band. It consists of the soundtrack from Roman Polanski's 1971 film Macbeth, an adaptation of Shakespeare's The Tragedy of Macbeth.

Their score for Roman Polanski's Macbeth film required the group to work in a somewhat more constricted format. So instead of lengthy hypnotic drones, this album's split into 16 separate pieces, some of them quite short. It's consequently not as reflective of their highest ambitions as the Third Ear Band album, and loses a bit when placed out of context from the Shakespeare classic. It still works reasonably effectively on its own, conjuring appopriately ominous Elizabethean moods, with the surprise addition of (uncredited) female vocals on one track. ~ Review by Richie Unterberger



Track Listing

01. Overture (4:20)
02. The Beach (1:54)
03. Lady Macbeth (1:47)
04. Inverness: Macbeth's Return/The Preparation/Fanfare/Duncan's Arrival (5:00)
05. The Banquet (1:21)
06. Dagger and Earth (2:49)
07. At the Well/The Princes's Escape/Coronation/Come Sealing Night (3:03)
08. Court Dance (2:28)
09. Fleance (4:02)
10. Groom's Dance (4:21)
11. Bear Baiting (1:10)
12. Ambush/Banquo's Ghost (2:27)
13. Going to Bed/Blind Man's Buff/Requiescant/Sere and Yellow Leaf (3:04)
14. The Cauldron (2:39)
15. Prophesies (1:53)
16. Wicca Way (1:24)

Produced by Andrew King and Third Ear Band

The Band

• Paul Minns - oboe and recorder
• Glen Sweeney - drums
• Paul Buckmaster - cello and bass guitar
• Simon House - violin and V.C.S.3
• Denim Bridges - guitars

Notes

24-bit Remastered
Limited Edition Japanese pressing of this album comes housed in a miniature LP sleeve.


Exact Audio Copy V1.0 beta 3 from 29. August 2011

EAC extraction logfile from 16. July 2013, 17:21

Third Ear Band / Music of Macbeth

Used drive : Optiarc BDRW BD-M100A Adapter: 0 ID: 0

Read mode : Secure
Utilize accurate stream : Yes
Defeat audio cache : Yes
Make use of C2 pointers : No

Read offset correction : 102
Overread into Lead-In and Lead-Out : No
Fill up missing offset samples with silence : Yes
Delete leading and trailing silent blocks : No
Null samples used in CRC calculations : Yes
Used interface : Native Win32 interface for Win NT & 2000

Used output format : User Defined Encoder
Selected bitrate : 128 kBit/s
Quality : High
Add ID3 tag : No
Command line compressor : C:\Program Files (x86)\Exact Audio Copy\Flac\flac.exe
Additional command line options : -V -8 -T "Date=%year%" -T "Genre=%genre%" %source%


TOC of the extracted CD

Track | Start | Length | Start sector | End sector
––––––––––––––––––––––––––––-
1 | 0:00.00 | 4:20.00 | 0 | 19499
2 | 4:20.00 | 1:54.37 | 19500 | 28086
3 | 6:14.37 | 1:47.63 | 28087 | 36174
4 | 8:02.25 | 5:00.40 | 36175 | 58714
5 | 13:02.65 | 1:21.52 | 58715 | 64841
6 | 14:24.42 | 2:49.38 | 64842 | 77554
7 | 17:14.05 | 3:03.55 | 77555 | 91334
8 | 20:17.60 | 2:28.45 | 91335 | 102479
9 | 22:46.30 | 4:02.47 | 102480 | 120676
10 | 26:49.02 | 4:21.33 | 120677 | 140284
11 | 31:10.35 | 1:10.25 | 140285 | 145559
12 | 32:20.60 | 2:27.42 | 145560 | 156626
13 | 34:48.27 | 3:04.35 | 156627 | 170461
14 | 37:52.62 | 2:39.40 | 170462 | 182426
15 | 40:32.27 | 1:53.38 | 182427 | 190939
16 | 42:25.65 | 1:24.15 | 190940 | 197254


Range status and errors

Selected range

Filename C:\Users\Desktop\Third Ear Band-Macbeth\Third Ear Band - Music of Macbeth.wav

Peak level 63.4 %
Extraction speed 4.9 X
Range quality 99.9 %
Test CRC 5B51216D
Copy CRC 5B51216D
Copy OK

No errors occurred

End of status report

==== Log checksum BCEFE8EFE2937CE82EAF73103B40A44B1B9E6A8C4ABE95D8DB0D82444863C34A ====


Many thanks to the original uploader: uta5erika5

SEE also:
Abstract Truth 1970 Silver Trees & Totum [Reissue 2005]

Third Ear Band 1969 Alchemy [Japan (mini-LP) CD 2003]
Third Ear Band 1970 Third Ear Band [Japan (mini-LP) CD 2003]