Subcategories

Barry Manilow - This Is My Town: Songs of New York (2017)

Posted By: SERTiL
Barry Manilow - This Is My Town: Songs of New York (2017)

Barry Manilow - This Is My Town: Songs of New York
EAC Rip | FLAC (tracks)+cue, log, m3u, front cover | 37:40 min | 254 MB
Label: Decca Records - B0026210-02 | Tracks: 10 | Rls.date: 2017
Pop, Easy Listening, Soft Rock

I'm a New York City boy; born and raised. So when it came time to create a new album, I thought, How about celebrating New York? How about saying thanks to the city for giving me my ambition, my sense of humor and my decency. - Barry Manilow

Barry latest studio album is a musical montage with all the sights and sounds of a great city. It's filled with different styles of music: Pop, Easy Jazz, Broadway type songs, early Rock n Roll, a little R&B and a little Funk. It's a musical melting pot just like New York.

THIS IS MY TOWN: SONGS OF NEW YORK is a musical journey. Hold on for the ride.

TRACKLIST
01. This Is My Town (03:00)
02. New York City Rhythm / On Broadway (03:57)
03. Coney Island (03:00)
04. Lonely Town (05:00)
05. Lovin' At Birdland (03:29)
06. Downtown / Uptown (03:20)
07. On the Roof (03:19)
08. I Dig New York (02:52)
09. The Brooklyn Bridge (feat. Mel Tormé) (02:44)
10. NYC Medley (06:59)

Exact Audio Copy V1.3 from 2. September 2016

EAC extraction logfile from 9. May 2017, 12:30

Barry Manilow / This Is My Town

Used drive : HL-DT-STDVDRAM GU70N Adapter: 1 ID: 0

Read mode : Secure
Utilize accurate stream : Yes
Defeat audio cache : Yes
Make use of C2 pointers : No

Read offset correction : 48
Overread into Lead-In and Lead-Out : No
Fill up missing offset samples with silence : Yes
Delete leading and trailing silent blocks : No
Null samples used in CRC calculations : Yes
Used interface : Native Win32 interface for Win NT & 2000
Gap handling : Appended to previous track

Used output format : User Defined Encoder
Selected bitrate : 1024 kBit/s
Quality : High
Add ID3 tag : No
Command line compressor : C:\Program Files (x86)\Exact Audio Copy\Flac\flac.exe
Additional command line options : -8 -e -V -T "ARTIST=%artist%" -T "TITLE=%title%" -T "ALBUM=%albumtitle%" -T "DATE=%year%" -T "TRACKNUMBER=%tracknr%" -T "GENRE=%genre%" -T "PERFORMER=%albuminterpret%" -T "COMPOSER=%composer%" %haslyrics%–tag-from-file=LYRICS="%lyricsfile%"%haslyrics% -T "ALBUMARTIST=%albumartist%" -T "DISCNUMBER=%cdnumber%" -T "TOTALDISCS=%totalcds%" -T "TOTALTRACKS=%numtracks%" -T "COMMENT=%comment%" %source% -o %dest%


TOC of the extracted CD

Track | Start | Length | Start sector | End sector
––––––––––––––––––––––––––––-
1 | 0:00.00 | 3:00.38 | 0 | 13537
2 | 3:00.38 | 3:57.10 | 13538 | 31322
3 | 6:57.48 | 3:00.27 | 31323 | 44849
4 | 9:58.00 | 5:00.13 | 44850 | 67362
5 | 14:58.13 | 3:29.58 | 67363 | 83095
6 | 18:27.71 | 3:20.39 | 83096 | 98134
7 | 21:48.35 | 3:19.72 | 98135 | 113131
8 | 25:08.32 | 2:52.54 | 113132 | 126085
9 | 28:01.11 | 2:44.32 | 126086 | 138417
10 | 30:45.43 | 6:59.13 | 138418 | 169855


Track 1

Filename C:\EAC\Barry Manilow - This Is My Town (2017) {Decca Records B0026210-02} [FLAC]\01 - This Is My Town.wav

Pre-gap length 0:00:02.00

Peak level 100.0 %
Extraction speed 1.2 X
Track quality 100.0 %
Test CRC D2C37634
Copy CRC D2C37634
Track not present in AccurateRip database
Copy OK

Track 2

Filename C:\EAC\Barry Manilow - This Is My Town (2017) {Decca Records B0026210-02} [FLAC]\02 - New York City Rhythm,On Broadway.wav

Peak level 100.0 %
Extraction speed 1.3 X
Track quality 100.0 %
Test CRC C8522248
Copy CRC C8522248
Track not present in AccurateRip database
Copy OK

Track 3

Filename C:\EAC\Barry Manilow - This Is My Town (2017) {Decca Records B0026210-02} [FLAC]\03 - Coney Island.wav

Peak level 100.0 %
Extraction speed 1.4 X
Track quality 100.0 %
Test CRC 2C1B22BA
Copy CRC 2C1B22BA
Track not present in AccurateRip database
Copy OK

Track 4

Filename C:\EAC\Barry Manilow - This Is My Town (2017) {Decca Records B0026210-02} [FLAC]\04 - Lonely Town.wav

Peak level 100.0 %
Extraction speed 1.6 X
Track quality 100.0 %
Test CRC B7622CF8
Copy CRC B7622CF8
Track not present in AccurateRip database
Copy OK

Track 5

Filename C:\EAC\Barry Manilow - This Is My Town (2017) {Decca Records B0026210-02} [FLAC]\05 - Lovin' At Birdland.wav

Peak level 100.0 %
Extraction speed 1.6 X
Track quality 100.0 %
Test CRC 17D6860F
Copy CRC 17D6860F
Track not present in AccurateRip database
Copy OK

Track 6

Filename C:\EAC\Barry Manilow - This Is My Town (2017) {Decca Records B0026210-02} [FLAC]\06 - Downtown,Uptown.wav

Peak level 100.0 %
Extraction speed 1.5 X
Track quality 99.9 %
Test CRC 59946B18
Copy CRC 59946B18
Track not present in AccurateRip database
Copy OK

Track 7

Filename C:\EAC\Barry Manilow - This Is My Town (2017) {Decca Records B0026210-02} [FLAC]\07 - On The Roof.wav

Peak level 100.0 %
Extraction speed 1.7 X
Track quality 100.0 %
Test CRC 00ED0582
Copy CRC 00ED0582
Track not present in AccurateRip database
Copy OK

Track 8

Filename C:\EAC\Barry Manilow - This Is My Town (2017) {Decca Records B0026210-02} [FLAC]\08 - I Dig New York.wav

Peak level 100.0 %
Extraction speed 1.8 X
Track quality 100.0 %
Test CRC BF7DCFC6
Copy CRC BF7DCFC6
Track not present in AccurateRip database
Copy OK

Track 9

Filename C:\EAC\Barry Manilow - This Is My Town (2017) {Decca Records B0026210-02} [FLAC]\09 - The Brooklyn Bridge.wav

Peak level 100.0 %
Extraction speed 1.8 X
Track quality 100.0 %
Test CRC 44E05A19
Copy CRC 44E05A19
Track not present in AccurateRip database
Copy OK

Track 10

Filename C:\EAC\Barry Manilow - This Is My Town (2017) {Decca Records B0026210-02} [FLAC]\10 - NYC Medley.wav

Peak level 100.0 %
Extraction speed 2.2 X
Track quality 100.0 %
Test CRC AA4AFE67
Copy CRC AA4AFE67
Track not present in AccurateRip database
Copy OK


None of the tracks are present in the AccurateRip database

No errors occurred

End of status report

–– CUETools DB Plugin V2.1.6

[CTDB TOCID: poJiJlBP7y.1n142aqSvM.728cI-] found
Submit result: poJiJlBP7y.1n142aqSvM.728cI- has been confirmed
Track | CTDB Status
1 | (7/7) Accurately ripped
2 | (7/7) Accurately ripped
3 | (7/7) Accurately ripped
4 | (7/7) Accurately ripped
5 | (7/7) Accurately ripped
6 | (7/7) Accurately ripped
7 | (7/7) Accurately ripped
8 | (7/7) Accurately ripped
9 | (7/7) Accurately ripped
10 | (7/7) Accurately ripped


==== Log checksum 51188CAC47FB0063FD8CCA2FCE001211506FCCDA84F300664568F801D71E7F34 ====


Thanks to the Original customer.