Subcategories

Thomas Chapin Trio - Menagerie Dreams (1995) {Knitting Factory}

Posted By: tiburon
Thomas Chapin Trio - Menagerie Dreams (1995) {Knitting Factory}

Thomas Chapin Trio - Menagerie Dreams (1995) {Knitting Factory}
EAC 1.3 | FLAC tracks level 8 | Cue+Log+M3U | Full Scans 300dpi | 372MB + 5% Recovery
MP3 CBR 320 Kbps | 202MB + 5% Recovery
Genre: Free Jazz, Post-Bop
Thomas Chapin Trio - Menagerie Dreams (1995) {Knitting Factory}

One of the late Thomas Chapin's finest all-round recordings, this set starts out in somewhat startling fashion with screaming by Chapin and John Zorn on altos before settling down into a relatively straight-ahead jam. Zorn is on two selections (including one that includes poetry from Vernon Frazer) but otherwise this is a trio outing, showcasing Chapin on flute, baritone, soprano, and particularly alto while joined by bassist Mario Pavone and drummer Michael Sarin. While there are adventurous and free sections, Chapin also has the opportunity to play the blues (on Thelonious Monk's "Raise Four"), completely rework Duke Ellington's "Daydream" (which is given a Western motif by bassist Pavone), show off the influence of Eric Dolphy, and introduce such intriguing originals as "A Drunken Monkey" and "The Night Hog." Highly recommended.
Track List
01. Bad Birdie (Trio 1) (10:10) (Thomas Chapin)
02. Menagerie Dreams (01:40) (Thomas Chapin)
03. Raise Four (07:00) (Thelonious Monk)
04. The Night Hog (05:45) (Thomas Chapin)
05. Poignant Dream (07:39) (Borah Bergman)
06. A Drunken Monkey (12:48) (Thomas Chapin)
07. Daydream (07:33) (Duke Ellington)
08. Put Your Quarter In And Watch The Chicken Dance (10:46) (Thomas Chapin)
09. Foxwoods Stomp (08:05) (Mario Pavone)

musicians
Thomas Chapin - alto sax, flute, baritone sax & mezzo-soprano sax
Mario Pavone - bass
Michael Sarin - drums, gongs
John Zorn - alto sax on "Birdie" and "Chicken"

Produced by Thomas Chapin


Exact Audio Copy V1.3 from 2. September 2016

EAC extraction logfile from 1. August 2017, 19:30

Thomas Chapin Trio / Menagerie Dreams

Used drive : hp CDDVDW SN-208BB Adapter: 1 ID: 0

Read mode : Secure
Utilize accurate stream : Yes
Defeat audio cache : Yes
Make use of C2 pointers : No

Read offset correction : 6
Overread into Lead-In and Lead-Out : No
Fill up missing offset samples with silence : Yes
Delete leading and trailing silent blocks : No
Null samples used in CRC calculations : Yes
Used interface : Native Win32 interface for Win NT & 2000
Gap handling : Appended to previous track

Used output format : User Defined Encoder
Selected bitrate : 768 kBit/s
Quality : High
Add ID3 tag : No
Command line compressor : C:\Program Files (x86)\Exact Audio Copy\Flac\flac.exe
Additional command line options : -V -8 -T "Genre=%genre%" -T "Artist=%artist%" -T "Title=%title%" -T "Album=%albumtitle%" -T "Date=%year%" -T "Tracknumber=%tracknr%" -T "Comment=%comment%" %source%


TOC of the extracted CD

Track | Start | Length | Start sector | End sector
––––––––––––––––––––––––––––-
1 | 0:00.00 | 10:12.17 | 0 | 45916
2 | 10:12.17 | 1:40.28 | 45917 | 53444
3 | 11:52.45 | 7:12.20 | 53445 | 85864
4 | 19:04.65 | 5:47.57 | 85865 | 111946
5 | 24:52.47 | 7:41.58 | 111947 | 146579
6 | 32:34.30 | 12:50.42 | 146580 | 204371
7 | 45:24.72 | 7:35.43 | 204372 | 238539
8 | 53:00.40 | 10:36.57 | 238540 | 286296
9 | 63:37.22 | 8:07.65 | 286297 | 322886


Track 1

Filename E:\Music\CDRip\Thomas Chapin Trio - Menagerie Dreams (1995) [FLAC] {Knitting Factory Works KFW 167}\01 - Bad Birdie.wav

Pre-gap length 0:00:02.00

Peak level 96.0 %
Extraction speed 2.3 X
Track quality 100.0 %
Test CRC 07F1999E
Copy CRC 07F1999E
Accurately ripped (confidence 3) [3CB70C3D] (AR v2)
Copy OK

Track 2

Filename E:\Music\CDRip\Thomas Chapin Trio - Menagerie Dreams (1995) [FLAC] {Knitting Factory Works KFW 167}\02 - Menagerie Dreams.wav

Peak level 42.5 %
Extraction speed 1.9 X
Track quality 100.0 %
Test CRC 141815A9
Copy CRC 141815A9
Accurately ripped (confidence 4) [BDDE9085] (AR v2)
Copy OK

Track 3

Filename E:\Music\CDRip\Thomas Chapin Trio - Menagerie Dreams (1995) [FLAC] {Knitting Factory Works KFW 167}\03 - Raise Four.wav

Peak level 87.1 %
Extraction speed 2.2 X
Track quality 99.9 %
Test CRC EFF98F5A
Copy CRC EFF98F5A
Accurately ripped (confidence 4) [A7A96A3F] (AR v2)
Copy OK

Track 4

Filename E:\Music\CDRip\Thomas Chapin Trio - Menagerie Dreams (1995) [FLAC] {Knitting Factory Works KFW 167}\04 - The Night Hog.wav

Peak level 97.6 %
Extraction speed 2.8 X
Track quality 100.0 %
Test CRC DF491407
Copy CRC DF491407
Accurately ripped (confidence 4) [EC6F453A] (AR v2)
Copy OK

Track 5

Filename E:\Music\CDRip\Thomas Chapin Trio - Menagerie Dreams (1995) [FLAC] {Knitting Factory Works KFW 167}\05 - Poignant Dream.wav

Pre-gap length 0:00:01.72

Peak level 69.1 %
Extraction speed 2.7 X
Track quality 99.9 %
Test CRC 3501713F
Copy CRC 3501713F
Accurately ripped (confidence 4) [C55146A1] (AR v2)
Copy OK

Track 6

Filename E:\Music\CDRip\Thomas Chapin Trio - Menagerie Dreams (1995) [FLAC] {Knitting Factory Works KFW 167}\06 - A Drunken Monkey.wav

Pre-gap length 0:00:02.23

Peak level 100.0 %
Extraction speed 3.2 X
Track quality 99.9 %
Test CRC 49725EDD
Copy CRC 49725EDD
Accurately ripped (confidence 4) [A8EAC1BB] (AR v2)
Copy OK

Track 7

Filename E:\Music\CDRip\Thomas Chapin Trio - Menagerie Dreams (1995) [FLAC] {Knitting Factory Works KFW 167}\07 - Daydream.wav

Pre-gap length 0:00:02.25

Peak level 96.0 %
Extraction speed 3.7 X
Track quality 100.0 %
Test CRC 403DC0A9
Copy CRC 403DC0A9
Accurately ripped (confidence 4) [8AD08053] (AR v2)
Copy OK

Track 8

Filename E:\Music\CDRip\Thomas Chapin Trio - Menagerie Dreams (1995) [FLAC] {Knitting Factory Works KFW 167}\08 - Put Your Quarter In and Watch the Chicken Dance.wav

Pre-gap length 0:00:02.35

Peak level 81.3 %
Extraction speed 3.6 X
Track quality 99.9 %
Test CRC F9D8F4D6
Copy CRC F9D8F4D6
Accurately ripped (confidence 4) [26579815] (AR v2)
Copy OK

Track 9

Filename E:\Music\CDRip\Thomas Chapin Trio - Menagerie Dreams (1995) [FLAC] {Knitting Factory Works KFW 167}\09 - Foxwoods Stomp.wav

Pre-gap length 0:00:02.02

Peak level 96.0 %
Extraction speed 4.2 X
Track quality 100.0 %
Test CRC 34C46F62
Copy CRC 34C46F62
Accurately ripped (confidence 4) [9BB0B5F6] (AR v2)
Copy OK


All tracks accurately ripped

No errors occurred

End of status report

==== Log checksum B269D29335750FD28D497C453455023EB8CBF29F17882A2E16DD0211A16FA7C8 ====


––––––––––––––––––––––––––––––––––––––––
Analyzed: Thomas Chapin Trio / Menagerie Dreams
––––––––––––––––––––––––––––––––––––––––

DR Peak RMS Duration Track
––––––––––––––––––––––––––––––––––––––––
DR15 -0.35 dB -17.79 dB 10:12 01-Bad Birdie
DR12 -7.42 dB -24.89 dB 1:40 02-Menagerie Dreams
DR21 -1.20 dB -26.24 dB 7:12 03-Raise Four
DR16 -0.21 dB -20.34 dB 5:48 04-The Night Hog
DR18 -3.21 dB -25.48 dB 7:42 05-Poignant Dream
DR17 0.00 dB -20.76 dB 12:51 06-A Drunken Monkey
DR19 -0.35 dB -22.59 dB 7:36 07-Daydream
DR15 -1.79 dB -21.90 dB 10:37 08-Put Your Quarter In and Watch the Chicken Dance
DR16 -0.35 dB -18.33 dB 8:08 09-Foxwoods Stomp
––––––––––––––––––––––––––––––––––––––––

Number of tracks: 9
Official DR value: DR16

Samplerate: 44100 Hz
Channels: 2
Bits per sample: 16
Bitrate: 742 kbps
Codec: FLAC
================================================================================

Thomas Chapin Trio - Menagerie Dreams (1995) {Knitting Factory}
Thomas Chapin Trio - Menagerie Dreams (1995) {Knitting Factory}
Thomas Chapin Trio - Menagerie Dreams (1995) {Knitting Factory}


Thanks to the original ripper